osu file format v14

[General]
AudioFilename: audio.mp3
AudioLeadIn: 0
PreviewTime: 32897
Countdown: 0
SampleSet: None
StackLeniency: 0.7
Mode: 0
LetterboxInBreaks: 0
WidescreenStoryboard: 1

[Editor]
Bookmarks: 18835,24460,52366,90118
DistanceSpacing: 1.5
BeatDivisor: 2
GridSize: 4
TimelineZoom: 1.5

[Metadata]
Title:Yume Tourou
TitleUnicode:夢灯籠
Artist:RADWIMPS
ArtistUnicode:RADWIMPS
Creator:Nines
Version:Normal
Source:君の名は。
Tags:kimi no na wa your name dream lantern
BeatmapID:1382169
BeatmapSetID:598831

[Difficulty]
HPDrainRate:4
CircleSize:3.5
OverallDifficulty:5.5
ApproachRate:5.8
SliderMultiplier:1.3
SliderTickRate:2

[Events]
//Background and Video events
0,0,"59184008_p0.jpg",0,0
Video,0,"android480pknnw.mp4"
//Break Periods
//Storyboard Layer 0 (Background)
//Storyboard Layer 1 (Fail)
//Storyboard Layer 2 (Pass)
//Storyboard Layer 3 (Foreground)
//Storyboard Sound Samples

[TimingPoints]
27273,697.674418604651,4,3,1,20,1,0
32156,-100,4,3,1,40,0,0
32897,348.837209302326,4,3,1,100,1,0
32897,-133.333333333333,4,3,1,100,0,0
49467,-117.647058823529,4,3,1,50,0,0
59409,-166.666666666667,4,3,1,50,0,0
59758,-117.647058823529,4,3,3,50,0,0
59932,-166.666666666667,4,3,2,50,0,0
60107,-166.666666666667,4,3,1,50,0,0
60281,-200,4,3,1,50,0,0
60455,-200,4,3,1,30,0,0
60804,337.078651685393,4,1,1,100,1,1
60804,-80,4,1,1,80,0,1
71590,-133.333333333333,4,3,1,80,0,0
93163,-133.333333333333,4,3,1,80,0,0
98556,-80,4,1,1,80,0,1
109343,-66.6666666666667,4,1,1,80,0,1
121983,-66.6666666666667,4,3,1,70,0,0
122826,-80,4,1,1,80,0,1
133444,-66.6666666666667,4,3,1,70,0,0

[HitObjects]
256,192,27273,12,0,32156,0:0:0:0:
344,204,32897,6,0,P|416:192|472:240,2,146.250005578995,0|0|0,0:0|0:0|0:0,0:0:0:0:
284,293,34293,2,0,P|224:332|156:312,2,146.250005578995,0|0|0,0:0|0:0|0:0,0:0:0:0:
240,196,35688,6,0,B|216:100|216:100|236:44,2,146.250005578995,0|0|0,0:0|0:0|0:0,0:0:0:0:
368,208,37083,2,0,P|420:208|460:172,1,97.50000371933,0|0,0:0|0:0,0:0:0:0:
420,80,37781,2,0,P|368:80|328:116,1,97.50000371933,0|0,0:0|0:0,0:0:0:0:
328,216,38479,6,0,B|370:233|370:233|470:221,2,146.250005578995,0|0|0,0:0|0:0|0:0,0:0:0:0:
232,168,39874,2,0,P|156:160|92:216,2,146.250005578995,0|0|0,0:0|0:0|0:0,0:0:0:0:
244,264,41269,2,0,B|232:328|232:328|204:355,1,97.50000371933,0|0,0:0|0:0,0:0:0:0:
144,280,41967,2,0,L|68:292,2,73.1250027894975,0|0|0,0:0|0:0|0:0,0:0:0:0:
276,276,42665,6,0,P|367:303|452:260,1,195.00000743866,0|0,0:0|0:0,0:0:0:0:
480,168,43711,1,0,0:0:0:0:
444,72,44060,6,0,B|364:124|364:124|296:104,1,146.250005578995,0|0,0:0|0:0,0:0:0:0:
240,88,44758,2,0,B|192:64|192:64|108:108,1,146.250005578995,0|0,0:0|0:0,0:0:0:0:
120,192,45455,2,0,P|176:216|260:188,1,146.250005578995,0|0,0:0|0:0,0:0:0:0:
336,164,46153,2,0,P|340:212|300:268,1,97.50000371933,0|0,0:0|0:0,0:0:0:0:
240,332,46851,6,0,B|280:365|280:365|326:374|367:329,2,146.250005578995,0|0|0,0:0|0:0|0:0,0:0:0:0:
152,284,48246,2,0,P|184:244|236:232,1,97.50000371933,0|2,0:0|0:0,0:0:0:0:
304,228,48769,1,2,0:0:0:0:
352,292,48944,2,0,P|408:308|448:296,1,97.50000371933,0|0,0:0|0:0,0:0:0:0:
496,184,49642,6,0,P|432:184|400:224,1,110.50000210762,2|8,0:0|0:0,0:0:0:0:
372,320,50339,2,0,L|376:380,2,55.2500010538101,2|2|8,0:0|0:0|0:0,0:0:0:0:
308,264,50862,1,0,0:0:0:0:
252,324,51037,6,0,B|196:340|196:340|144:329,1,110.50000210762,2|8,0:0|0:0,0:0:0:0:
48,196,51735,2,0,L|44:132,2,55.2500010538101,2|2|8,0:0|0:0|0:0,0:0:0:0:
92,264,52257,6,0,P|124:220|122:161,1,110.50000210762,2|0,0:0|0:0,0:0:0:0:
104,84,52780,2,0,L|112:24,1,55.2500010538101,8|0,0:0|0:0,0:0:0:0:
188,64,53129,2,0,P|248:100|244:160,1,110.50000210762
192,188,53652,6,0,L|301:199,1,110.50000210762,2|2,0:0|0:0,0:0:0:0:
384,208,54176,1,8,0:0:0:0:
464,352,54525,2,0,P|470:325|468:288,2,55.2500010538101
324,264,55223,6,0,P|304:316|312:372,1,110.50000210762,2|8,0:0|0:0,0:0:0:0:
400,228,55921,2,0,L|460:236,2,55.2500010538101,2|2|8,0:0|0:0|0:0,0:0:0:0:
269,342,56618,6,0,P|215:345|165:322,1,110.50000210762,2|8,0:0|0:0,0:0:0:0:
100,220,57316,2,0,L|44:212,2,55.2500010538101,2|2|8,0:0|0:0|0:0,0:0:0:0:
148,152,57838,1,0,0:0:0:0:
80,100,58014,2,0,P|124:64|180:60,1,110.50000210762,2|8,0:0|0:0,0:0:0:0:
248,100,58536,1,0,0:0:0:0:
292,172,58710,2,0,P|352:160|412:208,1,110.50000210762
336,244,59234,6,0,B|280:269|280:269|178:244,1,165.75000316143,2|0,0:0|0:0,0:0:0:0:
423,239,60281,6,0,P|423:256|420:272,2,32.5,0|2|2,0:0|0:0|0:0,0:0:0:0:
436,160,60804,6,0,B|340:136|340:136|272:168,1,162.5,2|2,0:0|0:0,0:0:0:0:
168,216,61478,2,0,P|192:288|284:312,1,162.5,2|2,0:0|0:0,0:0:0:0:
220,136,62152,2,0,P|145:120|78:188,1,162.5,2|2,0:0|0:0,0:0:0:0:
256,228,62826,2,0,P|289:204|312:164,2,81.25,2|8|10,0:0|0:0|0:0,0:0:0:0:
220,136,63500,6,0,P|142:112|61:116,1,162.5,2|2,0:0|0:0,0:0:0:0:
97,238,64174,2,0,P|175:219|256:228,1,162.5,2|2,0:0|0:0,0:0:0:0:
392,242,64848,2,0,B|350:247|321:275|321:275|289:237|254:227,1,162.5,2|2,0:0|0:0,0:0:0:0:
97,239,65523,2,0,L|85:319,2,81.25,2|0|2,0:0|0:0|0:0,0:0:0:0:
286,170,66197,6,0,B|304:284|304:284|286:327,1,162.5,2|2,0:0|0:0,0:0:0:0:
124,256,66871,2,0,L|104:92,1,162.5,2|2,0:0|0:0,0:0:0:0:
280,60,67545,2,0,P|364:44|436:84,1,162.5,2|2,0:0|0:0,0:0:0:0:
412,256,68219,2,0,L|404:344,2,81.25,2|8|10,0:0|0:0|0:0,0:0:0:0:
272,148,68893,6,0,B|152:128|152:128|100:156,1,162.5,2|2,0:0|0:0,0:0:0:0:
268,240,69568,2,0,B|388:220|388:220|440:248,1,162.5,2|2,0:0|0:0,0:0:0:0:
268,328,70242,2,0,B|148:308|148:308|96:336,1,162.5,2|2,0:0|0:0,0:0:0:0:
268,240,70916,6,0,P|277:200|269:160,1,81.25,2|2,0:0|0:0,0:0:0:0:
212,96,71253,2,0,P|172:88|132:94,1,81.25,2|2,0:0|0:0,0:0:0:0:
72,156,71590,6,0,B|44:284|44:284|72:352,1,195,2|2,0:0|0:0,0:0:0:0:
152,276,72601,1,2,0:0:0:0:
235,343,72938,2,0,P|326:375|416:344,1,195.00000743866,2|2,0:0|0:0,0:0:0:0:
448,240,73950,1,2,0:0:0:0:
344,208,74287,6,0,B|308:171|296:118|296:118|315:66|362:39,1,195.00000743866,2|2,0:0|0:0,0:0:0:0:
456,36,75298,1,2,0:0:0:0:
408,128,75635,2,0,L|204:116,1,195.00000743866,2|2,0:0|0:0,0:0:0:0:
108,108,76646,1,2,0:0:0:0:
44,192,76983,6,0,P|48:308|128:344,1,195.00000743866,2|2,0:0|0:0,0:0:0:0:
176,260,77995,1,2,0:0:0:0:
248,336,78332,2,0,B|392:356|392:356|444:320,1,195.00000743866,2|2,0:0|0:0,0:0:0:0:
456,200,79343,1,2,0:0:0:0:
364,264,79680,6,0,B|336:184|372:116|372:116|348:60,1,195.00000743866,2|2,0:0|0:0,0:0:0:0:
256,36,80691,1,2,0:0:0:0:
156,76,81028,2,0,B|139:115|139:115|175:182|147:262,1,195.00000743866,2|2,0:0|0:0,0:0:0:0:
72,340,82039,1,2,0:0:0:0:
172,384,82377,6,0,B|316:364|316:364|268:328,1,195.00000743866,6|2,0:0|0:0,0:0:0:0:
176,247,83388,1,2,0:0:0:0:
72,332,83725,2,0,P|68:353|68:388,2,48.750001859665,2|0|2,0:0|0:0|0:0,0:0:0:0:
172,296,84399,2,0,P|175:274|176:240,2,48.750001859665,2|0|2,0:0|0:0|0:0,0:0:0:0:
76,200,85073,6,0,B|180:152|180:152|252:196,1,195.00000743866,2|2,0:0|0:0,0:0:0:0:
344,260,86084,1,2,0:0:0:0:
408,160,86421,2,0,P|448:120|496:104,1,97.50000371933,2|2,0:0|0:0,0:0:0:0:
396,48,87096,2,0,P|352:20|304:16,1,97.50000371933,2|2,0:0|0:0,0:0:0:0:
232,92,87770,6,0,B|220:152|220:152|228:192,1,97.50000371933,2|2,0:0|0:0,0:0:0:0:
264,304,88444,2,0,L|204:312,2,48.750001859665,2|0|2,0:0|0:0|0:0,0:0:0:0:
380,244,89118,2,0,L|428:252,2,48.750001859665,2|0|2,0:0|0:0|0:0,0:0:0:0:
272,172,89792,2,0,P|196:152|124:184,1,146.250005578995,2|0,0:0|0:0,0:0:0:0:
80,228,90466,6,0,P|29:149|52:58,1,195.00000743866,2|2,0:0|0:0,0:0:0:0:
172,4,91478,1,2,0:0:0:0:
316,32,91815,6,0,P|367:111|344:202,1,195.00000743866,2|2,0:0|0:1,0:0:0:0:
204,264,92826,1,2,3:0:0:0:
140,144,93163,6,0,L|148:76,2,48.750001859665,2|2|0,0:0|0:0|0:0,0:0:0:0:
208,228,93837,2,0,L|276:236,2,48.750001859665,2|0|2,0:1|0:0|0:0,0:0:0:0:
124,296,94511,2,0,L|118:344,2,48.750001859665,0|2|2,0:0|0:0|0:0,0:0:0:0:
56,212,95186,2,0,L|7:206,2,48.750001859665,2|2|0,0:1|0:0|0:0,0:0:0:0:
140,144,95860,6,0,L|148:76,2,48.750001859665,6|2|0,0:0|0:0|0:0,0:0:0:0:
208,228,96534,2,0,L|216:296,2,48.750001859665,2|2|0,0:1|0:0|0:0,0:0:0:0:
280,148,97208,2,0,L|285:99,2,48.750001859665,2|2|2,0:0|0:1|0:1,0:0:0:0:
352,228,97882,2,0,L|357:276,2,48.750001859665,2|2|2,0:1|0:1|0:0,0:0:0:0:
176,188,98556,6,0,B|52:168|52:168|96:140,1,162.5,6|0,0:3|0:0,0:0:0:0:
260,112,99230,2,0,P|284:192|260:272,1,162.5,0|0,0:0|0:0,0:0:0:0:
100,344,99905,2,0,P|160:288|244:276,1,162.5,0|0,0:0|0:0,0:0:0:0:
404,340,100579,2,0,B|452:228|452:228|440:164,1,162.5,0|0,0:0|0:0,0:0:0:0:
320,60,101253,6,0,B|240:72|240:72|200:144|200:144|108:160|64:80,2,325,0|0|0,0:0|0:0|0:0,0:0:0:0:
444,188,102938,1,0,0:0:0:0:
284,268,103275,2,0,L|204:276,2,81.25,2|2|2,0:3|0:3|0:3,0:0:0:0:
396,128,103950,6,0,B|516:144|516:144|468:172,1,162.5,4|0,0:3|0:0,0:0:0:0:
304,196,104624,2,0,P|280:120|312:40,1,162.5,0|0,0:0|0:3,0:0:0:0:
488,40,105298,2,0,P|404:76|328:52,1,162.5
168,16,105972,2,0,P|84:16|20:56,1,162.5
100,232,106646,6,0,B|112:108|112:108|64:144,1,162.5
16,288,107320,2,0,P|83:330|161:315,1,162.5
312,220,107995,2,0,B|388:184|388:184|456:240,1,162.5,0|0,0:0|0:0,0:0:0:0:
368,384,108669,2,0,B|376:292,2,81.25,2|0|0,0:3|0:0|0:0,0:0:0:0:
152,372,109343,6,0,P|92:304|88:176,1,195.00000743866,4|0,0:0|0:0,0:0:0:0:
224,44,110017,2,0,L|127:55,2,97.50000371933,0|0|0,0:0|0:0|0:0,0:0:0:0:
396,172,110691,2,0,B|248:188|248:188|276:151,1,195.00000743866,4|0,0:0|0:0,0:0:0:0:
480,88,111365,2,0,P|512:180|472:268,1,195.00000743866,0|0,0:0|0:0,0:0:0:0:
276,348,112039,6,0,P|256:240|264:148,1,195.00000743866,4|0,0:0|0:0,0:0:0:0:
456,60,112714,2,0,B|468:128|468:128|452:172,2,97.50000371933,0|0|0,0:0|0:0|0:0,0:0:0:0:
244,28,113388,2,0,P|128:12|40:24,1,195.00000743866,4|0,0:0|0:0,0:0:0:0:
4,116,113893,1,0,0:0:0:0:
36,220,114062,2,0,P|80:240|136:240,2,97.50000371933,0|0|0,0:0|0:0|0:0,0:0:0:0:
252,208,114736,6,0,L|236:312,2,97.50000371933,4|0|0,0:0|0:0|0:0,0:0:0:0:
408,60,115410,2,0,B|436:204|436:204|416:272,1,195.00000743866,0|0,0:0|0:0,0:0:0:0:
192,144,116084,2,0,P|268:120|340:208,1,195.00000743866,4|0,0:0|0:0,0:0:0:0:
164,300,116759,2,0,P|112:308|48:292,2,97.50000371933,0|0|0,0:0|0:0|0:0,0:0:0:0:
338,196,117433,2,0,P|429:201|450:290,1,195.00000743866,4|0,0:0|0:0,0:0:0:0:
252,224,118107,2,0,P|276:124|368:108,1,195.00000743866,0|0,0:0|0:0,0:0:0:0:
296,308,118781,6,0,P|244:316|196:304,2,97.50000371933,0|0|0,0:0|0:0|0:0,0:0:0:0:
240,104,119455,2,0,P|192:96|142:104,2,97.50000371933,0|0|0,0:0|0:0|0:0,0:0:0:0:
48,196,120129,6,0,P|16:104|52:16,1,195.00000743866,6|2,0:0|0:0,0:0:0:0:
264,20,120803,2,0,P|300:112|268:204,1,195.00000743866,2|2,0:0|0:0,0:0:0:0:
88,308,121478,2,0,B|232:280|232:280|288:328,1,195.00000743866,0|2,0:0|0:0,0:0:0:0:
324,376,121983,5,4,0:2:0:0:
460,312,122826,6,0,B|448:248|480:196|480:196|469:146,1,162.5,2|2,0:0|0:0,0:0:0:0:
292,164,123500,2,0,P|368:196|448:144,1,162.5,2|2,0:0|0:0,0:0:0:0:
424,24,124174,2,0,P|348:-8|268:44,1,162.5,2|2,0:0|0:0,0:0:0:0:
164,108,124848,2,0,L|82:114,2,81.25,2|8|10,0:0|0:0|0:0,0:0:0:0:
260,260,125523,6,0,B|256:344|256:344|200:368|144:344,1,162.5,2|2,0:0|0:0,0:0:0:0:
183,176,126197,2,0,P|256:144|331:171,1,162.5,2|2,0:0|0:0,0:0:0:0:
176,260,126871,2,0,P|112:216|124:116,1,162.5,2|2,0:0|0:0,0:0:0:0:
268,52,127545,1,2,0:0:0:0:
428,132,127882,6,0,B|423:156|432:176|432:176|418:192|416:208,1,81.25,2|2,0:0|0:0,0:0:0:0:
332,244,128219,2,0,P|320:316|240:356,1,162.5,6|2,0:0|0:0,0:0:0:0:
268,180,128893,2,0,P|336:154|408:204,1,162.5,2|2,0:0|0:0,0:0:0:0:
240,264,129568,2,0,P|183:217|192:128,1,162.5,2|2,0:0|0:0,0:0:0:0:
336,36,130242,2,0,L|420:32,2,81.25,2|8|10,0:0|0:0|0:0,0:0:0:0:
172,108,130916,6,0,B|52:84|52:84|88:144,1,162.5,2|2,0:0|0:0,0:0:0:0:
240,188,131590,2,0,B|360:160|360:160|328:208,1,162.5,2|2,0:0|0:0,0:0:0:0:
172,260,132264,2,0,L|92:244,2,81.25,2|2|2,0:0|0:0|0:3,0:0:0:0:
320,344,132938,2,0,L|400:328,1,81.25,0|2,0:0|0:0,0:0:0:0:
416,240,133275,2,0,L|312:260,1,81.25,2|4,0:0|0:2,0:0:0:0:
