osu file format v14

[General]
AudioFilename: audio.mp3
AudioLeadIn: 0
PreviewTime: 32897
Countdown: 0
SampleSet: None
StackLeniency: 0.7
Mode: 0
LetterboxInBreaks: 0
WidescreenStoryboard: 1

[Editor]
Bookmarks: 18835,24460,52366,90113
DistanceSpacing: 1
BeatDivisor: 2
GridSize: 4
TimelineZoom: 1.5

[Metadata]
Title:Yume Tourou
TitleUnicode:夢灯籠
Artist:RADWIMPS
ArtistUnicode:RADWIMPS
Creator:Nines
Version:Easy
Source:君の名は。
Tags:kimi no na wa your name dream lantern
BeatmapID:1382165
BeatmapSetID:598831

[Difficulty]
HPDrainRate:1.5
CircleSize:2.5
OverallDifficulty:1.5
ApproachRate:2
SliderMultiplier:1
SliderTickRate:2

[Events]
//Background and Video events
0,0,"59184008_p0.jpg",0,0
Video,0,"android480pknnw.mp4"
//Break Periods
//Storyboard Layer 0 (Background)
//Storyboard Layer 1 (Fail)
//Storyboard Layer 2 (Pass)
//Storyboard Layer 3 (Foreground)
//Storyboard Sound Samples

[TimingPoints]
27273,697.674418604651,4,3,1,20,1,0
32156,-100,4,3,1,40,0,0
32897,348.837209302326,4,3,1,100,1,0
32897,-133.333333333333,4,3,1,100,0,0
49642,-117.647058823529,4,3,1,50,0,0
59409,-166.666666666667,4,3,1,50,0,0
60804,337.078651685393,4,3,1,70,1,1
60804,-100,4,1,1,70,0,1
71590,-100,4,3,1,70,0,0
93163,-133.333333333333,4,3,1,70,0,0
98556,-100,4,1,1,70,0,1
98809,-100,4,1,1,5,0,1
98893,-100,4,1,1,70,0,1
99146,-100,4,1,1,5,0,1
99230,-100,4,1,1,70,0,1
99483,-100,4,1,1,5,0,1
99568,-100,4,1,1,70,0,1
100157,-100,4,1,1,5,0,1
100242,-100,4,1,1,70,0,1
100495,-100,4,1,1,5,0,1
100579,-100,4,1,1,70,0,1
104202,-100,4,1,1,5,0,1
104287,-100,4,1,1,70,0,1
104539,-100,4,1,1,5,0,1
104624,-100,4,1,1,70,0,1
104877,-100,4,1,1,5,0,1
104961,-100,4,1,1,70,0,1
105551,-100,4,1,1,5,0,1
105635,-100,4,1,1,70,0,1
105888,-100,4,1,1,5,0,1
105972,-100,4,1,1,70,0,1
109343,-100,4,1,1,70,0,1
121983,-100,4,3,1,70,0,0
122826,-100,4,1,1,70,0,1
133444,-100,4,3,1,70,0,0

[HitObjects]
256,192,27272,12,0,32155,0:0:0:0:
241,277,32897,6,0,B|168:248|136:176|136:176|140:256|84:312,2,300.000011444092,0|0|0,0:0|0:0|0:0,0:0:0:0:
352,312,37083,1,0,0:0:0:0:
432,232,38479,6,0,P|386:105|256:148,2,300.000011444092,0|0|0,0:0|0:0|0:0,0:0:0:0:
344,192,41967,2,0,B|304:256|304:256|348:316,1,150.000005722046
148,320,44060,6,0,B|228:192|228:192|120:48,2,300.000011444092
80,200,48245,5,0,0:0:0:0:
115,110,48594,2,0,L|152:120,2,37.5000014305115
16,124,49292,1,0,0:0:0:0:
80,200,49642,6,0,B|152:248|152:248|215:193,1,170.000003242493,2|2,0:0|0:0,0:0:0:0:
276,112,50687,1,0,0:0:0:0:
216,32,51037,2,0,P|141:0|70:41,1,170.000003242493,2|2,0:0|0:0,0:0:0:0:
84,140,52083,1,0,0:0:0:0:
180,140,52432,6,0,B|284:120|284:120|272:188,1,170.000003242493,2|2,0:0|0:0,0:0:0:0:
252,284,53478,1,0,0:0:0:0:
164,340,53828,2,0,P|244:388|328:356,1,170.000003242493,2|0,0:0|0:0,0:0:0:0:
364,136,55223,6,0,P|416:216|384:300,1,170.000003242493,2|8,0:0|0:0,0:0:0:0:
316,344,56269,1,0,0:0:0:0:
216,332,56618,2,0,B|180:256|180:256|200:168,1,170.000003242493,2|2,0:0|0:0,0:0:0:0:
224,72,57664,1,0,0:0:0:0:
304,144,58013,2,0,P|372:116|456:184,1,170.000003242493
200,165,59409,6,0,B|204:189|224:216|224:216|192:228|172:252,1,119.999996337891,2|8,0:0|0:0,0:0:0:0:
267,335,60804,6,0,P|315:348|363:336,1,100,2|2,0:0|0:0,0:0:0:0:
440,268,61478,1,0,0:0:0:0:
364,192,61815,1,0,0:0:0:0:
424,104,62152,2,0,P|324:92|260:168,1,200,2|2,0:0|0:0,0:0:0:0:
260,208,62995,2,0,L|256:264,1,50
144,220,63500,6,0,B|32:244,1,100,2|2,0:0|0:0,0:0:0:0:
60,340,64174,1,0,0:0:0:0:
160,352,64511,1,0,0:0:0:0:
232,280,64848,2,0,B|284:260|328:284|328:284|372:308|426:280,1,200,2|2,0:0|0:0,0:0:0:0:
464,248,65691,2,0,L|472:192,2,50
372,200,66197,6,0,B|392:56|392:56|328:92,1,200,2|2,0:0|0:0,0:0:0:0:
252,132,67208,1,0,0:0:0:0:
164,76,67545,2,0,P|92:8|16:68,1,200,2|2,0:0|0:0,0:0:0:0:
8,160,68556,1,2,0:0:0:0:
112,184,68893,6,0,P|120:236|120:288,1,100
52,360,69568,1,2,0:0:0:0:
24,260,69905,1,0,0:0:0:0:
112,184,70242,6,0,P|160:164|211:166,1,100,2|2,0:0|0:0,0:0:0:0:
280,232,70916,2,0,P|331:238|380:224,1,100,2|2,0:0|0:0,0:0:0:0:
448,152,71590,6,0,B|488:192|492:284|424:316|424:316|312:332,1,300,2|2,0:0|0:0,0:0:0:0:
208,284,72938,2,0,P|236:244|84:144,1,300,2|2,0:0|0:0,0:0:0:0:
148,212,74287,6,0,B|212:162|280:140|280:140|349:182|392:236,1,300,2|2,0:0|0:0,0:0:0:0:
316,284,75635,2,0,L|216:268,1,100,2|2,0:0|0:0,0:0:0:0:
208,352,76309,2,0,L|306:367,1,100,2|2,0:0|0:0,0:0:0:0:
400,384,76983,6,0,B|436:292|352:216|352:216|288:220|255:169,1,300,2|2,0:0|0:0,0:0:0:0:
166,116,78332,2,0,P|200:80|247:67,1,100,2|2,0:0|0:0,0:0:0:0:
338,21,79006,2,0,P|352:68|340:115,1,100,2|2,0:0|0:0,0:0:0:0:
252,156,79680,6,0,P|204:141|152:145,3,100,2|2|2|2,0:0|0:0|0:0|0:0,0:0:0:0:
192,236,81028,2,0,L|180:336,3,100,2|2|2|2,0:0|0:0|0:0|0:0,0:0:0:0:
284,296,82377,6,0,B|260:88|260:88|284:136|336:160,1,300,6|2,0:0|0:0,0:0:0:0:
416,184,83725,2,0,P|474:175|512:152,1,100,2|2,0:0|0:0,0:0:0:0:
460,68,84399,2,0,L|360:60,1,100,2|2,0:0|0:0,0:0:0:0:
248,52,85073,6,0,B|246:104|288:144|288:144|248:236|248:236|293:278|296:336,1,300,2|2,0:0|0:0,0:0:0:0:
196,324,86421,2,0,P|148:348|97:338,1,100,2|2,0:0|0:0,0:0:0:0:
32,268,87096,2,0,P|72:243|128:244,1,100,2|2,0:0|0:0,0:0:0:0:
220,232,87770,6,0,B|296:212|296:212|356:256|356:256|420:196|392:108,1,300,2|2,0:0|0:0,0:0:0:0:
304,100,89118,2,0,B|316:56|356:36|356:36|128:20,1,300,2|2,0:0|0:0,0:0:0:0:
112,112,90466,6,0,L|136:276,2,150,2|0|2,0:0|0:0|0:0,0:0:0:0:
212,140,91815,2,0,L|368:120,2,150,2|2|2,0:0|0:1|3:0,0:0:0:0:
156,56,93163,6,0,B|138:91|108:116|108:116|135:179|132:264|132:264|98:291|76:340,1,300.000011444092,2|2,0:0|0:0,0:0:0:0:
204,368,95186,1,2,0:1:0:0:
313,318,95860,6,0,B|301:291|268:264|268:264|264:179|292:116|292:116|261:91|244:56,1,300.000011444092,6|2,0:0|0:0,0:0:0:0:
360,12,97882,1,2,0:1:0:0:
440,100,98556,6,0,B|468:196|468:196|369:234|350:345,1,300,6|0,0:3|0:0,0:0:0:0:
460,359,99905,2,0,P|382:243|252:292,1,300,0|0,0:0|0:0,0:0:0:0:
176,224,101253,2,0,P|80:204|128:44,1,300,0|0,0:0|0:0,0:0:0:0:
220,40,102601,2,0,B|324:88|324:88|144:136,1,300,0|2,0:0|0:3,0:0:0:0:
44,172,103950,6,0,B|112:244|112:244|309:205,1,300,4|0,0:3|0:3,0:0:0:0:
400,264,105298,2,0,P|396:140|228:128,1,300
232,212,106646,2,0,B|204:240|124:244|124:244|340:272,1,300
388,324,107995,2,0,P|404:277|396:228,1,100
320,164,108669,2,0,P|312:115|329:69,1,100,2|0,0:3|0:0,0:0:0:0:
424,24,109343,6,0,P|478:100|421:174,1,200,4|0,0:0|0:0,0:0:0:0:
332,112,110354,1,0,0:0:0:0:
232,156,110691,2,0,B|96:144|96:144|156:92,1,200,4|0,0:0|0:0,0:0:0:0:
232,44,111702,1,0,0:0:0:0:
326,107,112039,6,0,P|320:220|296:312,1,200,4|0,0:0|0:0,0:0:0:0:
212,352,113051,1,0,0:0:0:0:
136,284,113388,2,0,P|142:171|166:79,1,200
252,40,114399,1,0,0:0:0:0:
326,107,114736,6,0,P|378:91|434:95,1,100,4|0,0:0|0:0,0:0:0:0:
440,188,115410,2,0,P|388:204|332:200,1,100,0|0,0:0|0:0,0:0:0:0:
252,172,116084,6,0,P|200:156|144:160,1,100,4|0,0:0|0:0,0:0:0:0:
144,256,116759,2,0,P|196:272|252:268,1,100,0|0,0:0|0:0,0:0:0:0:
332,300,117433,6,0,B|465:318|465:318|404:368,2,200,4|0|0,0:0|0:0|0:0,0:0:0:0:
236,284,119118,1,0,0:0:0:0:
144,320,119455,2,0,P|123:271|120:208,1,100,0|0,0:0|0:0,0:0:0:0:
84,132,120129,6,0,P|132:100|184:112,1,100,6|2,0:0|0:0,0:0:0:0:
248,176,120803,2,0,P|288:212|344:216,1,100,2|2,0:0|0:0,0:0:0:0:
328,112,121478,6,0,P|268:72|188:92,1,150,0|4,0:0|0:2,0:0:0:0:
48,256,122826,6,0,B|192:264|192:264|248:304,1,200,2|2,0:0|0:0,0:0:0:0:
136,356,124174,2,0,B|100:260|100:260|144:164,1,200,2|2,0:0|0:0,0:0:0:0:
200,84,125523,6,0,P|296:48|368:100,1,200,2|2,0:0|0:0,0:0:0:0:
448,168,126871,2,0,P|352:204|280:152,1,200,2|2,0:0|0:0,0:0:0:0:
288,48,128219,6,0,B|232:48|232:48|184:96|184:96|144:80|100:100,1,200,6|2,0:0|0:0,0:0:0:0:
69,187,129568,2,0,B|104:204|144:188|144:188|192:236|192:236|248:236,1,200,2|2,0:0|0:0,0:0:0:0:
344,240,130916,5,2,0:0:0:0:
444,288,131590,1,2,0:0:0:0:
440,180,132264,2,0,B|408:84|408:84|308:76|308:76|312:124|276:169|276:169|212:164,1,350,2|4,0:0|0:2,0:0:0:0:
