osu file format v14

[General]
AudioFilename: audio.mp3
AudioLeadIn: 0
PreviewTime: 90062
Countdown: 0
SampleSet: Soft
StackLeniency: 0.4
Mode: 0
LetterboxInBreaks: 0
WidescreenStoryboard: 1

[Editor]
Bookmarks: 73952,84753,125034
DistanceSpacing: 0.4
BeatDivisor: 2
GridSize: 32
TimelineZoom: 2.5

[Metadata]
Title:Yume Tourou
TitleUnicode:夢灯籠
Artist:RADWIMPS
ArtistUnicode:RADWIMPS
Creator:Monstrata
Version:Insane: Taki
Source:君の名は。
Tags:toukai dunois taki mitsuha your name kimi no na wa makoto shinkai neoskylove nsl haruto haruto_aizawa walao walaowey sotarks irohas mugiwarasekai snownino_
BeatmapID:1276292
BeatmapSetID:597111

[Difficulty]
HPDrainRate:6
CircleSize:4
OverallDifficulty:8
ApproachRate:9.1
SliderMultiplier:1.77
SliderTickRate:1

[Events]
//Background and Video events
0,0,"737151.png",0,0
//Break Periods
//Storyboard Layer 0 (Background)
//Storyboard Layer 1 (Fail)
//Storyboard Layer 2 (Pass)
//Storyboard Layer 3 (Foreground)
//Storyboard Sound Samples

[TimingPoints]
24488,348.837209302326,4,2,12,70,1,0
24488,-129.87012987013,4,2,12,70,0,0
26057,-129.87012987013,4,2,12,30,0,0
26232,-129.87012987013,4,2,12,70,0,0
26406,-129.87012987013,4,2,12,30,0,0
26581,-129.87012987013,4,2,12,70,0,0
40185,-129.87012987013,4,2,12,30,0,0
40534,-129.87012987013,4,2,12,70,0,0
51348,-153.846153846154,4,2,12,70,0,0
51697,-125,4,2,12,70,0,0
52046,-105.263157894737,4,2,12,70,0,0
52394,337.078651685393,4,2,12,70,1,0
54585,-100,4,2,3,70,0,0
54837,-100,4,2,12,70,0,0
59978,-100,4,2,3,70,0,0
60231,-100,4,2,12,70,0,0
65371,-100,4,3,6,70,0,0
65877,-100,4,2,12,70,0,0
68068,-100,4,3,6,70,0,0
68573,-100,4,2,12,70,0,0
70764,-100,4,3,6,70,0,0
71270,-100,4,2,12,70,0,0
72281,-100,4,3,6,70,0,0
72618,-100,4,2,12,70,0,0
76158,-100,4,3,6,70,0,0
76495,-100,4,2,12,70,0,0
78854,-100,4,3,6,70,0,0
79360,-100,4,2,12,70,0,0
81551,-100,4,3,6,70,0,0
82056,-100,4,2,12,70,0,0
90146,-100,4,2,12,70,0,1
114416,-100,4,2,12,70,0,0
116607,-100,4,2,3,70,0,0
116860,-100,4,2,12,70,0,0
122000,-100,4,2,3,70,0,0
122337,-100,4,2,12,70,0,0

[Colours]
Combo1 : 255,134,255
Combo2 : 255,157,60
Combo3 : 167,79,255
Combo4 : 77,166,255

[HitObjects]
78,316,24488,6,0,B|107:333|107:333|176:321|176:321|201:291,1,136.289997296494,2|0,0:3|0:0,0:0:0:0:
234,212,25011,1,2,0:0:0:0:
105,108,25185,2,0,L|124:247,1,136.289997296494,0|0,0:0|0:0,0:0:0:0:
196,295,25708,1,0,0:0:0:0:
300,196,25883,6,0,L|234:212,1,68.1449986482468,2|0,0:3|0:0,0:0:0:0:
350,272,26232,2,0,L|283:287,1,68.1449986482468,0|0,0:0|0:0,0:0:0:0:
387,351,26581,2,0,B|416:335|416:335|443:270|443:270|430:233,1,136.289997296494,0|2,0:0|0:0,0:0:0:0:
300,196,27104,1,0,0:0:0:0:
361,35,27278,6,0,L|381:169,1,136.289997296494,2|0,0:3|0:0,0:0:0:0:
300,196,27801,2,0,L|280:62,1,136.289997296494,2|0,0:0|0:0,0:0:0:0:
198,88,28325,2,0,L|213:189,1,102.21749797237,2|0,0:0|0:0,0:0:0:0:
218,222,28674,6,0,B|170:226|170:226|130:207|130:207|80:210,1,136.289997296494,2|0,0:3|0:0,0:0:0:0:
113,306,29197,1,2,0:0:0:0:
4,165,29371,2,0,B|-7:199|-7:199|1:235,1,68.1449986482468,0|0,0:0|0:0,0:0:0:0:
109,371,29720,2,0,B|120:337|120:337|112:301,1,68.1449986482468,0|0,0:3|0:0,0:0:0:0:
85,114,30069,6,0,L|296:76,1,204.43499594474,2|2,0:3|0:0,0:0:0:0:
319,219,30767,2,0,B|274:169|274:169|196:183,1,136.289997296494,0|0,0:0|0:0,0:0:0:0:
242,264,31290,1,0,0:0:0:0:
397,293,31464,6,0,L|419:149,1,136.289997296494,2|0,0:3|0:0,0:0:0:0:
364,73,31988,1,0,0:0:0:0:
204,161,32162,2,0,B|229:182|229:182|300:185|300:185|325:164,1,136.289997296494,0|2,0:0|0:0,0:0:0:0:
268,83,32685,1,0,0:0:0:0:
132,91,32860,6,0,L|110:235,1,136.289997296494,2|0,0:3|0:0,0:0:0:0:
89,368,33383,1,2,0:0:0:0:
244,301,33557,2,0,B|201:284|201:284|159:301,2,90.8599981976624,0|0|0,0:0|0:0|0:0,0:0:0:0:
43,288,34255,6,0,B|21:259|21:259|20:221,1,68.1449986482468,2|0,0:3|0:0,0:0:0:0:
132,91,34604,1,0,0:0:0:0:
111,225,34778,2,0,L|240:181,1,136.289997296494,2|0,0:0|0:0,0:0:0:0:
38,81,35301,2,0,B|34:117|34:117|53:150,1,68.1449986482468,2|0,0:0|0:0,0:0:0:0:
239,181,35650,6,0,B|254:151|254:151|241:82|241:82|215:62,1,136.289997296494,2|0,0:3|0:0,0:0:0:0:
132,91,36174,1,2,0:0:0:0:
239,181,36348,2,0,L|315:200,1,68.1449986482468,0|0,0:0|0:0,0:0:0:0:
415,280,36697,2,0,L|339:299,1,68.1449986482468,0|0,0:0|0:0,0:0:0:0:
215,299,37046,6,0,B|200:269|200:269|213:200|213:200|239:180,1,136.289997296494,2|0,0:3|0:0,0:0:0:0:
383,121,37569,1,2,0:0:0:0:
383,121,37743,2,0,L|399:187,1,68.1449986482468,0|0,0:0|0:0,0:0:0:0:
433,45,38092,2,0,B|461:70|461:70|471:98,1,68.1449986482468,2|0,0:0|0:0,0:0:0:0:
310,67,38441,6,0,B|338:43|338:43|372:32|372:32|406:34|406:34|433:45,1,136.289997296494,2|0,0:3|0:0,0:0:0:0:
405,255,38964,2,0,L|383:121,1,136.289997296494,2|0,0:0|0:0,0:0:0:0:
199,151,39488,2,0,L|305:158,1,102.21749797237,2|0,0:0|0:0,0:0:0:0:
300,157,39836,6,0,B|317:243,1,68.1449986482468,0|0,0:0|0:0,0:0:0:0:
344,383,40185,1,12,3:0:0:0:
405,255,40360,1,12,3:0:0:0:
260,347,40534,2,0,L|192:351,1,68.1449986482468,2|0,0:0|0:0,0:0:0:0:
162,252,40883,2,0,L|230:257,1,68.1449986482468,2|0,0:0|0:0,0:0:0:0:
423,348,41232,6,0,B|459:337|459:337|483:314|483:314|497:285|497:285|500:251,1,136.289997296494,6|0,3:0|3:0,0:0:0:0:
405,255,41755,1,2,0:0:0:0:
447,106,41929,2,0,L|452:174,1,68.1449986482468,0|0,0:0|0:0,0:0:0:0:
349,106,42278,2,0,L|354:174,1,68.1449986482468,0|0,3:0|0:0,0:0:0:0:
162,252,42627,6,0,B|197:263|197:263|263:240|263:240|275:212,1,136.289997296494,2|0,0:3|3:0,0:0:0:0:
349,106,43150,1,2,0:0:0:0:
188,106,43325,2,0,L|206:201,1,68.1449986482468,0|0,0:0|0:0,0:0:0:0:
95,109,43674,2,0,L|108:176,1,68.1449986482468,2|0,3:2|0:0,0:0:0:0:
147,371,44022,6,0,B|165:340|165:340|225:320|225:320|266:336,1,136.289997296494,2|0,3:0|3:0,0:0:0:0:
348,366,44546,1,8,3:0:0:0:
324,207,44720,2,0,L|334:284,1,68.1449986482468,0|0,0:0|0:0,0:0:0:0:
422,307,45069,2,0,L|430:239,1,68.1449986482468,2|0,3:2|3:0,0:0:0:0:
306,108,45418,5,2,0:3:0:0:
170,190,45592,2,0,B|207:190|207:190|234:173,1,68.1449986482468,2|0,0:0|3:0,0:0:0:0:
369,124,45941,1,2,0:0:0:0:
369,124,46028,1,0,0:0:0:0:
369,124,46115,2,0,B|341:107|341:107|305:107,1,68.1449986482468,2|0,0:0|0:0,0:0:0:0:
233,173,46464,1,2,0:0:0:0:
429,239,46639,6,0,L|444:103,1,136.289997296494,2|0,0:3|0:0,0:0:0:0:
457,10,47162,1,0,3:0:0:0:
305,107,47336,1,8,3:0:0:0:
429,239,47511,1,2,0:0:0:0:
497,176,47685,2,0,B|432:150|432:150|369:171,1,136.289997296494,0|2,0:0|0:0,0:0:0:0:
361,308,48208,6,0,B|426:334|426:334|488:312,1,136.289997296494,2|0,0:3|3:0,0:0:0:0:
302,234,48732,1,2,0:0:0:0:
366,105,48906,2,0,B|377:137|377:137|369:170,1,68.1449986482468,0|0,0:0|3:0,0:0:0:0:
226,276,49255,2,0,B|215:244|215:244|222:210,1,68.1449986482468,2|0,3:2|0:0,0:0:0:0:
284,64,49604,6,0,L|144:34,1,136.289997296494,10|0,3:0|3:0,0:0:0:0:
31,2,50127,1,8,3:0:0:0:
76,156,50301,2,0,L|72:79,1,68.1449986482468,2|0,0:0|0:0,0:0:0:0:
31,2,50650,1,0,3:0:0:0:
0,205,50825,1,0,0:0:0:0:
0,205,50912,1,0,0:0:0:0:
0,205,50999,6,0,B|21:232|21:232|52:244,1,68.1449986482468,10|0,3:0|0:0,0:0:0:0:
228,196,51348,1,8,3:0:0:0:
115,307,51522,1,0,3:0:0:0:
76,156,51697,1,0,1:0:0:0:
52,244,51871,5,0,0:0:0:0:
164,132,52046,1,8,3:0:0:0:
204,284,52220,1,12,3:0:0:0:
204,284,52307,1,0,0:0:0:0:
204,284,52394,6,0,B|248:289|248:289|286:267,1,88.5,12|0,1:2|3:0,0:0:0:0:
318,162,52731,2,0,B|296:123|296:123|257:103,1,88.5,8|0,0:0|3:0,0:0:0:0:
140,220,53068,1,8,0:0:0:0:
257,103,53236,1,0,0:0:0:0:
255,112,53320,1,0,0:0:0:0:
253,121,53405,1,8,0:0:0:0:
204,284,53573,1,0,3:0:0:0:
81,148,53742,5,8,0:0:0:0:
81,148,53826,1,0,0:0:0:0:
81,148,53910,2,0,B|119:127|119:127|164:131,1,88.5,0|8,3:0|0:0,0:0:0:0:
318,162,54247,1,0,3:0:0:0:
204,284,54416,1,8,0:0:0:0:
248,94,54585,1,2,0:1:0:0:
384,239,54753,2,0,B|345:259|345:259|300:255,1,88.5,2|0,0:1|3:0,0:0:0:0:
80,148,55090,6,0,L|100:342,1,177,12|8,0:0|0:0,0:0:0:0:
212,368,55596,1,0,3:0:0:0:
212,368,55680,1,0,0:0:0:0:
212,368,55764,2,0,B|221:324|221:324|204:284,1,88.5,8|0,0:0|3:0,0:0:0:0:
80,148,56101,1,8,0:0:0:0:
98,324,56270,1,0,3:0:0:0:
210,137,56438,5,8,0:0:0:0:
210,137,56523,1,0,0:0:0:0:
210,137,56607,2,0,L|319:125,1,88.5,0|8,3:0|0:0,0:0:0:0:
471,107,56944,1,0,3:0:0:0:
297,127,57113,1,12,0:0:0:0:
446,244,57281,1,0,0:0:0:0:
391,160,57450,5,8,0:0:0:0:
372,176,57562,5,8,0:0:0:0:
359,196,57674,5,8,0:0:0:0:
352,221,57787,6,0,B|349:265|349:265|367:305,1,88.5,4|2,0:0|0:1,0:0:0:0:
461,328,58040,1,0,0:0:0:0:
461,328,58124,2,0,B|464:284|464:284|446:244,1,88.5,12|0,0:0|3:0,0:0:0:0:
297,127,58461,1,8,0:0:0:0:
367,305,58629,1,0,3:0:0:0:
471,107,58798,1,8,0:0:0:0:
352,221,58967,1,0,3:0:0:0:
196,141,59135,5,8,0:0:0:0:
196,141,59219,1,0,0:0:0:0:
196,141,59304,2,0,L|92:154,1,88.5,0|8,3:0|0:0,0:0:0:0:
131,317,59641,1,0,3:0:0:0:
196,141,59809,1,8,0:0:0:0:
55,238,59978,1,2,0:1:0:0:
237,312,60146,2,0,L|251:223,1,88.5,2|0,0:1|3:0,0:0:0:0:
27,63,60483,6,0,L|55:238,1,177,12|8,0:0|0:0,0:0:0:0:
131,317,60989,1,0,3:0:0:0:
131,317,61073,1,0,0:0:0:0:
131,317,61158,2,0,B|157:279|157:279|164:237,1,88.5,8|0,0:0|3:0,0:0:0:0:
235,69,61495,1,8,0:0:0:0:
132,58,61663,1,0,3:0:0:0:
132,58,61747,1,0,0:0:0:0:
132,58,61832,6,0,B|132:103|132:103|153:141,1,88.5,8|0,0:0|3:0,0:0:0:0:
291,163,62169,2,0,B|322:131|322:131|334:89,1,88.5,12|0,0:0|3:0,0:0:0:0:
163,237,62506,1,4,3:0:0:0:
193,241,62590,1,8,0:0:0:0:
224,245,62674,1,0,1:0:0:0:
255,249,62758,1,0,1:0:0:0:
285,253,62843,2,0,B|311:256|311:256|343:241,1,44.25,8|8,0:0|0:0,0:0:0:0:
377,84,63011,2,0,B|351:81|351:81|319:96,1,44.25,8|8,0:0|0:0,0:0:0:0:
163,237,63180,6,0,L|172:330,1,88.5,4|0,3:2|0:0,0:0:0:0:
277,341,63517,2,0,L|285:252,1,88.5,0|0,3:0|0:0,0:0:0:0:
312,72,63854,1,0,3:0:0:0:
235,166,64023,1,2,0:0:0:0:
285,252,64191,2,0,B|317:215|317:215|327:166,1,88.5,0|2,3:0|0:0,0:0:0:0:
162,236,64528,6,0,B|142:195|142:195|145:152,1,88.5,0|2,3:0|0:0,0:0:0:0:
219,82,64865,2,0,B|238:122|238:122|234:166,1,88.5,0|2,3:0|0:0,0:0:0:0:
119,55,65202,1,0,3:0:0:0:
52,127,65371,1,0,0:0:0:0:
54,148,65455,1,0,0:0:0:0:
56,170,65539,1,0,0:0:0:0:
59,192,65623,1,0,0:0:0:0:
61,214,65708,1,0,0:0:0:0:
64,236,65792,1,0,0:0:0:0:
67,260,65877,6,0,B|83:300|83:300|165:336|165:336|213:323,1,177,0|0,3:0|3:0,0:0:0:0:
250,191,66382,1,0,0:0:0:0:
295,279,66551,1,0,3:0:0:0:
153,148,66719,2,0,L|163:245,1,88.5,2|0,0:0|3:0,0:0:0:0:
207,324,67056,1,2,0:0:0:0:
347,190,67225,6,0,L|444:180,1,88.5,0|2,3:0|0:0,0:0:0:0:
383,288,67562,2,0,L|295:279,1,88.5,0|2,3:0|0:0,0:0:0:0:
153,148,67899,1,0,3:0:0:0:
250,191,68068,1,0,0:0:0:0:
247,168,68152,1,0,0:0:0:0:
245,146,68236,1,0,0:0:0:0:
243,124,68320,1,0,0:0:0:0:
240,102,68405,1,0,0:0:0:0:
238,80,68489,1,0,0:0:0:0:
236,58,68573,6,0,B|173:47|173:47|119:67|119:67|54:57,1,177,0|0,3:0|3:0,0:0:0:0:
64,150,69079,1,2,0:0:0:0:
162,236,69247,2,0,L|153:148,1,88.5,0|2,3:0|0:0,0:0:0:0:
64,59,69585,1,0,3:0:0:0:
7,225,69753,1,2,0:0:0:0:
162,236,69922,6,0,B|205:221|205:221|231:187,1,88.5,0|2,3:0|0:0,0:0:0:0:
222,99,70259,2,0,B|179:114|179:114|152:147,1,88.5,0|2,3:0|0:0,0:0:0:0:
81,288,70596,1,0,3:0:0:0:
233,308,70764,1,0,0:0:0:0:
254,302,70848,1,0,0:0:0:0:
275,296,70932,1,0,0:0:0:0:
296,290,71016,1,0,0:0:0:0:
318,284,71101,1,0,0:0:0:0:
339,278,71185,1,0,0:0:0:0:
360,272,71270,6,0,L|336:180,1,88.5,0|2,3:0|0:0,0:0:0:0:
485,147,71607,2,0,L|417:213,1,88.5,0|0,3:0|0:0,0:0:0:0:
315,102,71944,2,0,B|363:101|363:101|402:123,1,88.5,0|2,3:0|0:0,0:0:0:0:
253,215,72281,1,0,0:0:0:0:
249,204,72365,1,0,0:0:0:0:
245,193,72450,1,0,0:0:0:0:
208,24,72618,5,0,3:0:0:0:
315,102,72787,1,2,0:0:0:0:
152,191,72955,1,0,3:0:0:0:
208,24,73124,1,0,1:0:0:0:
338,187,73292,2,0,B|343:234|343:234|326:278,1,88.5,0|2,3:0|0:0,0:0:0:0:
171,274,73629,2,0,B|151:232|151:232|152:191,1,88.5,0|0,1:0|0:0,0:0:0:0:
208,24,73967,6,0,B|145:35|145:35|91:15|91:15|26:25,1,177,4|2,3:2|3:2,0:0:0:0:
83,115,74472,1,2,0:0:0:0:
208,24,74641,1,0,3:0:0:0:
152,190,74809,1,2,0:0:0:0:
28,40,74978,1,0,3:0:0:0:
175,103,75146,1,2,0:0:0:0:
55,212,75315,6,0,L|42:300,1,88.5,0|0,3:0|0:0,0:0:0:0:
152,190,75652,2,0,L|166:278,1,88.5,2|0,3:2|0:0,0:0:0:0:
276,168,75989,2,0,L|262:255,1,88.5,2|0,3:2|0:0,0:0:0:0:
258,273,76242,1,0,0:0:0:0:
254,291,76326,1,0,0:0:0:0:
320,367,76495,1,2,0:0:0:0:
511,332,76663,6,0,B|452:320|452:320|404:283|404:283|349:272,1,177,0|0,3:0|3:0,0:0:0:0:
262,255,77169,1,2,0:0:0:0:
354,174,77337,2,0,L|444:192,1,88.5,0|2,3:0|0:0,0:0:0:0:
262,255,77674,2,0,B|236:205|236:205|245:115,1,132.75,0|0,3:0|0:0,0:0:0:0:
246,107,78011,6,0,L|336:89,1,88.5,0|2,0:0|0:0,0:0:0:0:
491,57,78349,1,0,3:0:0:0:
440,191,78517,1,2,0:0:0:0:
404,5,78686,1,0,3:0:0:0:
332,89,78854,5,0,0:0:0:0:
311,93,78938,1,0,0:0:0:0:
289,98,79022,1,0,0:0:0:0:
267,102,79106,1,0,0:0:0:0:
245,106,79191,1,0,0:0:0:0:
226,97,79275,1,0,0:0:0:0:
206,87,79360,6,0,B|192:141|192:141|205:200|205:200|191:259,1,177,0|0,3:0|3:0,0:0:0:0:
126,335,79865,1,2,0:0:0:0:
32,217,80034,2,0,B|69:194|69:194|114:195,1,88.5,0|0,3:0|0:0,0:0:0:0:
208,357,80371,2,0,B|163:358|163:358|126:335,1,88.5,0|2,3:0|0:0,0:0:0:0:
32,217,80708,5,0,3:0:0:0:
206,87,80877,1,2,0:0:0:0:
193,239,81045,1,0,3:0:0:0:
57,68,81214,1,2,0:0:0:0:
275,173,81382,2,0,L|366:160,1,88.5,2|0,3:2|0:0,0:0:0:0:
385,158,81635,1,0,0:0:0:0:
407,156,81719,1,0,3:0:0:0:
206,87,81888,1,0,0:0:0:0:
206,87,81972,1,0,0:0:0:0:
206,87,82056,6,0,B|169:120|169:120|156:176,1,88.5,4|0,0:0|0:0,0:0:0:0:
229,243,82393,2,0,B|266:210|266:210|279:154,1,88.5,0|2,3:0|0:0,0:0:0:0:
45,109,82731,2,0,L|58:197,1,88.5,0|0,3:0|0:0,0:0:0:0:
169,334,83068,2,0,B|211:358|211:358|269:354,1,88.5,2|0,3:2|0:0,0:0:0:0:
161,158,83405,5,2,3:2:0:0:
63,307,83573,1,0,0:0:0:0:
229,243,83742,1,0,3:0:0:0:
76,84,83910,1,8,0:0:0:0:
61,96,83995,1,8,0:0:0:0:
46,109,84079,1,0,3:0:0:0:
139,243,84247,1,8,0:3:0:0:
233,84,84416,2,0,B|194:61|194:61|138:60,1,88.5,0|4,3:0|0:3,0:0:0:0:
139,243,84753,5,4,0:0:0:0:
233,84,84922,1,0,3:0:0:0:
297,310,85090,1,2,0:0:0:0:
161,158,85259,1,0,3:0:0:0:
344,95,85427,1,8,0:0:0:0:
229,243,85596,1,0,3:0:0:0:
233,84,85764,1,8,3:0:0:0:
366,249,85933,1,4,3:0:0:0:
139,243,86101,6,0,B|99:222|99:222|79:184,1,88.5,2|0,0:0|3:0,0:0:0:0:
154,56,86438,2,0,B|199:58|199:58|232:83,1,88.5,2|0,0:0|3:0,0:0:0:0:
292,306,86776,1,8,0:0:0:0:
161,158,86944,1,4,3:0:0:0:
161,158,87281,1,0,0:0:0:0:
344,95,87450,5,4,0:0:0:0:
226,251,87618,1,0,3:0:0:0:
298,21,87787,1,2,0:0:0:0:
366,249,87955,1,0,3:0:0:0:
233,84,88124,1,8,0:0:0:0:
366,249,88292,1,0,3:0:0:0:
425,125,88461,1,8,3:0:0:0:
281,170,88629,1,8,0:0:0:0:
446,296,88798,6,0,B|458:250|458:250|447:204,1,88.5,4|8,0:0|0:0,0:0:0:0:
448,210,89051,1,8,0:0:0:0:
448,210,89135,1,8,0:0:0:0:
281,170,89304,1,4,3:0:0:0:
338,335,89472,5,8,0:0:0:0:
368,336,89556,1,8,0:0:0:0:
399,336,89640,1,8,0:0:0:0:
422,316,89724,1,8,0:0:0:0:
446,296,89809,1,4,0:0:0:0:
281,170,89978,1,8,1:2:0:0:
281,188,90062,1,8,1:2:0:0:
280,206,90146,6,0,L|266:293,1,88.5,4|0,0:0|0:0,0:0:0:0:
190,346,90483,2,0,L|176:259,1,88.5,8|0,0:0|0:0,0:0:0:0:
247,92,90820,2,0,B|291:80|291:80|338:97,1,88.5,2|0,0:0|0:0,0:0:0:0:
176,259,91158,1,0,3:0:0:0:
104,91,91326,1,8,0:0:0:0:
279,205,91495,6,0,B|320:220|320:220|364:208,1,88.5,2|0,3:2|0:0,0:0:0:0:
415,97,91832,2,0,B|374:82|374:82|330:94,1,88.5,8|0,0:0|0:0,0:0:0:0:
279,205,92169,1,0,3:0:0:0:
428,277,92337,1,8,0:0:0:0:
415,97,92506,1,0,3:0:0:0:
428,277,92674,1,8,0:0:0:0:
279,205,92843,6,0,L|370:192,1,88.5,2|0,0:0|0:0,0:0:0:0:
196,263,93180,2,0,B|176:220|176:220|182:179,1,88.5,8|0,0:0|0:0,0:0:0:0:
279,205,93517,2,0,L|253:385,1,177,0|0,3:0|3:0,0:0:0:0:
182,179,94023,1,8,0:0:0:0:
353,108,94191,6,0,B|373:151|373:151|362:220,1,88.5,2|0,0:0|0:0,0:0:0:0:
253,380,94528,1,8,0:0:0:0:
196,263,94697,1,8,0:3:0:0:
196,263,94781,1,8,0:3:0:0:
196,263,94865,5,8,3:3:0:0:
352,307,95034,1,4,0:3:0:0:
352,307,95118,1,4,0:3:0:0:
352,307,95202,1,4,3:3:0:0:
171,356,95371,1,0,0:0:0:0:
151,349,95455,1,8,0:3:0:0:
131,342,95540,6,0,B|104:305|104:305|102:256,1,88.5,4|0,0:0|0:0,0:0:0:0:
251,198,95877,2,0,B|232:239|232:239|190:265,1,88.5,8|0,0:0|0:0,0:0:0:0:
68,167,96214,2,0,B|113:161|113:161|156:185,1,88.5,0|0,3:0|0:0,0:0:0:0:
253,380,96551,1,0,3:0:0:0:
326,145,96719,1,8,0:0:0:0:
251,198,96888,6,0,B|285:228|285:228|334:234,1,88.5,2|0,0:0|0:0,0:0:0:0:
413,140,97225,2,0,B|402:95|402:95|365:62,1,88.5,8|0,0:0|0:0,0:0:0:0:
244,100,97562,1,0,3:0:0:0:
416,233,97731,1,8,0:0:0:0:
436,11,97899,1,0,3:0:0:0:
416,233,98068,1,8,0:0:0:0:
412,139,98236,6,0,B|455:149|455:149|511:219|511:219|506:262,1,177,2|8,0:0|0:0,0:0:0:0:
432,327,98742,1,0,0:0:0:0:
329,221,98910,2,0,L|417:233,1,88.5,0|0,3:0|0:0,0:0:0:0:
432,327,99247,1,0,3:0:0:0:
329,221,99416,1,8,0:0:0:0:
265,286,99585,6,0,B|241:246|241:246|244:204,1,88.5,2|0,0:0|0:0,0:0:0:0:
248,185,99837,1,0,0:0:0:0:
252,167,99922,1,0,3:0:0:0:
326,27,100090,1,8,0:3:0:0:
326,27,100174,1,0,0:0:0:0:
326,27,100259,1,0,3:0:0:0:
329,221,100427,1,0,0:0:0:0:
164,123,100596,1,0,3:0:0:0:
329,221,100764,1,8,0:0:0:0:
326,27,100933,6,0,B|350:67|350:67|347:109,1,88.5,4|0,0:0|0:0,0:0:0:0:
164,123,101270,2,0,B|194:109|194:109|209:86|209:86|236:97|236:97|273:89,2,118,8|0|0,0:0|0:0|0:0,0:0:0:0:
20,198,101944,1,0,3:0:0:0:
157,286,102113,1,8,0:0:0:0:
164,123,102281,6,0,B|149:182|149:182|162:232|162:232|145:301,1,177,4|8,0:0|0:0,0:0:0:0:
56,282,102787,1,0,0:0:0:0:
164,123,102955,1,0,3:0:0:0:
228,264,103124,1,8,0:0:0:0:
164,123,103292,1,0,3:0:0:0:
146,294,103461,1,8,0:0:0:0:
287,197,103629,6,0,B|313:235|313:235|315:279,1,88.5,2|0,0:0|0:0,0:0:0:0:
228,264,103967,1,8,0:0:0:0:
255,119,104135,2,0,B|300:115|300:115|340:135,1,88.5,2|0,0:0|3:0,0:0:0:0:
228,264,104472,1,0,0:0:0:0:
164,123,104641,1,0,3:0:0:0:
287,197,104809,1,8,0:0:0:0:
146,294,104978,6,0,L|154:108,1,177,4|8,0:0|0:0,0:0:0:0:
204,29,105483,1,0,3:0:0:0:
204,29,105568,1,0,3:0:0:0:
204,29,105652,2,0,B|247:20|247:20|297:38,1,88.5,0|0,3:0|3:0,0:0:0:0:
344,114,105905,1,0,3:0:0:0:
344,114,105989,2,0,B|385:129|385:129|428:120,1,88.5,0|0,3:0|3:0,0:0:0:0:
490,57,106242,1,0,3:0:0:0:
490,57,106326,6,0,L|479:208,1,132.75,4|0,0:0|0:0,0:0:0:0:
479,209,106663,2,0,L|385:233,1,88.5,8|0,0:0|0:0,0:0:0:0:
343,141,107000,2,0,L|437:117,1,88.5,0|0,3:0|0:0,0:0:0:0:
480,300,107337,1,0,3:0:0:0:
428,119,107506,1,8,0:0:0:0:
293,230,107674,5,2,3:2:0:0:
393,230,107843,1,0,0:0:0:0:
343,52,108011,2,0,L|342:140,1,88.5,8|0,0:0|0:0,0:0:0:0:
342,320,108349,1,0,3:0:0:0:
199,230,108517,1,8,0:0:0:0:
342,140,108686,1,0,3:0:0:0:
174,40,108854,1,8,0:0:0:0:
73,148,109023,6,0,B|133:153|133:153|184:132|184:132|250:139,1,177,4|8,0:0|0:0,0:0:0:0:
199,230,109528,1,2,0:0:0:0:
82,59,109697,2,0,L|72:153,1,88.5,0|0,3:0|0:0,0:0:0:0:
245,138,110034,1,0,3:0:0:0:
174,40,110202,1,8,0:0:0:0:
199,230,110371,6,0,B|242:243|242:243|288:232,1,88.5,4|8,0:0|3:0,0:0:0:0:
330,139,110624,1,0,3:0:0:0:
330,139,110708,2,0,B|287:126|287:126|241:137,1,88.5,0|8,3:0|3:3,0:0:0:0:
378,222,110961,1,0,0:0:0:0:
378,222,111045,2,0,B|420:234|420:234|466:223,1,88.5,0|4,3:0|3:3,0:0:0:0:
483,215,111298,1,8,3:3:0:0:
500,207,111382,1,0,3:0:0:0:
410,101,111551,1,8,0:0:0:0:
283,231,111719,6,0,L|294:328,1,88.5,4|0,0:0|0:0,0:0:0:0:
378,222,112056,1,8,0:0:0:0:
330,139,112225,2,0,B|285:126|285:126|198:149,1,132.75,0|0,3:0|0:0,0:0:0:0:
178,156,112562,2,0,B|192:253,1,88.5,0|2,3:0|0:0,0:0:0:0:
214,368,112899,1,8,0:0:0:0:
283,231,113068,5,0,3:0:0:0:
112,335,113236,1,2,0:0:0:0:
112,335,113320,1,8,0:0:0:0:
112,335,113405,2,0,B|118:291,1,44.25,8|0,0:0|0:0,0:0:0:0:
154,74,113573,5,4,3:2:0:0:
154,74,114416,6,0,L|248:57,1,88.5,12|0,1:2|3:0,0:0:0:0:
178,156,114753,2,0,L|84:139,1,88.5,8|0,0:0|3:0,0:0:0:0:
85,14,115090,1,8,0:0:0:0:
178,156,115259,1,0,3:0:0:0:
10,188,115427,2,0,B|-7:145|-7:145|6:99,1,88.5,8|0,0:0|3:0,0:0:0:0:
85,14,115764,5,8,0:0:0:0:
85,14,115849,1,0,0:0:0:0:
85,14,115933,1,0,3:0:0:0:
118,239,116101,1,8,0:0:0:0:
265,157,116270,1,0,3:0:0:0:
90,140,116438,1,8,0:0:0:0:
221,246,116607,1,2,0:1:0:0:
186,67,116776,2,0,L|176:169,1,88.5,2|0,0:1|3:0,0:0:0:0:
221,246,117113,6,0,B|288:253|288:253|352:216,1,132.75,12|0,0:0|0:0,0:0:0:0:
362,210,117450,2,0,L|353:121,1,88.5,8|0,0:0|3:0,0:0:0:0:
339,0,117787,1,8,0:0:0:0:
265,157,117955,1,0,3:0:0:0:
186,67,118124,2,0,L|286:58,1,88.5,8|0,0:0|3:0,0:0:0:0:
418,50,118461,5,8,0:0:0:0:
418,50,118545,1,0,0:0:0:0:
418,50,118629,2,0,B|447:86|447:86|451:137,1,88.5,2|8,0:1|0:0,0:0:0:0:
377,283,118967,1,0,3:0:0:0:
353,121,119135,1,8,0:0:0:0:
461,233,119304,1,2,0:1:0:0:
279,255,119472,5,8,0:0:0:0:
255,258,119585,5,8,0:0:0:0:
231,261,119697,5,8,0:0:0:0:
206,265,119809,6,0,B|193:309|193:309|205:362,1,88.5,4|2,0:0|0:1,0:0:0:0:
105,378,120062,1,0,0:0:0:0:
105,378,120146,2,0,B|88:338|88:338|52:309,1,88.5,12|0,0:0|3:0,0:0:0:0:
105,162,120483,2,0,L|128:278,1,88.5,8|0,0:0|3:0,0:0:0:0:
223,178,120820,2,0,L|200:294,1,88.5,8|0,0:0|3:0,0:0:0:0:
178,88,121158,5,8,0:0:0:0:
178,88,121242,1,0,0:0:0:0:
178,88,121326,2,0,B|221:77|221:77|272:90,1,88.5,0|8,3:0|0:0,0:0:0:0:
320,223,121663,1,2,0:0:0:0:
320,223,121747,1,0,0:0:0:0:
320,223,121832,1,8,0:0:0:0:
223,178,122000,1,2,0:1:0:0:
355,119,122169,1,2,0:1:0:0:
358,309,122337,1,0,3:0:0:0:
320,223,122506,6,0,B|381:221|381:221|448:264,1,132.75,12|0,0:0|0:0,0:0:0:0:
441,259,122843,2,0,L|454:162,1,88.5,8|0,0:0|3:0,0:0:0:0:
320,223,123180,1,8,0:0:0:0:
415,377,123349,1,0,3:0:0:0:
254,299,123517,1,8,0:0:0:0:
355,119,123686,1,2,0:1:0:0:
358,309,123854,5,4,0:3:0:0:
187,215,124023,1,8,3:3:0:0:
185,192,124107,1,0,3:0:0:0:
183,170,124191,1,8,0:0:0:0:
182,148,124275,1,8,0:0:0:0:
180,126,124360,1,8,0:0:0:0:
179,104,124444,1,0,0:0:0:0:
177,82,124528,6,0,L|106:73,1,44.25,8|8,0:3|0:0,0:0:0:0:
79,200,124697,2,0,L|105:164,1,44.25,10|8,0:0|0:0,0:0:0:0:
26,54,124865,2,0,L|43:95,1,44.25,2|0,3:1|0:0,0:0:0:0:
118,305,125034,1,12,0:0:0:0:
