osu file format v14

[General]
AudioFilename: audio.mp3
AudioLeadIn: 0
PreviewTime: 90062
Countdown: 0
SampleSet: Soft
StackLeniency: 0.4
Mode: 0
LetterboxInBreaks: 0
WidescreenStoryboard: 1

[Editor]
Bookmarks: 25970,73952,84753,125034
DistanceSpacing: 1
BeatDivisor: 4
GridSize: 32
TimelineZoom: 2.5

[Metadata]
Title:Yume Tourou
TitleUnicode:夢灯籠
Artist:RADWIMPS
ArtistUnicode:RADWIMPS
Creator:Monstrata
Version:Insane: Mitsuha
Source:君の名は。
Tags:toukai dunois taki mitsuha your name kimi no na wa makoto shinkai neoskylove nsl haruto haruto_aizawa walao walaowey sotarks irohas mugiwarasekai snownino_
BeatmapID:1276291
BeatmapSetID:597111

[Difficulty]
HPDrainRate:6
CircleSize:4
OverallDifficulty:8
ApproachRate:9.1
SliderMultiplier:1.77
SliderTickRate:1

[Events]
//Background and Video events
0,0,"737151.png",0,0
//Break Periods
//Storyboard Layer 0 (Background)
//Storyboard Layer 1 (Fail)
//Storyboard Layer 2 (Pass)
//Storyboard Layer 3 (Foreground)
//Storyboard Sound Samples

[TimingPoints]
24488,348.837209302326,4,2,12,70,1,0
24488,-129.87012987013,4,2,12,70,0,0
26057,-129.87012987013,4,2,12,30,0,0
26232,-129.87012987013,4,2,12,70,0,0
26406,-129.87012987013,4,2,12,30,0,0
26581,-129.87012987013,4,2,12,70,0,0
40185,-129.87012987013,4,2,12,30,0,0
40534,-129.87012987013,4,2,12,70,0,0
51348,-153.846153846154,4,2,12,70,0,0
51697,-125,4,2,12,70,0,0
52046,-105.263157894737,4,2,12,70,0,0
52394,337.078651685393,4,2,12,70,1,0
54585,-100,4,2,3,70,0,0
54837,-100,4,2,12,70,0,0
59978,-100,4,2,3,70,0,0
60231,-100,4,2,12,70,0,0
65371,-100,4,3,6,70,0,0
65877,-100,4,2,12,70,0,0
68068,-100,4,3,6,70,0,0
68573,-100,4,2,12,70,0,0
70764,-100,4,3,6,70,0,0
71270,-100,4,2,12,70,0,0
72281,-100,4,3,6,70,0,0
72618,-100,4,2,12,70,0,0
76158,-100,4,3,6,70,0,0
76495,-100,4,2,12,70,0,0
78854,-100,4,3,6,70,0,0
79360,-100,4,2,12,70,0,0
81551,-100,4,3,6,70,0,0
82056,-100,4,2,12,70,0,0
90146,-100,4,2,12,70,0,1
114416,-100,4,2,12,70,0,0
116607,-100,4,2,3,70,0,0
116860,-100,4,2,12,70,0,0
122000,-100,4,2,3,70,0,0
122337,-100,4,2,12,70,0,0

[Colours]
Combo1 : 255,134,255
Combo2 : 255,157,60
Combo3 : 167,79,255
Combo4 : 77,166,255

[HitObjects]
112,214,24488,6,0,B|190:201|164:247|247:239,1,136.289997296494,2|0,0:3|0:0,0:0:0:0:
314,175,25011,1,2,0:0:0:0:
201,18,25185,2,0,P|215:82|229:160,1,136.289997296494,0|0,0:0|0:0,0:0:0:0:
278,322,25708,1,0,0:0:0:0:
391,225,25883,6,0,P|401:192|403:159,1,68.1449986482468,2|0,0:3|0:0,0:0:0:0:
300,108,26232,2,0,P|309:140|313:174,1,68.1449986482468
363,322,26581,2,0,P|422:321|483:261,1,136.289997296494,0|2,0:0|0:0,0:0:0:0:
391,226,27104,1,0,0:0:0:0:
278,322,27278,6,0,P|214:308|136:294,1,136.289997296494,2|0,0:3|0:0,0:0:0:0:
31,221,27801,2,0,P|50:283|77:357,1,136.289997296494,2|0,0:0|0:0,0:0:0:0:
144,295,28325,2,0,P|126:238|101:171,1,102.21749797237,2|0,0:0|0:0,0:0:0:0:
102,176,28674,6,0,B|174:192|160:134|240:155,1,136.289997296494,2|0,0:3|0:0,0:0:0:0:
313,184,29197,1,2,0:0:0:0:
229,302,29371,2,0,P|222:268|215:235,1,68.1449986482468,0|0,0:0|0:0,0:0:0:0:
327,117,29720,2,0,P|321:150|313:183,1,68.1449986482468,0|0,0:3|0:0,0:0:0:0:
247,52,30069,6,0,P|345:35|450:14,1,204.43499594474,2|2,0:3|0:0,0:0:0:0:
445,159,30767,2,0,P|394:115|327:116,1,136.289997296494,0|0,0:0|0:0,0:0:0:0:
231,153,31290,1,0,0:0:0:0:
332,344,31464,6,0,P|346:277|359:210,1,136.289997296494,2|0,0:3|0:0,0:0:0:0:
327,116,31988,1,0,0:0:0:0:
146,205,32162,2,0,P|213:250|276:239,1,136.289997296494,0|2,0:0|0:0,0:0:0:0:
327,116,32685,1,0,0:0:0:0:
117,71,32860,6,0,P|130:138|145:204,1,136.289997296494,2|0,0:3|0:0,0:0:0:0:
186,361,33383,1,2,0:0:0:0:
39,307,33557,2,0,P|81:290|126:293,2,90.8599981976624,0|0|0,0:0|0:0|0:0,0:0:0:0:
186,361,34255,6,0,P|210:327|215:296,1,68.1449986482468,2|0,0:3|0:0,0:0:0:0:
181,106,34604,1,0,0:0:0:0:
145,204,34778,2,0,P|211:191|278:176,1,136.289997296494,2|0,0:0|0:0,0:0:0:0:
334,96,35301,2,0,P|301:89|268:83,1,68.1449986482468,2|0,0:0|0:0,0:0:0:0:
223,252,35650,6,0,P|281:221|356:250,1,136.289997296494,2|0,0:3|0:0,0:0:0:0:
414,301,36174,1,2,0:0:0:0:
304,371,36348,2,0,P|297:337|290:304,1,68.1449986482468,0|0,0:0|0:0,0:0:0:0:
427,234,36697,2,0,P|420:267|414:301,1,68.1449986482468,0|0,0:0|0:0,0:0:0:0:
258,153,37046,6,0,P|316:184|391:155,1,136.289997296494,2|0,0:3|0:0,0:0:0:0:
311,30,37569,1,2,0:0:0:0:
311,30,37743,2,0,P|318:63|324:96,1,68.1449986482468,0|0,0:0|0:0,0:0:0:0:
182,106,38092,2,0,P|205:81|237:68,1,68.1449986482468,2|0,0:0|0:0,0:0:0:0:
204,229,38441,6,0,P|170:171|182:106,1,136.289997296494,2|0,0:3|0:0,0:0:0:0:
291,233,38964,2,0,P|276:299|264:366,1,136.289997296494,2|0,0:0|0:0,0:0:0:0:
80,255,39488,2,0,P|133:245|186:233,1,102.21749797237,2|0,0:0|0:0,0:0:0:0:
204,229,39836,6,0,P|224:187|223:149,1,68.1449986482468,0|0,0:0|0:0,0:0:0:0:
53,70,40185,1,12,3:0:0:0:
80,255,40360,1,12,3:0:0:0:
133,162,40534,2,0,P|139:129|147:96,1,68.1449986482468,2|0,0:0|0:0,0:0:0:0:
315,55,40883,2,0,P|308:88|301:121,1,68.1449986482468,2|0,0:0|0:0,0:0:0:0:
271,277,41232,6,0,P|304:241|391:239,1,136.289997296494,6|0,3:0|3:0,0:0:0:0:
465,280,41755,1,2,0:0:0:0:
366,383,41929,2,0,P|360:349|352:317,1,68.1449986482468
479,212,42278,2,0,P|470:245|465:279,1,68.1449986482468,0|0,3:0|0:0,0:0:0:0:
293,107,42627,6,0,P|326:143|413:145,1,136.289997296494,2|0,0:3|3:0,0:0:0:0:
372,66,43150,1,2,0:0:0:0:
197,21,43325,2,0,P|204:54|211:87,1,68.1449986482468,0|0,0:0|0:0,0:0:0:0:
151,206,43674,2,0,P|144:173|137:140,1,68.1449986482468,2|0,3:2|0:0,0:0:0:0:
33,241,44022,6,0,P|84:198|150:205,1,136.289997296494,2|0,3:0|3:0,0:0:0:0:
231,244,44546,1,8,3:0:0:0:
128,351,44720,2,0,P|121:318|114:285,1,68.1449986482468,0|0,0:0|0:0,0:0:0:0:
231,244,45069,2,0,P|224:277|217:310,1,68.1449986482468,2|0,3:2|3:0,0:0:0:0:
288,170,45418,5,2,0:3:0:0:
288,170,45592,2,0,P|248:152|209:156,1,68.1449986482468,2|0,0:0|3:0,0:0:0:0:
324,260,45941,1,2,0:0:0:0:
324,260,46028,1,0,0:0:0:0:
324,260,46115,2,0,P|357:257|387:242,1,68.1449986482468,2|0,0:0|0:0,0:0:0:0:
485,172,46464,1,2,0:0:0:0:
367,17,46639,6,0,P|381:83|394:150,1,136.289997296494,2|0,0:3|0:0,0:0:0:0:
441,319,47162,1,0,3:0:0:0:
485,172,47336,1,8,3:0:0:0:
324,260,47511,1,2,0:0:0:0:
324,260,47685,2,0,P|258:246|191:233,1,136.289997296494,0|2,0:0|0:0,0:0:0:0:
65,282,48208,6,0,P|97:219|76:158,1,136.289997296494,2|0,0:3|3:0,0:0:0:0:
31,78,48732,1,2,0:0:0:0:
131,17,48906,2,0,P|137:50|126:82,1,68.1449986482468,0|0,0:0|3:0,0:0:0:0:
73,225,49255,2,0,P|67:191|78:159,1,68.1449986482468,2|0,3:2|0:0,0:0:0:0:
203,130,49604,6,0,P|269:117|336:102,1,136.289997296494,10|0,3:0|3:0,0:0:0:0:
473,71,50127,1,8,3:0:0:0:
435,225,50301,2,0,P|425:178|416:131,1,68.1449986482468,2|0,0:0|0:0,0:0:0:0:
389,20,50650,1,0,3:0:0:0:
289,177,50825,1,0,0:0:0:0:
289,177,50912,1,0,0:0:0:0:
289,177,50999,6,0,P|298:223|307:270,1,68.1449986482468,10|0,3:0|0:0,0:0:0:0:
339,373,51348,1,8,3:0:0:0:
435,225,51522,1,0,3:0:0:0:
261,331,51697,1,0,1:0:0:0:
289,177,51871,5,0,0:0:0:0:
390,303,52046,1,8,3:0:0:0:
183,288,52220,1,12,3:0:0:0:
183,288,52307,1,0,0:0:0:0:
183,288,52394,6,0,P|176:237|169:190,1,88.5,12|0,1:2|3:0,0:0:0:0:
276,89,52731,2,0,P|283:140|290:187,1,88.5,8|0,1:2|3:0,0:0:0:0:
105,125,53068,1,8,0:0:0:0:
220,0,53236,1,0,0:0:0:0:
216,15,53320,1,0,0:0:0:0:
212,30,53405,1,8,0:0:0:0:
170,200,53573,1,0,3:0:0:0:
40,56,53742,5,8,0:0:0:0:
40,56,53826,1,0,0:0:0:0:
40,56,53910,2,0,P|93:33|140:41,1,88.5,0|8,3:0|0:0,0:0:0:0:
276,89,54247,1,0,3:0:0:0:
170,200,54416,1,8,0:0:0:0:
220,0,54585,1,2,0:1:0:0:
345,159,54753,2,0,P|292:182|245:174,1,88.5,2|0,0:1|3:0,0:0:0:0:
105,125,55090,6,0,P|117:203|131:307,1,177,12|8,0:0|0:0,0:0:0:0:
222,361,55596,1,0,3:0:0:0:
222,361,55680,1,0,0:0:0:0:
222,361,55764,2,0,P|237:319|232:276,1,88.5,8|0,0:0|3:0,0:0:0:0:
105,125,56101,1,8,0:0:0:0:
130,300,56270,1,0,3:0:0:0:
263,180,56438,5,8,0:0:0:0:
263,180,56523,1,0,0:0:0:0:
263,180,56607,2,0,P|268:133|275:92,1,88.5,0|8,3:0|0:0,0:0:0:0:
105,125,56944,1,0,3:0:0:0:
232,276,57113,1,12,0:0:0:0:
349,150,57281,1,0,0:0:0:0:
170,200,57450,5,8,0:0:0:0:
149,221,57562,5,8,0:0:0:0:
138,248,57674,5,8,0:0:0:0:
136,277,57787,6,0,P|151:331|182:358,1,88.5,4|2,0:0|0:1,0:0:0:0:
322,277,58040,1,0,0:0:0:0:
322,277,58124,2,0,P|307:223|276:196,1,88.5,12|0,0:0|3:0,0:0:0:0:
149,102,58461,1,8,0:0:0:0:
232,276,58629,1,0,3:0:0:0:
309,100,58798,1,8,0:0:0:0:
170,200,58967,1,0,3:0:0:0:
330,285,59135,5,8,0:0:0:0:
330,285,59219,1,0,0:0:0:0:
330,285,59304,2,0,P|376:275|435:270,1,88.5,0|8,3:0|0:0,0:0:0:0:
309,100,59641,1,0,3:0:0:0:
232,276,59809,1,8,0:0:0:0:
378,174,59978,1,2,0:1:0:0:
149,102,60146,2,0,P|100:126|76:170,1,88.5,2|0,0:1|3:0,0:0:0:0:
195,375,60483,6,0,P|181:277|169:199,1,177,12|8,0:0|0:0,0:0:0:0:
144,12,60989,1,0,3:0:0:0:
144,12,61073,1,0,0:0:0:0:
144,12,61158,2,0,P|87:30|65:64,1,88.5,8|0,0:0|3:0,0:0:0:0:
242,105,61495,1,8,0:0:0:0:
319,12,61663,1,0,3:0:0:0:
319,12,61747,1,0,0:0:0:0:
319,12,61832,6,0,P|276:17|231:21,1,88.5,8|0,0:0|3:0,0:0:0:0:
169,199,62169,2,0,P|215:192|256:189,1,88.5,12|0,0:0|3:0,0:0:0:0:
432,167,62506,1,4,3:0:0:0:
388,169,62590,1,8,0:0:0:0:
351,192,62674,1,0,1:0:0:0:
330,230,62758,1,0,1:0:0:0:
333,275,62843,2,0,P|357:326|371:335,1,44.25,8|8,0:0|0:0,0:0:0:0:
446,207,63011,2,0,P|422:156|408:147,1,44.25,8|8,0:0|0:0,0:0:0:0:
242,105,63180,6,0,P|198:111|155:115,1,88.5,4|0,3:2|0:0,0:0:0:0:
74,219,63517,2,0,P|92:259|127:285,1,88.5,0|0,3:0|0:0,0:0:0:0:
169,199,63854,1,0,3:0:0:0:
169,199,64023,1,2,0:0:0:0:
51,35,64191,2,0,P|57:77|62:123,1,88.5,0|2,3:0|0:0,0:0:0:0:
127,285,64528,6,0,P|169:295|212:285,1,88.5,0|2,3:0|0:0,0:0:0:0:
254,199,64865,2,0,P|211:188|168:198,1,88.5,0|2,3:0|0:0,0:0:0:0:
96,364,65202,1,0,3:0:0:0:
287,338,65371,1,0,0:0:0:0:
298,314,65455,1,0,0:0:0:0:
302,287,65539,1,0,0:0:0:0:
299,261,65624,1,0,0:0:0:0:
290,236,65708,1,0,0:0:0:0:
274,215,65792,1,0,0:0:0:0:
254,199,65877,6,0,P|297:210|373:90,1,177,0|0,3:0|3:0,0:0:0:0:
396,0,66382,1,0,0:0:0:0:
380,125,66551,1,0,3:0:0:0:
277,37,66719,2,0,P|285:80|295:125,1,88.5,2|0,0:0|3:0,0:0:0:0:
453,71,67056,1,2,0:0:0:0:
276,36,67225,6,0,P|233:30|190:19,1,88.5,0|2,3:0|0:0,0:0:0:0:
118,131,67562,2,0,P|161:120|205:114,1,88.5,0|2,3:0|0:0,0:0:0:0:
96,36,67899,1,0,3:0:0:0:
33,150,68068,1,0,0:0:0:0:
38,176,68152,1,0,0:0:0:0:
43,202,68236,1,0,0:0:0:0:
48,228,68320,1,0,0:0:0:0:
54,254,68405,1,0,0:0:0:0:
59,280,68489,1,0,0:0:0:0:
64,306,68573,6,0,B|160:281|133:362|238:337,1,177,0|0,3:0|3:0,0:0:0:0:
293,276,69079,1,2,0:0:0:0:
192,166,69247,2,0,P|197:210|211:266,1,88.5,0|2,3:0|0:0,0:0:0:0:
314,365,69585,1,0,3:0:0:0:
348,211,69753,1,2,0:0:0:0:
229,339,69922,6,0,P|181:338|133:294,1,88.5,0|2,3:0|0:0,0:0:0:0:
111,144,70259,2,0,P|159:145|207:189,1,88.5,0|2,3:0|0:0,0:0:0:0:
134,311,70596,1,0,3:0:0:0:
38,192,70765,1,0,0:0:0:0:
36,169,70849,1,0,0:0:0:0:
34,147,70933,1,0,0:0:0:0:
32,125,71017,1,0,0:0:0:0:
30,103,71102,1,0,0:0:0:0:
28,81,71186,1,0,0:0:0:0:
26,61,71270,6,0,P|76:52|123:44,1,88.5,0|2,3:0|0:0,0:0:0:0:
198,159,71607,2,0,P|155:150|111:144,1,88.5,0|0,3:0|0:0,0:0:0:0:
207,58,71944,2,0,P|256:74|290:120,1,88.5,0|2,3:0|0:0,0:0:0:0:
205,202,72281,1,0,0:0:0:0:
201,181,72365,1,0,0:0:0:0:
198,159,72449,1,0,0:0:0:0:
373,134,72618,5,0,3:0:0:0:
308,297,72787,1,2,0:0:0:0:
280,100,72955,1,0,3:0:0:0:
391,232,73124,1,0,1:0:0:0:
231,349,73292,2,0,P|217:297|236:241,1,88.5,0|2,3:0|0:0,0:0:0:0:
280,100,73629,2,0,P|294:152|275:208,1,88.5,0|0,1:0|0:0,0:0:0:0:
224,264,73967,6,0,B|132:289|149:205|47:234,1,177,4|2,3:2|3:2,0:0:0:0:
84,325,74472,1,2,0:0:0:0:
192,176,74641,1,0,3:0:0:0:
9,157,74809,1,2,0:0:0:0:
192,176,74978,1,0,3:0:0:0:
57,231,75146,1,2,0:0:0:0:
83,61,75315,6,0,P|93:104|102:160,1,88.5,0|0,3:0|0:0,0:0:0:0:
208,89,75652,2,0,P|199:129|192:176,1,88.5,2|0,3:2|0:0,0:0:0:0:
300,117,75989,2,0,P|310:159|317:204,1,88.5,2|0,3:2|0:0,0:0:0:0:
322,227,76242,1,0,0:0:0:0:
327,249,76326,1,0,0:0:0:0:
360,374,76495,1,2,0:0:0:0:
496,225,76663,6,0,B|403:198|422:272|321:248,1,177,0|0,3:0|3:0,0:0:0:0:
230,264,77169,1,2,0:0:0:0:
225,100,77337,2,0,P|261:149|259:208,1,88.5,0|2,3:0|0:0,0:0:0:0:
199,373,77674,2,0,P|146:334|128:272,1,132.75,0|0,3:0|0:0,0:0:0:0:
134,257,78011,6,0,P|92:250|35:238,1,88.5,0|2,0:0|0:0,0:0:0:0:
173,178,78349,1,0,3:0:0:0:
230,264,78517,1,2,0:0:0:0:
78,157,78686,1,0,3:0:0:0:
225,100,78854,5,0,0:0:0:0:
243,92,78938,1,0,0:0:0:0:
261,84,79023,1,0,0:0:0:0:
279,76,79107,1,0,0:0:0:0:
297,68,79191,1,0,0:0:0:0:
315,60,79276,1,0,0:0:0:0:
333,52,79360,6,0,B|363:143|287:124|307:223,1,177,0|0,3:0|3:0,0:0:0:0:
338,311,79865,1,2,0:0:0:0:
473,205,80034,2,0,P|422:184|374:199,1,88.5,0|0,3:0|0:0,0:0:0:0:
255,295,80371,2,0,P|306:316|354:301,1,88.5,0|2,3:0|0:0,0:0:0:0:
473,205,80708,5,0,3:0:0:0:
333,52,80877,1,2,0:0:0:0:
418,280,81045,1,0,3:0:0:0:
489,120,81214,1,2,0:0:0:0:
315,139,81382,2,0,P|275:145|219:149,1,88.5,2|0,3:2|0:0,0:0:0:0:
201,151,81635,1,0,0:0:0:0:
176,154,81719,1,0,3:0:0:0:
44,180,81888,1,0,0:0:0:0:
44,180,81972,1,0,0:0:0:0:
44,180,82056,6,0,P|50:224|54:276,1,88.5,4|0,0:0|0:0,0:0:0:0:
157,343,82393,2,0,P|150:293|147:247,1,88.5,0|2,3:0|0:0,0:0:0:0:
84,88,82731,2,0,P|33:77|-17:100,1,88.5,0|0,3:0|0:0,0:0:0:0:
147,254,83068,2,0,P|189:265|232:254,1,88.5,2|0,3:2|0:0,0:0:0:0:
337,112,83405,5,2,3:2:0:0:
189,171,83573,1,0,0:0:0:0:
315,270,83742,1,0,3:0:0:0:
264,60,83911,1,8,0:0:0:0:
255,79,83995,1,8,0:0:0:0:
252,97,84079,1,0,3:0:0:0:
231,254,84247,1,8,0:3:0:0:
401,273,84416,2,0,P|383:213|345:184,1,88.5,0|4,3:0|0:3,0:0:0:0:
141,257,84753,5,4,0:0:0:0:
252,97,84922,1,0,3:0:0:0:
315,270,85090,1,2,0:0:0:0:
98,173,85259,1,0,3:0:0:0:
252,97,85427,1,8,0:0:0:0:
187,336,85596,1,0,3:0:0:0:
189,171,85764,1,8,3:0:0:0:
315,270,85933,1,4,3:0:0:0:
102,340,86101,6,0,P|64:307|52:253,1,88.5,2|0,0:0|3:0,0:0:0:0:
45,100,86438,2,0,P|92:83|145:100,1,88.5,2|0,0:0|3:0,0:0:0:0:
301,183,86776,1,8,0:0:0:0:
141,257,86944,1,4,3:0:0:0:
141,257,87281,1,0,0:0:0:0:
201,28,87450,5,4,0:0:0:0:
250,266,87618,1,0,3:0:0:0:
98,173,87787,1,2,0:0:0:0:
252,97,87955,1,0,3:0:0:0:
141,257,88124,1,8,0:0:0:0:
201,28,88292,1,0,3:0:0:0:
301,183,88461,1,8,3:0:0:0:
345,1,88629,1,8,0:0:0:0:
301,183,88798,6,0,P|309:227|316:275,1,88.5,4|8,0:0|0:0,0:0:0:0:
315,270,89051,1,8,0:0:0:0:
315,270,89135,1,8,0:0:0:0:
171,336,89304,1,4,3:0:0:0:
189,171,89472,5,8,0:0:0:0:
192,192,89556,1,8,0:0:0:0:
196,214,89640,1,8,0:0:0:0:
199,236,89724,1,8,0:0:0:0:
203,258,89809,1,4,0:0:0:0:
86,343,89978,1,8,1:2:0:0:
86,343,90062,1,8,1:2:0:0:
86,343,90146,6,0,P|79:291|72:256,1,88.5,4|0,0:0|0:0,0:0:0:0:
188,171,90483,2,0,P|180:214|174:258,1,88.5,8|0,0:0|0:0,0:0:0:0:
9,194,90820,2,0,P|46:171|96:172,1,88.5,2|0,0:0|0:0,0:0:0:0:
276,192,91158,1,0,3:0:0:0:
72,255,91326,1,8,0:0:0:0:
174,84,91495,6,0,P|182:127|188:171,1,88.5,2|0,3:2|0:0,0:0:0:0:
260,283,91832,2,0,P|342:254|358:225,1,88.5,8|0,0:0|0:0,0:0:0:0:
264,95,92169,1,0,3:0:0:0:
174,259,92337,1,8,0:0:0:0:
264,95,92506,1,0,3:0:0:0:
340,255,92674,1,8,0:0:0:0:
188,171,92843,6,0,P|148:163|101:157,1,88.5,2|0,0:0|0:0,0:0:0:0:
264,95,93180,2,0,P|293:153|289:196,1,88.5,8|0,0:0|0:0,0:0:0:0:
216,345,93517,2,0,P|202:254|188:171,1,177,0|0,3:0|3:0,0:0:0:0:
156,7,94023,1,8,0:0:0:0:
338,57,94191,6,0,P|306:88|263:95,1,88.5,2|0,0:0|0:0,0:0:0:0:
75,76,94528,1,8,0:0:0:0:
260,5,94697,1,8,0:3:0:0:
260,5,94781,1,8,0:3:0:0:
260,5,94865,5,8,3:3:0:0:
196,179,95034,1,4,0:3:0:0:
196,179,95118,1,4,0:3:0:0:
196,179,95202,1,4,3:3:0:0:
75,76,95371,1,0,0:0:0:0:
65,67,95455,1,8,0:3:0:0:
54,58,95540,6,0,P|31:119|41:156,1,88.5,4|0,0:0|0:0,0:0:0:0:
196,179,95877,2,0,P|154:128|117:118,1,88.5,8|0,0:0|0:0,0:0:0:0:
20,241,96214,2,0,P|84:230|111:203,1,88.5,0|0,3:0|0:0,0:0:0:0:
235,83,96551,1,0,3:0:0:0:
224,278,96719,1,8,0:0:0:0:
196,179,96888,6,0,P|254:179|300:212,1,88.5,2|0,0:0|0:0,0:0:0:0:
236,365,97225,2,0,P|231:315|222:267,1,88.5,8|0,0:0|0:0,0:0:0:0:
360,145,97562,1,0,3:0:0:0:
376,339,97731,1,8,0:0:0:0:
280,192,97899,1,0,3:0:0:0:
376,339,98068,1,8,0:0:0:0:
444,291,98236,6,0,P|366:257|299:307,1,177,2|8,0:0|0:0,0:0:0:0:
236,365,98742,1,0,0:0:0:0:
131,266,98910,2,0,P|174:273|218:278,1,88.5,0|0,3:0|0:0,0:0:0:0:
236,365,99247,1,0,3:0:0:0:
131,266,99416,1,8,0:0:0:0:
72,334,99585,6,0,P|39:276|46:236,1,88.5,2|0,0:0|0:0,0:0:0:0:
49,234,99837,1,0,0:0:0:0:
60,217,99922,1,0,3:0:0:0:
186,91,100090,1,8,0:3:0:0:
186,91,100174,1,0,0:0:0:0:
186,91,100259,1,0,3:0:0:0:
218,278,100427,1,0,0:0:0:0:
92,110,100596,1,0,3:0:0:0:
131,266,100764,1,8,0:0:0:0:
261,158,100933,6,0,P|306:150|360:144,1,88.5,4|0,0:0|0:0,0:0:0:0:
422,268,101270,2,0,P|364:265|318:230,2,118,8|0|0,0:0|0:0|0:0,0:0:0:0:
420,90,101944,1,0,3:0:0:0:
318,230,102113,1,8,0:0:0:0:
186,91,102281,6,0,B|87:115|118:36|18:58,1,177,4|8,0:0|0:0,0:0:0:0:
47,139,102787,1,0,0:0:0:0:
158,13,102955,1,0,3:0:0:0:
171,182,103124,1,8,0:0:0:0:
21,58,103292,1,0,3:0:0:0:
171,182,103461,1,8,0:0:0:0:
254,141,103629,6,0,P|227:107|186:91,1,88.5,2|0,0:0|0:0,0:0:0:0:
46,140,103967,1,8,0:0:0:0:
157,272,104135,2,0,P|200:268|236:243,1,88.5,2|0,0:0|3:0,0:0:0:0:
186,90,104472,1,0,0:0:0:0:
73,228,104641,1,0,3:0:0:0:
236,243,104809,1,8,0:0:0:0:
46,140,104978,6,0,P|44:217|37:316,1,177,4|8,0:0|0:0,0:0:0:0:
152,360,105483,1,0,3:0:0:0:
152,360,105568,1,0,3:0:0:0:
152,360,105652,2,0,P|211:352|236:324,1,88.5,0|0,3:0|3:0,0:0:0:0:
236,243,105905,1,0,3:0:0:0:
236,243,105989,2,0,P|295:251|320:279,1,88.5,0|0,3:0|3:0,0:0:0:0:
320,356,106242,1,0,3:0:0:0:
320,356,106326,6,0,P|391:347|477:339,1,132.75,4|0,0:0|0:0,0:0:0:0:
477,337,106663,2,0,P|500:288|493:250,1,88.5,8|0,0:0|0:0,0:0:0:0:
425,192,107000,2,0,P|402:241|409:279,1,88.5,0|0,3:0|0:0,0:0:0:0:
512,166,107337,1,0,3:0:0:0:
348,108,107506,1,8,0:0:0:0:
402,284,107674,5,2,3:2:0:0:
495,255,107843,1,0,0:0:0:0:
451,94,108011,2,0,P|436:51|389:18,1,88.5,8|0,0:0|0:0,0:0:0:0:
254,119,108349,1,0,3:0:0:0:
425,192,108517,1,8,0:0:0:0:
348,108,108686,1,0,3:0:0:0:
425,192,108854,1,8,0:0:0:0:
236,243,109023,6,0,B|141:217|167:295|61:276,1,177,4|8,0:0|0:0,0:0:0:0:
92,191,109528,1,2,0:0:0:0:
207,327,109697,2,0,P|263:328|306:302,1,88.5,0|0,3:0|0:0,0:0:0:0:
254,119,110034,1,0,3:0:0:0:
207,327,110202,1,8,0:0:0:0:
92,191,110371,6,0,P|141:182|191:180,1,88.5,4|8,0:0|3:0,0:0:0:0:
254,119,110624,1,0,3:0:0:0:
254,119,110708,2,0,P|301:117|353:108,1,88.5,0|8,3:0|3:3,0:0:0:0:
161,86,110961,1,0,3:0:0:0:
161,86,111045,2,0,P|118:93|74:96,1,88.5,0|4,3:0|3:3,0:0:0:0:
54,99,111298,1,8,3:3:0:0:
54,99,111382,1,0,3:0:0:0:
179,181,111551,1,8,0:0:0:0:
236,28,111719,6,0,P|282:20|348:18,1,88.5,4|0,0:0|0:0,0:0:0:0:
412,54,112056,1,8,0:0:0:0:
372,228,112225,2,0,P|334:161|355:87,1,132.75,0|0,3:0|0:0,0:0:0:0:
341,108,112562,2,0,P|314:150|250:163,1,88.5,0|2,3:0|0:0,0:0:0:0:
161,86,112899,1,8,0:0:0:0:
341,108,113068,5,0,3:0:0:0:
252,299,113236,1,2,0:0:0:0:
252,299,113320,1,8,0:0:0:0:
252,299,113405,2,0,P|239:268|231:244,1,44.25,8|0,0:0|0:0,0:0:0:0:
161,86,113573,5,4,3:2:0:0:
161,86,114416,6,0,P|206:77|263:64,1,88.5,12|0,1:2|3:0,0:0:0:0:
162,186,114753,2,0,P|118:176|75:167,1,88.5,8|0,0:0|3:0,0:0:0:0:
89,23,115090,1,8,0:0:0:0:
162,186,115259,1,0,3:0:0:0:
11,233,115427,2,0,P|-15:176|-7:134,1,88.5,8|0,0:0|3:0,0:0:0:0:
89,23,115764,5,8,0:0:0:0:
89,23,115849,1,0,0:0:0:0:
89,23,115933,1,0,3:0:0:0:
107,258,116101,1,8,0:0:0:0:
40,92,116270,1,0,3:0:0:0:
107,258,116438,1,8,0:0:0:0:
161,86,116607,1,2,0:1:0:0:
11,233,116776,2,0,P|21:276|31:329,1,88.5,2|0,0:1|3:0,0:0:0:0:
186,304,117113,6,0,P|196:240|161:185,1,132.75,12|0,0:0|0:0,0:0:0:0:
161,185,117450,2,0,P|204:175|257:165,1,88.5,8|0,0:0|3:0,0:0:0:0:
396,132,117787,1,8,0:0:0:0:
396,132,117955,1,0,3:0:0:0:
354,282,118124,2,0,P|332:235|339:185,1,88.5,8|0,0:0|3:0,0:0:0:0:
376,49,118461,5,8,0:0:0:0:
376,49,118545,1,0,0:0:0:0:
376,49,118629,2,0,P|398:96|391:146,1,88.5,2|8,0:1|0:0,0:0:0:0:
354,282,118967,1,0,3:0:0:0:
247,166,119135,1,8,0:0:0:0:
425,221,119304,1,2,0:1:0:0:
271,327,119472,5,8,0:0:0:0:
236,318,119584,5,8,0:0:0:0:
208,297,119696,5,8,0:0:0:0:
191,266,119809,6,0,P|148:274|105:285,1,88.5,4|2,0:0|0:1,0:0:0:0:
13,316,120062,1,0,0:0:0:0:
13,316,120146,2,0,P|14:257|46:210,1,88.5,12|0,0:0|3:0,0:0:0:0:
134,95,120483,2,0,P|150:136|148:180,1,88.5,8|0,0:0|3:0,0:0:0:0:
55,146,120820,2,0,P|47:103|36:60,1,88.5,8|0,0:0|3:0,0:0:0:0:
207,36,121158,5,8,0:0:0:0:
207,36,121242,1,0,0:0:0:0:
207,36,121326,2,0,P|247:52|291:49,1,88.5,0|8,3:0|0:0,0:0:0:0:
429,32,121663,1,2,0:0:0:0:
429,32,121747,1,0,0:0:0:0:
429,32,121832,1,8,0:0:0:0:
375,195,122000,1,2,0:1:0:0:
291,49,122169,1,2,0:1:0:0:
369,102,122337,1,0,3:0:0:0:
300,273,122506,6,0,P|273:213|284:149,1,132.75,12|0,0:0|0:0,0:0:0:0:
284,149,122843,2,0,P|241:157|198:168,1,88.5,8|0,0:0|3:0,0:0:0:0:
38,207,123180,1,8,0:0:0:0:
188,264,123349,1,0,3:0:0:0:
159,98,123517,1,8,0:0:0:0:
95,285,123686,1,2,0:1:0:0:
280,238,123854,5,4,0:3:0:0:
201,89,124023,1,8,3:3:0:0:
176,92,124107,1,0,3:0:0:0:
159,98,124191,1,8,0:0:0:0:
142,112,124275,1,8,0:0:0:0:
129,130,124359,1,8,0:0:0:0:
121,151,124443,1,0,0:0:0:0:
118,173,124528,6,0,P|124:203|136:231,1,44.25,8|8,0:3|0:0,0:0:0:0:
300,273,124697,2,0,P|271:262|241:259,1,44.25,10|8,0:0|0:0,0:0:0:0:
122,380,124865,2,0,P|145:360|163:335,1,44.25,2|0,3:1|0:0,0:0:0:0:
197,168,125034,1,12,0:0:0:0:
