osu file format v14

[General]
AudioFilename: audio.mp3
AudioLeadIn: 0
PreviewTime: 90062
Countdown: 0
SampleSet: Soft
StackLeniency: 0.7
Mode: 0
LetterboxInBreaks: 0
WidescreenStoryboard: 0

[Editor]
Bookmarks: 73952
DistanceSpacing: 1
BeatDivisor: 4
GridSize: 4
TimelineZoom: 2.5

[Metadata]
Title:Yume Tourou
TitleUnicode:夢灯籠
Artist:RADWIMPS
ArtistUnicode:RADWIMPS
Creator:Monstrata
Version:Extra: Mitsuha
Source:君の名は。
Tags:toukai dunois taki mitsuha your name kimi no na wa makoto shinkai neoskylove nsl haruto haruto_aizawa walao walaowey sotarks irohas mugiwarasekai snownino_
BeatmapID:1262433
BeatmapSetID:597111

[Difficulty]
HPDrainRate:6
CircleSize:4
OverallDifficulty:8.7
ApproachRate:9.2
SliderMultiplier:1.76
SliderTickRate:1

[Events]
//Background and Video events
0,0,"737151.png",0,0
//Break Periods
//Storyboard Layer 0 (Background)
//Storyboard Layer 1 (Fail)
//Storyboard Layer 2 (Pass)
//Storyboard Layer 3 (Foreground)
//Storyboard Sound Samples

[TimingPoints]
24488,348.837209302326,4,2,12,50,1,0
24488,-200,4,2,12,50,0,0
26057,-200,4,2,12,30,0,0
26232,-200,4,2,12,70,0,0
26406,-200,4,2,12,30,0,0
26581,-200,4,2,12,50,0,0
28586,-200,4,2,12,5,0,0
28674,-200,4,2,12,50,0,0
39749,-200,4,2,12,5,0,0
39836,-200,4,2,12,50,0,0
40185,-200,4,2,12,30,0,0
40534,-200,4,2,12,50,0,0
51348,-153.846153846154,4,2,12,55,0,0
51697,-125,4,2,12,60,0,0
52046,-105.263157894737,4,2,12,65,0,0
52394,337.078651685393,4,2,12,75,1,0
54585,-100,4,2,3,75,0,0
54837,-100,4,2,12,75,0,0
59978,-100,4,2,3,75,0,0
60231,-100,4,2,12,75,0,0
63180,-100,4,2,12,55,0,0
65371,-100,4,3,6,50,0,0
65540,-100,4,3,6,70,0,0
65877,-100,4,2,12,55,0,0
68068,-100,4,3,6,50,0,0
68236,-100,4,3,6,70,0,0
68573,-100,4,2,12,55,0,0
70764,-100,4,3,6,50,0,0
70933,-100,4,3,6,70,0,0
71270,-100,4,2,12,55,0,0
71776,-100,4,3,6,65,0,0
71860,-100,4,2,12,55,0,0
72281,-100,4,3,6,65,0,0
72534,-100,4,2,12,55,0,0
73124,-100,4,2,12,45,0,0
73208,-100,4,2,12,55,0,0
73629,-100,4,2,12,50,0,0
73714,-100,4,2,12,55,0,0
73967,-100,4,2,12,60,0,0
76158,-100,4,3,6,65,0,0
76410,-100,4,2,12,60,0,0
77927,-100,4,2,12,5,0,0
78011,-100,4,2,12,60,0,0
78854,-100,4,3,6,50,0,0
79023,-100,4,3,6,70,0,0
79360,-100,4,2,12,60,0,0
81551,-100,4,3,6,50,0,0
81719,-100,4,3,6,70,0,0
82056,-100,4,2,12,60,0,0
84753,-100,4,2,12,65,0,0
90146,-100,4,2,12,75,0,1
106579,-100,4,2,12,5,0,1
106663,-100,4,2,12,75,0,1
112478,-100,4,2,12,5,0,1
112562,-100,4,2,12,75,0,1
114416,-100,4,2,12,75,0,0
116607,-100,4,2,3,75,0,0
116860,-100,4,2,12,75,0,0
122000,-100,4,2,3,75,0,0
122253,-100,4,2,12,75,0,0

[Colours]
Combo1 : 255,134,255
Combo2 : 255,157,60
Combo3 : 167,79,255
Combo4 : 77,166,255

[HitObjects]
120,179,24488,6,0,P|174:130|235:139,1,132,2|2,0:3|0:0,0:0:0:0:
193,207,25185,2,8,P|205:269|272:301,1,132,0|0,0:0|0:0,0:0:0:0:
355,223,25883,6,0,P|313:212|271:222,1,88,2|0,0:3|0:0,0:0:0:0:
419,175,26581,2,0,P|461:186|503:176,1,88,0|2,0:0|0:0,0:0:0:0:
370,28,27278,6,0,P|380:70|369:113,1,88,2|0,0:3|0:0,0:0:0:0:
300,152,27801,2,8,P|364:141|419:175,1,132,2|2,0:0|0:0,0:0:0:0:
229,111,28674,6,0,P|219:153|230:196,1,88,2|0,0:3|0:0,0:0:0:0:
156,227,29197,1,2,0:0:0:0:
156,227,29371,2,0,P|166:269|156:311,1,88,0|0,0:0|0:3,0:0:0:0:
100,367,29894,1,0,0:0:0:0:
100,367,30069,6,0,P|160:343|223:358,1,132,2|2,0:3|0:0,0:0:0:0:
285,308,30767,2,0,P|348:322|408:298,1,132,0|0,0:0|0:0,0:0:0:0:
450,231,31464,5,2,0:3:0:0:
450,231,31813,2,0,P|486:277|485:316,1,88,0|0,0:0|0:0,0:0:0:0:
343,173,32511,2,0,P|363:179|385:178,1,44,2|0,0:0|0:0,0:0:0:0:
374,99,32860,6,0,P|308:101|267:148,1,132,2|2,0:3|0:0,0:0:0:0:
218,83,33557,2,8,P|186:141|206:200,1,132,0|0,0:0|0:0,0:0:0:0:
142,249,34255,6,8,P|177:275|233:279,1,88,2|0,0:3|0:0,0:0:0:0:
266,346,34778,2,8,P|300:320|356:316,1,88,2|0,0:0|0:0,0:0:0:0:
417,344,35301,1,2,0:0:0:0:
417,344,35650,6,0,P|450:286|461:221,1,132,2|2,0:3|0:0,0:0:0:0:
382,239,36348,2,0,P|381:173|358:111,1,132,0|0,0:0|0:0,0:0:0:0:
299,165,37046,6,0,P|265:108|215:66,1,132,2|2,0:3|0:0,0:0:0:0:
189,141,37743,2,0,P|169:133|148:129,1,44,0|0,0:0|0:0,0:0:0:0:
150,209,38092,2,8,P|128:211|107:219,1,44,2|0,0:0|0:0,0:0:0:0:
146,289,38441,6,0,P|186:304|230:300,1,88,2|0,0:3|0:0,0:0:0:0:
242,215,38964,2,0,P|226:255|230:299,1,88,2|0,0:0|0:0,0:0:0:0:
275,365,39488,2,0,P|310:371|334:368,1,44,2|0,0:0|0:0,0:0:0:0:
352,286,39836,6,0,P|330:286|309:292,1,44,0|0,0:0|0:0,0:0:0:0:
395,353,40185,1,12,3:0:0:0:
431,282,40360,1,12,3:0:0:0:
381,170,40534,2,0,P|386:192|389:214,1,44,2|0,0:0|0:0,0:0:0:0:
302,172,40883,2,0,P|304:150|309:128,1,44,2|0,0:0|0:0,0:0:0:0:
378,88,41232,6,0,P|419:86|438:79,1,44,6|0,3:0|0:0,0:0:0:0:
392,11,41581,2,0,P|351:13|332:20,1,44,0|2,3:0|0:0,0:0:0:0:
238,59,41929,2,0,P|260:60|282:57,1,44,0|0,0:0|0:0,0:0:0:0:
161,40,42278,2,0,P|159:61|163:83,1,44,0|0,3:0|0:0,0:0:0:0:
222,136,42627,5,2,0:3:0:0:
222,136,42976,2,0,P|225:157|224:179,1,44,0|2,3:0|0:0,0:0:0:0:
165,275,43325,2,8,P|181:260|201:250,1,44,0|0,0:0|0:0,0:0:0:0:
314,255,43674,2,8,P|293:247|274:235,1,44,2|0,3:2|0:0,0:0:0:0:
393,255,44022,6,8,P|413:247|432:235,1,44,2|0,3:0|0:0,0:0:0:0:
359,135,44371,2,8,P|367:156|379:175,1,44,0|8,3:0|3:0,0:0:0:0:
434,105,44720,2,0,P|391:107|359:135,1,88,0|2,0:0|3:2,0:0:0:0:
305,194,45243,1,0,3:0:0:0:
347,260,45418,6,0,P|355:280|358:302,1,44,2|2,0:3|0:0,0:0:0:0:
250,302,45767,2,0,P|253:280|262:260,1,44,0|2,3:0|0:0,0:0:0:0:
224,154,46115,2,0,P|221:176|213:197,1,44,2|0,0:0|0:0,0:0:0:0:
102,165,46464,2,8,P|123:158|145:155,1,44,2|2,0:0|0:3,0:0:0:0:
181,78,46813,6,8,P|159:74|138:67,1,44,0|0,0:0|0:0,0:0:0:0:
250,38,47162,2,0,P|258:58|261:80,1,44,0|8,3:0|3:0,0:0:0:0:
224,154,47511,1,2,0:0:0:0:
262,222,47685,2,0,P|308:234|360:218,1,88,0|2,0:0|0:0,0:0:0:0:
410,141,48208,6,0,P|409:163|415:185,1,44,2|0,0:3|0:0,0:0:0:0:
492,200,48557,2,0,P|492:178|487:156,1,44,0|2,3:0|0:0,0:0:0:0:
418,65,48906,2,0,P|417:87|423:109,1,44,0|0,0:0|3:0,0:0:0:0:
500,124,49255,2,0,P|500:102|495:80,1,44,2|0,3:2|0:0,0:0:0:0:
361,8,49604,6,0,P|339:46|347:105,1,88,10|0,3:0|3:0,0:0:0:0:
418,65,50127,1,8,3:0:0:0:
262,111,50301,2,0,P|284:149|276:208,1,88,2|0,0:0|3:0,0:0:0:0:
205,168,50824,1,0,0:0:0:0:
360,215,50999,6,0,P|380:223|402:225,1,44,10|0,3:0|0:0,0:0:0:0:
456,145,51348,6,0,P|427:143|399:149,1,57.1999973815919,8|0,3:0|3:0,0:0:0:0:
405,301,51697,6,0,P|440:290|474:243,1,70.4,0|0,1:0|0:0,0:0:0:0:
322,144,52046,6,0,P|331:185|360:215,1,83.5999977676392,8|12,3:0|3:0,0:0:0:0:
480,35,52394,6,0,P|435:25|395:37,1,88,12|0,1:2|3:0,0:0:0:0:
238,146,52731,2,0,P|280:156|322:144,1,88,8|0,0:0|3:0,0:0:0:0:
156,43,53068,2,8,P|113:33|71:45,1,88,8|0,0:0|0:0,0:0:0:0:
168,190,53405,5,8,0:0:0:0:
116,121,53573,1,0,3:0:0:0:
128,268,53742,1,8,0:0:0:0:
250,185,53910,1,0,3:0:0:0:
86,195,54079,2,0,P|52:234|51:300,1,88,8|0,0:0|3:0,0:0:0:0:
220,259,54416,5,8,0:0:0:0:
156,43,54585,1,2,0:1:0:0:
128,268,54753,2,0,P|151:322|208:352,1,88,2|0,0:1|3:0,0:0:0:0:
250,185,55090,5,12,0:0:0:0:
116,121,55259,1,0,0:0:0:0:
220,259,55427,1,8,0:0:0:0:
280,111,55596,1,0,3:0:0:0:
384,249,55764,2,0,P|346:271|302:272,1,88,8|0,0:0|3:0,0:0:0:0:
245,38,56101,5,8,0:0:0:0:
351,150,56270,1,0,3:0:0:0:
200,122,56438,1,8,0:0:0:0:
339,56,56607,1,0,3:0:0:0:
264,191,56776,2,0,P|226:213|182:216,1,88,8|0,0:0|3:0,0:0:0:0:
160,35,57113,2,0,P|202:26|244:37,1,88,12|0,0:0|0:0,0:0:0:0:
351,150,57450,5,8,0:0:0:0:
379,158,57562,5,8,0:0:0:0:
408,157,57674,5,8,0:0:0:0:
435,147,57787,6,8,P|444:102|433:61,1,88,4|2,0:0|0:1,0:0:0:0:
273,110,58124,2,8,P|263:155|275:195,1,88,12|0,0:0|3:0,0:0:0:0:
315,33,58461,2,8,P|272:23|230:35,1,88,8|0,0:0|3:0,0:0:0:0:
89,190,58798,1,8,0:0:0:0:
174,184,58967,1,0,3:0:0:0:
39,117,59135,5,8,0:0:0:0:
48,269,59304,1,0,3:0:0:0:
174,184,59472,2,0,P|161:142|121:109,1,88,8|0,0:0|3:0,0:0:0:0:
0,196,59809,5,8,0:0:0:0:
218,260,59978,1,2,0:1:0:0:
169,39,60146,2,8,P|139:70|129:113,1,88,2|0,0:1|3:0,0:0:0:0:
305,241,60483,5,12,0:0:0:0:
271,90,60652,1,0,0:0:0:0:
218,260,60820,1,8,0:0:0:0:
331,156,60989,1,0,3:0:0:0:
279,326,61158,2,0,P|235:350|179:341,1,88,8|0,0:0|3:0,0:0:0:0:
244,175,61495,5,8,0:0:0:0:
365,306,61663,1,0,3:0:0:0:
271,90,61832,1,8,0:0:0:0:
218,260,62000,1,0,3:0:0:0:
391,221,62169,2,0,P|372:183|320:152,1,88,12|0,0:0|3:0,0:0:0:0:
132,280,62506,5,4,3:0:0:0:
139,300,62590,1,8,0:0:0:0:
151,318,62674,1,0,1:0:0:0:
167,333,62758,1,0,1:0:0:0:
186,343,62843,2,0,P|208:349|230:349,1,44,8|8,0:0|0:0,0:0:0:0:
261,254,63011,2,0,P|239:254|217:259,1,44,8|8,0:0|0:0,0:0:0:0:
311,326,63180,6,0,P|345:273|298:175,1,176,4|0,3:2|3:0,0:0:0:0:
217,153,63686,1,0,0:0:0:0:
131,177,63854,2,0,P|149:213|216:244,1,88,0|2,3:0|0:0,0:0:0:0:
152,90,64191,2,8,P|112:87|52:129,1,88,0|2,3:0|0:0,0:0:0:0:
217,153,64528,6,8,P|238:120|232:46,1,88,0|2,3:0|0:0,0:0:0:0:
127,10,64865,2,8,P|129:53|152:90,1,88,0|2,3:0|0:0,0:0:0:0:
298,135,65202,2,0,P|277:96|241:72,1,88,0|0,3:0|0:0,0:0:0:0:
135,170,65540,2,0,P|155:208|191:232,1,88,0|0,0:0|0:0,0:0:0:0:
331,281,65877,6,0,P|274:218|191:232,1,176,0|0,3:0|3:0,0:0:0:0:
246,300,66382,1,0,0:0:0:0:
305,365,66551,2,0,P|352:367|406:326,1,88,0|2,3:0|0:0,0:0:0:0:
358,201,66888,2,8,P|332:240|341:307,1,88,0|2,3:0|0:0,0:0:0:0:
445,182,67225,6,0,P|426:143|391:119,1,88,0|2,3:0|0:0,0:0:0:0:
220,148,67562,2,0,P|263:151|303:133,1,88,0|2,3:0|0:0,0:0:0:0:
287,50,67899,2,0,P|284:93|303:133,1,88,0|0,3:0|0:0,0:0:0:0:
391,119,68236,2,0,P|394:75|375:36,1,88,0|0,0:0|0:0,0:0:0:0:
198,64,68573,6,0,P|214:126|167:254,1,176,0|0,3:0|3:0,0:0:0:0:
120,292,69079,1,2,0:0:0:0:
36,257,69247,2,0,P|63:222|102:205,1,88,0|2,3:0|0:0,0:0:0:0:
203,326,69585,2,0,P|176:360|136:378,1,88,0|2,3:0|0:0,0:0:0:0:
185,231,69922,6,8,P|225:213|268:218,1,88,0|2,3:0|0:0,0:0:0:0:
368,371,70259,2,8,P|327:388|284:383,1,88,0|2,3:0|0:0,0:0:0:0:
366,219,70596,2,0,P|405:294|368:370,1,176,0|0,3:0|0:0,0:0:0:0:
315,296,71101,1,0,0:0:0:0:
471,204,71270,6,0,P|489:155|477:105,1,88,0|2,3:0|0:0,0:0:0:0:
335,96,71607,2,8,P|368:136|417:150,1,88,0|0,3:0|0:0,0:0:0:0:
497,33,71944,2,8,P|445:41|408:77,1,88,0|2,3:0|0:0,0:0:0:0:
382,234,72281,1,0,0:0:0:0:
471,204,72450,1,0,0:0:0:0:
311,172,72618,6,0,P|289:221|296:278,1,88,0|2,3:0|0:0,0:0:0:0:
404,316,72955,2,0,P|401:272|382:233,1,88,0|0,3:0|1:0,0:0:0:0:
225,325,73292,2,0,P|264:344|308:347,1,88,0|2,3:0|0:0,0:0:0:0:
200,187,73629,1,0,1:0:0:0:
200,187,73967,6,0,P|262:211|350:121,1,176,4|2,3:2|3:2,0:0:0:0:
329,62,74472,1,2,0:0:0:0:
260,121,74641,1,0,3:0:0:0:
413,211,74809,1,2,0:0:0:0:
344,152,74978,1,0,3:0:0:0:
329,242,75146,1,2,0:0:0:0:
428,121,75315,5,0,3:0:0:0:
260,183,75483,1,0,0:0:0:0:
398,301,75652,1,2,3:2:0:0:
344,152,75820,1,0,0:0:0:0:
241,273,75989,1,2,3:2:0:0:
329,242,76158,1,0,0:0:0:0:
172,214,76326,1,0,0:0:0:0:
222,363,76495,1,2,0:0:0:0:
260,183,76663,6,0,P|326:151|421:221,1,176,0|0,3:0|3:0,0:0:0:0:
310,334,77169,1,2,0:0:0:0:
242,273,77337,1,0,3:0:0:0:
328,245,77506,1,2,0:0:0:0:
224,362,77674,2,0,P|185:342|157:308,1,88,0|0,3:0|0:0,0:0:0:0:
185,126,78011,6,8,P|188:169|171:210,1,88,0|2,0:0|0:0,0:0:0:0:
0,277,78349,2,8,P|37:252|79:245,1,88,0|2,3:0|0:0,0:0:0:0:
238,263,78686,2,0,P|199:243|171:209,1,88,0|0,3:0|0:0,0:0:0:0:
338,199,79023,2,8,P|341:242|326:283,1,88,0|0,0:0|0:0,0:0:0:0:
271,145,79360,6,0,P|343:114|417:169,1,176,0|0,3:0|3:0,0:0:0:0:
257,231,79865,1,2,0:0:0:0:
355,367,80034,1,0,3:0:0:0:
338,199,80203,1,0,0:0:0:0:
203,299,80372,1,0,3:0:0:0:
369,281,80540,1,2,0:0:0:0:
271,145,80708,5,0,3:0:0:0:
288,312,80876,1,2,0:0:0:0:
424,213,81045,1,0,3:0:0:0:
257,231,81214,1,2,0:0:0:0:
355,367,81382,2,0,P|402:361|435:337,1,88,2|0,3:2|0:0,0:0:0:0:
438,127,81719,2,0,P|390:132|357:156,1,88,0|0,3:0|0:0,0:0:0:0:
288,312,82056,5,4,0:0:0:0:
424,213,82225,1,0,0:0:0:0:
271,145,82393,1,0,3:0:0:0:
369,281,82563,1,2,0:0:0:0:
322,73,82731,2,0,P|277:57|217:75,1,88,0|0,3:0|0:0,0:0:0:0:
220,217,83068,2,0,P|265:233|325:215,1,88,2|0,3:2|0:0,0:0:0:0:
185,134,83405,5,2,3:2:0:0:
211,302,83574,1,0,0:0:0:0:
272,145,83743,1,0,3:0:0:0:
107,172,83910,1,8,0:0:0:0:
107,172,83995,1,8,0:0:0:0:
107,172,84079,1,0,3:0:0:0:
238,63,84247,1,8,0:3:0:0:
290,268,84416,1,0,3:0:0:0:
185,134,84585,1,4,0:3:0:0:
132,336,84753,5,4,0:0:0:0:
300,182,84922,1,0,3:0:0:0:
82,113,85090,1,2,0:0:0:0:
211,302,85259,1,0,3:0:0:0:
309,96,85427,2,0,P|284:61|244:44,1,88,8|0,0:0|3:0,0:0:0:0:
143,251,85764,5,8,3:0:0:0:
369,234,85933,1,4,3:0:0:0:
153,166,86101,1,2,0:0:0:0:
202,384,86270,1,0,3:0:0:0:
300,182,86438,1,2,0:0:0:0:
74,199,86607,1,0,3:0:0:0:
369,234,86776,1,8,0:0:0:0:
241,46,86944,1,4,3:0:0:0:
290,268,87113,1,0,0:0:0:0:
320,12,87281,1,0,0:0:0:0:
359,320,87450,5,4,0:0:0:0:
309,97,87618,1,0,3:0:0:0:
211,302,87787,1,2,0:0:0:0:
379,148,87955,1,0,3:0:0:0:
161,79,88124,1,8,0:0:0:0:
290,268,88292,1,0,3:0:0:0:
241,46,88461,1,8,3:0:0:0:
211,302,88630,1,8,0:0:0:0:
379,148,88798,5,4,0:0:0:0:
153,165,88967,1,8,0:0:0:0:
145,186,89051,1,8,0:0:0:0:
142,207,89135,2,0,P|145:229|154:250,1,44,8|0,0:0|0:0,0:0:0:0:
290,268,89304,2,0,P|303:248|308:222,1,44,4|0,3:0|0:0,0:0:0:0:
229,85,89472,2,0,P|216:104|211:125,1,44,8|0,0:0|0:0,0:0:0:0:
379,148,89641,2,0,P|377:127|368:107,1,44,8|0,0:0|0:0,0:0:0:0:
226,4,89809,2,8,P|185:18|157:52,1,88,4|8,0:0|1:2,0:0:0:0:
219,208,90062,1,8,1:2:0:0:
219,208,90146,6,0,P|227:165|211:124,1,88,4|0,0:0|0:0,0:0:0:0:
14,139,90483,2,0,P|5:181|21:222,1,88,8|0,0:0|0:0,0:0:0:0:
230,296,90820,2,8,P|271:282|299:248,1,88,2|0,0:0|0:0,0:0:0:0:
201,36,91158,1,0,3:0:0:0:
148,261,91326,1,8,0:0:0:0:
369,194,91495,6,0,P|412:189|451:209,1,88,2|0,3:2|0:0,0:0:0:0:
258,373,91832,2,0,P|214:377|175:357,1,88,8|0,0:0|0:0,0:0:0:0:
175,164,92169,1,0,3:0:0:0:
369,194,92337,1,8,0:0:0:0:
148,261,92506,1,0,3:0:0:0:
287,55,92674,1,8,0:0:0:0:
396,278,92843,6,0,P|352:282|313:263,1,88,2|0,0:0|0:0,0:0:0:0:
175,163,93180,2,0,P|214:143|258:149,1,88,8|0,0:0|0:0,0:0:0:0:
369,194,93517,2,0,P|412:198|451:178,1,88,0|0,3:0|0:0,0:0:0:0:
231,65,93854,2,0,P|191:45|148:49,1,88,0|8,3:0|0:0,0:0:0:0:
242,231,94191,6,0,P|261:191|257:148,1,88,2|0,0:0|0:0,0:0:0:0:
70,23,94528,2,0,P|65:66|85:105,1,88,8|0,0:0|0:0,0:0:0:0:
317,84,94865,1,0,3:0:0:0:
148,49,95034,1,0,0:0:0:0:
241,231,95202,2,0,P|281:250|324:246,1,88,0|0,3:0|0:0,0:0:0:0:
422,192,95455,1,8,0:3:0:0:
422,192,95540,6,0,P|402:231|407:275,1,88,4|0,0:0|0:0,0:0:0:0:
226,313,95877,2,0,P|245:273|241:230,1,88,8|0,0:0|0:0,0:0:0:0:
144,175,96214,2,0,P|140:218|160:258,1,88,0|0,3:0|0:0,0:0:0:0:
324,246,96551,2,0,P|343:206|339:163,1,88,0|8,3:0|0:0,0:0:0:0:
74,44,96888,6,0,P|74:129|144:175,1,176,2|8,0:0|0:0,0:0:0:0:
152,87,97393,1,0,0:0:0:0:
8,191,97562,1,0,3:0:0:0:
170,263,97731,1,8,0:0:0:0:
80,139,97899,1,0,3:0:0:0:
98,315,98068,1,8,0:0:0:0:
233,123,98236,6,0,P|240:73|223:32,1,88,2|0,0:0|0:0,0:0:0:0:
69,55,98573,2,0,P|64:98|80:139,1,88,8|0,0:0|0:0,0:0:0:0:
236,237,98910,2,0,P|241:281|227:322,1,88,0|0,3:0|0:0,0:0:0:0:
74,305,99247,2,0,P|65:262|80:221,1,88,0|8,3:0|0:0,0:0:0:0:
346,117,99585,6,0,P|386:192|346:265,1,176,2|0,0:0|3:0,0:0:0:0:
299,192,100090,1,8,0:3:0:0:
385,44,100259,1,0,3:0:0:0:
471,192,100427,1,0,0:0:0:0:
346,117,100596,1,0,3:0:0:0:
473,47,100764,1,8,0:0:0:0:
385,192,100933,6,0,P|343:202|302:190,1,88,4|0,0:0|0:0,0:0:0:0:
385,44,101270,1,8,0:0:0:0:
471,192,101438,2,8,P|461:235|431:266,1,88,0|0,0:0|0:0,0:0:0:0:
346,117,101776,1,0,0:0:0:0:
473,47,101944,1,0,3:0:0:0:
291,50,102113,1,8,0:0:0:0:
262,271,102281,6,0,B|179:308|177:245|91:274,1,176,4|8,0:0|0:0,0:0:0:0:
217,200,102787,1,0,0:0:0:0:
345,264,102955,1,0,3:0:0:0:
255,125,103124,1,8,0:0:0:0:
133,203,103292,1,0,3:0:0:0:
209,54,103461,1,8,0:0:0:0:
301,195,103629,6,0,P|329:163|338:120,1,88,2|0,0:0|0:0,0:0:0:0:
172,129,103967,1,8,0:0:0:0:
262,271,104135,2,0,P|304:279|345:265,1,88,2|0,0:0|3:0,0:0:0:0:
255,125,104472,1,0,0:0:0:0:
94,277,104641,1,0,3:0:0:0:
126,58,104809,1,8,0:0:0:0:
262,271,104978,6,0,P|304:279|345:265,1,88,4|0,0:0|0:0,0:0:0:0:
291,50,105315,2,0,P|249:42|208:56,1,88,8|0,0:0|0:0,0:0:0:0:
94,277,105652,2,0,P|136:285|177:271,1,88,0|0,3:0|0:0,0:0:0:0:
126,58,105989,1,0,3:0:0:0:
0,192,106158,1,0,0:0:0:0:
255,125,106326,6,8,P|297:120|337:138,1,88,4|0,0:0|0:0,0:0:0:0:
313,291,106663,1,8,0:0:0:0:
170,342,106832,2,8,P|144:308|140:264,1,88,0|0,0:0|3:0,0:0:0:0:
284,208,107169,1,0,0:0:0:0:
342,374,107337,1,0,3:0:0:0:
456,240,107506,1,8,0:0:0:0:
255,125,107674,6,8,P|217:151|197:212,1,88,2|0,3:2|0:0,0:0:0:0:
370,224,108011,1,8,0:0:0:0:
312,58,108180,2,8,P|270:38|207:51,1,88,0|0,0:0|3:0,0:0:0:0:
284,208,108517,1,8,0:0:0:0:
398,74,108686,1,0,3:0:0:0:
255,125,108854,1,8,0:0:0:0:
456,240,109023,6,0,P|451:192|422:154,1,88,4|0,0:0|0:0,0:0:0:0:
312,58,109360,1,8,0:0:0:0:
317,289,109528,2,8,P|352:263|369:223,1,88,2|0,0:0|3:0,0:0:0:0:
226,42,109865,1,0,0:0:0:0:
226,274,110034,1,0,3:0:0:0:
312,58,110202,1,8,0:0:0:0:
198,192,110371,5,4,0:0:0:0:
140,26,110540,1,0,0:0:0:0:
284,208,110708,1,0,3:0:0:0:
226,42,110877,1,8,0:3:0:0:
140,259,111045,2,0,P|119:256|99:248,1,44,0|8,3:0|0:3,0:0:0:0:
127,97,111214,2,0,P|148:99|168:107,1,44,4|8,0:3|0:3,0:0:0:0:
313,291,111382,1,0,3:0:0:0:
226,42,111551,1,8,0:0:0:0:
255,357,111719,5,4,0:0:0:0:
337,138,111888,1,0,0:0:0:0:
140,259,112056,1,8,0:0:0:0:
370,223,112225,2,0,P|405:198|425:159,1,88,0|0,3:0|0:0,0:0:0:0:
226,42,112562,1,0,3:0:0:0:
313,291,112731,1,2,0:0:0:0:
312,58,112899,1,8,0:0:0:0:
140,259,113068,5,0,3:0:0:0:
337,138,113236,2,0,P|301:142|261:121,1,44,2|8,0:0|0:0,0:0:0:0:
226,42,113405,2,0,P|227:73|247:117,1,44,8|0,0:0|0:0,0:0:0:0:
313,291,113573,5,4,3:2:0:0:
313,291,114416,6,0,P|273:273|230:277,1,88,12|0,1:2|3:0,0:0:0:0:
94,309,114753,2,0,P|129:283|147:244,1,88,8|0,0:0|3:0,0:0:0:0:
187,109,115090,2,0,P|191:152|216:187,1,88,8|0,0:0|3:0,0:0:0:0:
361,131,115427,5,8,0:0:0:0:
274,120,115596,1,0,3:0:0:0:
394,211,115764,1,8,0:0:0:0:
328,51,115933,1,0,3:0:0:0:
220,189,116101,2,0,P|233:248|264:278,1,88,8|0,0:0|3:0,0:0:0:0:
394,211,116438,5,8,0:0:0:0:
187,109,116607,1,2,0:1:0:0:
203,339,116776,2,0,P|244:352|286:344,1,88,2|0,0:1|3:0,0:0:0:0:
274,120,117113,5,12,0:0:0:0:
133,178,117281,1,0,0:0:0:0:
241,40,117450,1,8,0:0:0:0:
307,200,117618,1,0,3:0:0:0:
410,62,117787,2,0,P|371:44|328:50,1,88,8|0,0:0|3:0,0:0:0:0:
254,267,118124,5,8,0:0:0:0:
392,211,118292,1,0,3:0:0:0:
274,120,118461,1,8,0:0:0:0:
341,278,118629,1,2,0:1:0:0:
448,142,118798,2,0,P|439:91|406:57,1,88,8|0,0:0|3:0,0:0:0:0:
187,109,119135,2,0,P|196:160|229:194,1,88,8|2,0:0|0:1,0:0:0:0:
392,211,119472,5,8,0:0:0:0:
366,198,119585,5,8,0:0:0:0:
337,193,119697,5,8,0:0:0:0:
309,200,119809,6,0,P|282:234|277:277,1,88,4|2,0:0|0:1,0:0:0:0:
474,221,120146,2,0,P|469:178|443:144,1,88,12|0,0:0|3:0,0:0:0:0:
277,122,120483,2,0,P|282:165|308:199,1,88,8|0,0:0|3:0,0:0:0:0:
328,51,120820,5,8,0:0:0:0:
189,113,120989,1,0,3:0:0:0:
364,131,121158,1,8,0:0:0:0:
241,42,121326,1,0,3:0:0:0:
415,60,121495,2,0,P|448:104|446:159,1,88,8|2,0:0|0:0,0:0:0:0:
277,277,121832,5,8,0:0:0:0:
328,51,122000,1,2,0:1:0:0:
364,286,122169,2,0,P|342:336|293:362,1,88,2|0,0:1|3:0,0:0:0:0:
241,197,122506,6,0,P|295:190|342:219,1,88,12|0,0:0|0:0,0:0:0:0:
226,349,122843,2,0,P|192:305|194:249,1,88,8|0,0:0|3:0,0:0:0:0:
286,35,123180,2,0,P|319:79|317:134,1,88,8|0,0:0|3:0,0:0:0:0:
149,191,123517,1,8,0:0:0:0:
234,108,123686,1,2,0:1:0:0:
189,273,123854,5,4,0:3:0:0:
109,109,124023,1,8,0:3:0:0:
136,347,124191,2,0,P|155:359|177:363,1,44,8|8,0:0|0:0,0:0:0:0:
229,258,124360,2,0,P|207:262|188:273,1,44,8|0,0:0|0:0,0:0:0:0:
275,347,124528,2,0,P|293:358|315:362,1,44,8|8,0:3|0:0,0:0:0:0:
367,256,124697,2,0,P|345:260|326:271,1,44,10|8,0:0|0:0,0:0:0:0:
413,346,124865,1,2,3:1:0:0:
413,166,125034,5,12,0:0:0:0:
