osu file format v14

[General]
AudioFilename: audio.mp3
AudioLeadIn: 0
PreviewTime: 90275
Countdown: 0
SampleSet: None
StackLeniency: 0.7
Mode: 3
LetterboxInBreaks: 0
SpecialStyle: 0
WidescreenStoryboard: 1

[Editor]
Bookmarks: 74096,84882,90275,101062
DistanceSpacing: 1
BeatDivisor: 4
GridSize: 4
TimelineZoom: 1.6

[Metadata]
Title:Yume Tourou
TitleUnicode:夢灯籠
Artist:RADWIMPS
ArtistUnicode:RADWIMPS
Creator:Mat
Version:Easy
Source:君の名は。
Tags:kimi no na wa your name laughingcomet snexe
BeatmapID:1462571
BeatmapSetID:518660

[Difficulty]
HPDrainRate:7
CircleSize:4
OverallDifficulty:7.2
ApproachRate:5
SliderMultiplier:1.4
SliderTickRate:1

[Events]
//Background and Video events
0,0,"YourNameBG.png",0,0
//Break Periods
//Storyboard Layer 0 (Background)
//Storyboard Layer 1 (Fail)
//Storyboard Layer 2 (Pass)
//Storyboard Layer 3 (Foreground)
//Storyboard Sound Samples
Sample,89433,0,"soft-hitfinish3.wav",50
Sample,89938,0,"soft-hitfinish3.wav",50

[TimingPoints]
24617,348.837209302326,4,3,3,15,1,0
24617,-97.0873786407767,4,3,3,15,0,0
52186,337.078651685393,4,3,3,40,1,0
52186,-100,4,3,3,40,0,0
52523,337.078651685393,4,3,3,50,1,0
52523,-100,4,3,3,50,0,1
63309,-100,4,3,3,30,0,0
84882,-100,4,3,3,50,0,0
90275,-100,4,3,3,40,0,1
113702,-100,4,3,3,40,0,0
114545,-100,4,3,3,50,0,1
125163,-100,4,3,3,50,0,0

[HitObjects]
64,192,24617,5,0,0:0:0:0:
448,192,24617,1,0,0:0:0:0:
192,192,24965,1,0,0:0:0:0:
320,192,25140,1,0,0:0:0:0:
448,192,25663,1,0,0:0:0:0:
64,192,26012,1,0,0:0:0:0:
320,192,26012,1,0,0:0:0:0:
192,192,26361,1,0,0:0:0:0:
448,192,26535,1,0,0:0:0:0:
320,192,27058,1,0,0:0:0:0:
64,192,27407,1,0,0:0:0:0:
192,192,27407,1,0,0:0:0:0:
320,192,27756,1,0,0:0:0:0:
448,192,27930,1,0,0:0:0:0:
192,192,28454,1,0,0:0:0:0:
448,192,28803,1,0,0:0:0:0:
320,192,28803,1,0,0:0:0:0:
64,192,29151,1,0,0:0:0:0:
448,192,29326,1,0,0:0:0:0:
192,192,29500,1,0,0:0:0:0:
320,192,29675,1,0,0:0:0:0:
192,192,29849,1,0,0:0:0:0:
448,192,30198,1,0,0:0:0:0:
64,192,30198,1,0,0:0:0:0:
192,192,30372,1,0,0:0:0:0:
320,192,30547,1,0,0:0:0:0:
448,192,30721,1,0,0:0:0:0:
192,192,31070,1,0,0:0:0:0:
64,192,31244,1,0,0:0:0:0:
448,192,31593,1,0,0:0:0:0:
192,192,31593,1,0,0:0:0:0:
64,192,31942,1,0,0:0:0:0:
192,192,32117,1,0,0:0:0:0:
448,192,32291,1,0,0:0:0:0:
320,192,32465,1,0,0:0:0:0:
192,192,32640,1,0,0:0:0:0:
448,192,32989,1,0,0:0:0:0:
320,192,32989,1,0,0:0:0:0:
64,192,33337,1,0,0:0:0:0:
320,192,33512,1,0,0:0:0:0:
448,192,34035,1,0,0:0:0:0:
320,192,34210,1,0,0:0:0:0:
64,192,34384,1,0,0:0:0:0:
192,192,34384,1,0,0:0:0:0:
320,192,34558,1,0,0:0:0:0:
448,192,34733,1,0,0:0:0:0:
320,192,34907,1,0,0:0:0:0:
192,192,35082,1,0,0:0:0:0:
64,192,35256,1,0,0:0:0:0:
320,192,35430,1,0,0:0:0:0:
448,192,35779,1,0,0:0:0:0:
64,192,35779,1,0,0:0:0:0:
192,192,36128,1,0,0:0:0:0:
320,192,36303,1,0,0:0:0:0:
448,192,36651,1,0,0:0:0:0:
64,192,36826,1,0,0:0:0:0:
192,192,37175,1,0,0:0:0:0:
320,192,37175,1,0,0:0:0:0:
64,192,37349,1,0,0:0:0:0:
448,192,37523,1,0,0:0:0:0:
192,192,37698,1,0,0:0:0:0:
320,192,38221,1,0,0:0:0:0:
64,192,38570,1,0,0:0:0:0:
448,192,38570,1,0,0:0:0:0:
192,192,38919,1,0,0:0:0:0:
448,192,39093,1,0,0:0:0:0:
64,192,39617,1,0,0:0:0:0:
320,192,39965,1,0,0:0:0:0:
448,192,39965,1,0,0:0:0:0:
64,192,40314,1,2,3:0:0:0:
192,192,40489,1,2,3:0:0:0:
320,192,40663,1,0,0:0:0:0:
448,192,41012,1,0,0:0:0:0:
320,192,41186,1,0,0:0:0:0:
192,192,41361,1,2,0:0:0:0:
64,192,41710,1,2,2:0:0:0:
448,192,41884,1,2,0:0:0:0:
64,192,42407,1,2,2:0:0:0:
192,192,42582,1,0,0:0:0:0:
448,192,42756,1,0,0:0:0:0:
64,192,43105,1,2,2:0:0:0:
448,192,43279,1,0,0:0:0:0:
320,192,43454,1,0,0:0:0:0:
64,192,43803,1,2,2:0:0:0:
320,192,44151,1,2,0:0:0:0:
448,192,44500,1,2,2:0:0:0:
192,192,44675,1,2,0:0:0:0:
64,192,45198,1,2,2:0:0:0:
320,192,45372,1,2,2:0:0:0:
192,192,45547,1,0,0:0:0:0:
448,192,45721,1,0,0:0:0:0:
64,192,45896,1,2,2:0:0:0:
192,192,46070,1,0,0:0:0:0:
448,192,46244,1,0,0:0:0:0:
320,192,46419,1,2,2:0:0:0:
192,192,46593,1,0,0:0:0:0:
64,192,46768,1,2,2:0:0:0:
448,192,46942,1,2,0:0:0:0:
64,192,47291,1,2,2:0:0:0:
320,192,47465,1,2,0:0:0:0:
64,192,47989,1,2,2:0:0:0:
192,192,48163,1,0,0:0:0:0:
320,192,48337,1,0,0:0:0:0:
192,192,48686,1,2,2:0:0:0:
64,192,48861,1,0,0:0:0:0:
448,192,49035,1,0,0:0:0:0:
192,192,49210,1,2,2:0:0:0:
320,192,49384,1,2,2:0:0:0:
448,192,49733,1,2,0:0:0:0:
64,192,50082,1,2,2:0:0:0:
320,192,50256,1,2,0:0:0:0:
192,192,50430,1,0,0:0:0:0:
448,192,50779,1,2,2:0:0:0:
320,192,51128,1,2,0:0:0:0:
64,192,51477,1,2,2:0:0:0:
448,192,51651,1,2,0:0:0:0:
192,192,51826,1,8,0:0:0:0:
448,192,52186,1,2,0:0:0:0:
320,192,52354,1,8,0:0:0:0:
64,192,52523,1,10,0:0:0:0:
192,192,52523,1,4,0:0:0:0:
320,192,52691,1,2,0:0:0:0:
448,192,52860,1,8,0:0:0:0:
64,192,53028,1,2,0:0:0:0:
192,192,53197,1,8,0:0:0:0:
448,192,53365,1,0,0:0:0:0:
320,192,53534,1,8,0:0:0:0:
192,192,53702,1,2,0:0:0:0:
448,192,53871,1,8,0:0:0:0:
64,192,54039,1,0,0:0:0:0:
448,192,54208,1,8,0:0:0:0:
320,192,54376,1,0,0:0:0:0:
192,192,54545,1,8,0:0:0:0:
448,192,54714,1,0,0:0:0:70:normal-hitwhistle5.wav
448,192,54882,1,0,0:0:0:70:normal-hitwhistle5.wav
64,192,55051,1,2,0:0:0:0:
192,192,55219,128,8,55556:0:0:0:0:
448,192,55556,1,8,0:0:0:0:
64,192,55725,1,2,0:0:0:0:
320,192,55893,1,8,0:0:0:0:
448,192,56062,1,2,0:0:0:0:
320,192,56230,1,8,0:0:0:0:
192,192,56399,1,2,0:0:0:0:
64,192,56567,1,8,0:0:0:0:
448,192,56736,1,2,0:0:0:0:
320,192,56905,1,8,0:0:0:0:
192,192,57073,1,2,0:0:0:0:
320,192,57242,1,8,0:0:0:0:
64,192,57410,1,0,0:0:0:0:
192,192,57579,1,8,0:0:0:0:
448,192,57747,1,8,0:0:0:0:
320,192,57916,1,8,0:0:0:0:
192,192,58084,1,0,0:0:0:0:
64,192,58253,1,8,0:0:0:0:
448,192,58421,1,2,0:0:0:0:
320,192,58590,1,8,0:0:0:0:
64,192,58758,1,2,0:0:0:0:
192,192,58927,1,8,0:0:0:0:
320,192,59096,1,2,0:0:0:0:
64,192,59264,1,8,0:0:0:0:
448,192,59433,1,2,0:0:0:0:
64,192,59601,1,8,0:0:0:0:
192,192,59770,1,0,0:0:0:0:
320,192,59938,1,8,0:0:0:0:
64,192,60107,1,0,0:0:0:70:normal-hitwhistle5.wav
64,192,60275,1,0,0:0:0:70:normal-hitwhistle5.wav
448,192,60444,1,2,0:0:0:0:
320,192,60612,128,8,60949:0:0:0:0:
64,192,60949,1,8,0:0:0:0:
448,192,61118,1,2,0:0:0:0:
192,192,61287,1,8,0:0:0:0:
64,192,61455,1,2,0:0:0:0:
192,192,61624,1,8,0:0:0:0:
320,192,61792,1,2,0:0:0:0:
448,192,61961,1,8,0:0:0:0:
64,192,62129,1,2,0:0:0:0:
192,192,62298,1,8,0:0:0:0:
320,192,62466,1,2,0:0:0:0:
192,192,62635,1,2,0:0:0:0:
448,192,62803,1,8,0:0:0:0:
320,192,62972,1,10,0:0:0:0:
64,192,63140,1,8,0:0:0:0:
192,192,63309,1,2,0:0:0:0:
192,192,63646,1,2,0:0:0:0:
192,192,63983,1,2,0:0:0:0:
192,192,64320,1,2,0:0:0:0:
448,192,64489,1,0,0:0:0:0:
320,192,64657,1,2,0:0:0:0:
320,192,64994,1,2,0:0:0:0:
320,192,65331,1,2,0:0:0:0:
320,192,65669,1,2,0:0:0:0:
64,192,65837,1,0,0:0:0:0:
192,192,66006,1,2,0:0:0:0:
192,192,66343,1,2,0:0:0:0:
192,192,66680,1,2,0:0:0:0:
192,192,67017,1,2,0:0:0:0:
320,192,67185,1,0,0:0:0:0:
448,192,67354,1,2,0:0:0:0:
448,192,67691,1,2,0:0:0:0:
448,192,68028,1,2,0:0:0:0:
448,192,68365,1,2,0:0:0:0:
192,192,68534,1,0,0:0:0:0:
64,192,68702,1,2,0:0:0:0:
64,192,69039,1,2,0:0:0:0:
64,192,69376,1,2,0:0:0:0:
64,192,69714,1,2,0:0:0:0:
192,192,69882,1,0,0:0:0:0:
320,192,70051,1,2,0:0:0:0:
320,192,70388,1,2,0:0:0:0:
320,192,70725,1,2,0:0:0:0:
320,192,71062,1,2,0:0:0:0:
448,192,71230,1,0,0:0:0:0:
64,192,71399,1,2,0:0:0:0:
64,192,71736,1,2,0:0:0:0:
64,192,72073,1,2,0:0:0:0:
64,192,72410,1,2,0:0:0:0:
192,192,72579,1,0,0:0:0:0:
448,192,72747,1,2,0:0:0:0:
448,192,73084,1,2,0:0:0:0:
448,192,73421,1,2,0:0:0:0:
448,192,73758,1,2,0:0:0:0:
320,192,73927,1,0,0:0:0:0:
64,192,74096,128,2,74433:0:0:0:0:
192,192,74433,1,2,0:0:0:0:
320,192,74601,128,0,74938:0:0:0:0:
448,192,74938,128,0,75275:0:0:0:0:
192,192,75275,128,0,75612:0:0:0:0:
64,192,75612,1,0,0:0:0:0:
320,192,75781,1,2,0:0:0:0:
64,192,75949,1,0,0:0:0:0:
448,192,76118,1,2,0:0:0:0:
64,192,76287,1,0,0:0:0:0:
320,192,76455,1,2,0:0:0:0:
192,192,76624,1,0,0:0:0:0:
64,192,76792,128,2,77129:0:0:0:0:
320,192,77129,1,2,0:0:0:0:
192,192,77298,128,0,77635:0:0:0:0:
448,192,77635,128,0,77972:0:0:0:0:
320,192,77972,128,0,78309:0:0:0:0:
64,192,78309,128,0,78646:0:0:0:0:
448,192,78646,1,0,0:0:0:0:
320,192,78815,1,2,0:0:0:0:
192,192,78983,1,0,0:0:0:0:
64,192,79152,1,2,0:0:0:0:
192,192,79320,1,0,0:0:0:0:
448,192,79489,128,2,79826:0:0:0:0:
64,192,79826,1,2,0:0:0:0:
192,192,79994,128,0,80331:0:0:0:0:
64,192,80331,128,0,80669:0:0:0:0:
320,192,80669,128,0,81006:0:0:0:0:
448,192,81006,1,0,0:0:0:0:
192,192,81174,1,2,0:0:0:0:
448,192,81343,1,0,0:0:0:0:
64,192,81511,1,2,0:0:0:0:
320,192,81680,1,0,0:0:0:0:
448,192,81848,1,2,0:0:0:0:
64,192,82017,1,0,0:0:0:0:
192,192,82185,1,2,0:0:0:0:
448,192,82185,128,0,83534:0:0:0:0:
192,192,82522,1,2,0:0:0:0:
192,192,82860,1,2,0:0:0:0:
192,192,83197,1,2,0:0:0:0:
320,192,83534,1,2,0:0:0:0:
64,192,83534,128,0,84882:0:0:0:0:
320,192,83871,1,2,0:0:0:0:
320,192,84208,1,2,0:0:0:0:
320,192,84545,1,2,0:0:0:0:
448,192,84882,1,6,0:0:0:0:
192,192,85051,1,2,0:0:0:0:
448,192,85219,1,4,2:0:0:0:
192,192,85388,1,2,0:0:0:0:
448,192,85556,1,8,0:0:0:0:
192,192,85725,1,2,0:0:0:0:
64,192,85893,1,4,2:0:0:0:
320,192,86062,1,2,0:0:0:0:
448,192,86230,1,4,2:0:0:0:
192,192,86399,1,2,0:0:0:0:
64,192,86567,1,2,0:0:0:0:
448,192,86736,1,4,2:0:0:0:
64,192,86905,1,8,0:0:0:0:
320,192,87073,1,2,0:0:0:0:
64,192,87242,1,0,0:0:0:0:
192,192,87410,1,0,0:0:0:0:
320,192,87579,1,6,0:0:0:0:
64,192,87747,1,2,0:0:0:0:
448,192,87916,1,4,2:0:0:0:
64,192,88084,1,2,0:0:0:0:
448,192,88253,1,8,0:0:0:0:
320,192,88421,1,2,0:0:0:0:
192,192,88590,1,4,2:0:0:0:
64,192,88758,1,8,0:0:0:0:
448,192,88927,1,2,0:0:0:0:
320,192,89096,5,8,0:0:0:0:
64,192,89264,5,8,0:0:0:0:
192,192,89433,1,2,0:0:0:0:
448,192,89433,128,0,90275:0:0:0:0:
192,192,89938,1,2,0:0:0:0:
64,192,90275,1,6,0:0:0:0:
192,192,90612,1,2,0:0:0:0:
320,192,90949,1,2,0:0:0:0:
64,192,91287,1,2,0:0:0:0:
192,192,91455,1,8,0:0:0:0:
448,192,91624,1,2,0:0:0:0:
320,192,91961,1,2,0:0:0:0:
64,192,92298,1,2,0:0:0:0:
192,192,92466,1,8,0:0:0:0:
448,192,92635,1,2,0:0:0:0:
320,192,92803,1,8,0:0:0:0:
64,192,92972,1,2,0:0:0:0:
192,192,93309,1,10,0:0:0:0:
320,192,93646,1,2,0:0:0:0:
64,192,93983,1,2,0:0:0:0:
192,192,94152,1,8,0:0:0:0:
448,192,94320,1,2,0:0:0:0:
320,192,94657,1,8,0:0:0:0:
192,192,94826,1,0,0:0:0:100:LR_Tom Hit 2.wav
64,192,94994,1,2,0:0:0:0:
320,192,95331,1,2,0:0:0:0:
448,192,95331,1,0,0:0:0:100:LR_Tom Hit 3.wav
448,192,95669,1,4,0:0:0:0:
64,192,95669,1,2,0:0:0:0:
192,192,96006,1,10,0:0:0:0:
448,192,96343,1,2,0:0:0:0:
64,192,96680,1,2,0:0:0:0:
192,192,96848,1,8,0:0:0:0:
320,192,97017,1,2,0:0:0:0:
448,192,97354,1,10,0:0:0:0:
320,192,97691,1,2,0:0:0:0:
192,192,97860,1,8,0:0:0:0:
64,192,98028,1,2,0:0:0:0:
320,192,98197,1,8,0:0:0:0:
448,192,98365,1,2,0:0:0:0:
64,192,98702,1,10,0:0:0:0:
320,192,99039,1,2,0:0:0:0:
448,192,99376,1,2,0:0:0:0:
320,192,99545,1,8,0:0:0:0:
192,192,99714,1,2,0:0:0:0:
448,192,100051,1,0,0:0:0:100:LR_Tom Hit 3.wav
64,192,100051,1,2,0:0:0:0:
64,192,100388,1,2,0:0:0:0:
192,192,100556,1,0,0:0:0:100:LR_Tom Hit 3.wav
320,192,100725,1,2,0:0:0:0:
448,192,100725,1,0,0:0:0:100:LR_Tom Hit 3.wav
192,192,100893,1,12,0:0:0:0:
64,192,101062,1,2,0:0:0:0:
448,192,101062,1,0,0:0:0:0:
320,192,101399,1,10,0:0:0:0:
192,192,101736,1,2,0:0:0:0:
448,192,102073,1,2,0:0:0:0:
320,192,102242,1,8,0:0:0:0:
64,192,102410,1,2,0:0:0:0:
320,192,102747,1,10,0:0:0:0:
448,192,103084,1,2,0:0:0:0:
64,192,103253,1,8,0:0:0:0:
320,192,103421,1,2,0:0:0:0:
64,192,103590,1,8,0:0:0:0:
448,192,103758,1,2,0:0:0:0:
320,192,104096,1,10,0:0:0:0:
64,192,104433,1,2,0:0:0:0:
192,192,104770,1,2,0:0:0:0:
320,192,104938,1,8,0:0:0:0:
448,192,105107,1,2,0:0:0:0:
64,192,105444,1,2,0:0:0:0:
192,192,105444,1,8,0:0:0:0:
320,192,105781,1,2,0:0:0:0:
448,192,105781,1,0,0:0:0:100:LR_Tom Hit 2.wav
64,192,106118,1,2,0:0:0:0:
192,192,106118,1,0,0:0:0:75:LR_Tom Hit 3.wav
64,192,106455,1,2,0:0:0:0:
448,192,106455,1,4,0:0:0:0:
192,192,106792,1,10,0:0:0:0:
448,192,107129,1,2,0:0:0:0:
192,192,107466,1,2,0:0:0:0:
320,192,107635,1,8,0:0:0:0:
64,192,107803,1,2,0:0:0:0:
448,192,108140,1,10,0:0:0:0:
64,192,108478,1,2,0:0:0:0:
192,192,108646,1,8,0:0:0:0:
448,192,108815,1,2,0:0:0:0:
320,192,108983,1,8,0:0:0:0:
64,192,109152,1,2,0:0:0:0:
192,192,109489,1,10,0:0:0:0:
448,192,109826,1,2,0:0:0:0:
320,192,110163,1,2,0:0:0:0:
192,192,110331,1,8,0:0:0:0:
64,192,110500,1,2,0:0:0:0:
448,192,110500,1,0,0:0:0:50:LR_Tom Hit 2.wav
320,192,110837,5,0,0:0:0:100:LR_Tom Hit 2.wav
192,192,110837,1,2,0:0:0:0:
448,192,111174,1,0,0:0:0:100:LR_Tom Hit 3.wav
64,192,111174,1,2,0:0:0:0:
192,192,111511,1,2,0:0:0:0:
320,192,111680,1,8,0:0:0:0:
64,192,111848,5,2,0:0:0:0:
448,192,111848,1,4,0:0:0:0:
192,192,112185,1,0,0:0:0:0:
320,192,112185,1,8,0:0:0:0:
448,192,112354,1,2,0:0:0:0:
192,192,112691,1,2,0:0:0:0:
64,192,112860,1,4,2:0:0:0:
448,192,113197,1,2,0:0:0:0:
64,192,113534,1,8,0:0:0:0:
192,192,113534,1,0,0:0:0:0:
320,192,113702,1,2,0:0:0:0:
448,192,113702,1,4,0:0:0:0:
192,192,114545,1,4,0:0:0:0:
64,192,114545,1,8,0:0:0:0:
320,192,114714,1,2,0:0:0:0:
64,192,114882,1,8,0:0:0:0:
448,192,115051,1,2,0:0:0:0:
320,192,115219,1,8,0:0:0:0:
64,192,115388,1,2,0:0:0:0:
192,192,115556,1,8,0:0:0:0:
320,192,115725,1,2,0:0:0:0:
64,192,115893,1,8,0:0:0:0:
448,192,116062,1,2,0:0:0:0:
64,192,116230,1,8,0:0:0:0:
192,192,116399,1,0,0:0:0:0:
320,192,116567,1,8,0:0:0:0:
64,192,116736,1,0,0:0:0:70:normal-hitwhistle5.wav
64,192,116905,1,0,0:0:0:70:normal-hitwhistle5.wav
320,192,117073,1,2,0:0:0:0:
448,192,117242,128,8,117579:0:0:0:0:
64,192,117579,1,8,0:0:0:0:
320,192,117747,1,2,0:0:0:0:
192,192,117916,1,8,0:0:0:0:
64,192,118084,1,2,0:0:0:0:
192,192,118253,1,8,0:0:0:0:
320,192,118421,1,2,0:0:0:0:
448,192,118590,1,8,0:0:0:0:
64,192,118758,1,0,0:0:0:0:
192,192,118927,1,8,0:0:0:0:
320,192,119096,1,2,0:0:0:0:
192,192,119264,1,8,0:0:0:0:
448,192,119433,1,0,0:0:0:0:
320,192,119601,1,8,0:0:0:0:
64,192,119770,1,8,0:0:0:0:
192,192,119938,1,2,0:0:0:0:
320,192,120107,1,0,0:0:0:0:
448,192,120275,1,8,0:0:0:0:
64,192,120444,1,2,0:0:0:0:
192,192,120612,1,8,0:0:0:0:
448,192,120781,1,2,0:0:0:0:
320,192,120949,1,8,0:0:0:0:
192,192,121118,1,2,0:0:0:0:
448,192,121287,1,8,0:0:0:0:
64,192,121455,1,2,0:0:0:0:
448,192,121624,1,8,0:0:0:0:
320,192,121792,1,0,0:0:0:0:
192,192,121961,1,8,0:0:0:0:
448,192,122129,1,0,0:0:0:70:normal-hitwhistle5.wav
448,192,122298,1,0,0:0:0:70:normal-hitwhistle5.wav
192,192,122466,1,2,0:0:0:0:
64,192,122635,128,8,122972:0:0:0:0:
448,192,122972,1,8,0:0:0:0:
320,192,123140,1,2,0:0:0:0:
192,192,123309,1,8,0:0:0:0:
64,192,123478,1,2,0:0:0:0:
320,192,123646,1,8,0:0:0:0:
448,192,123815,1,0,0:0:0:25:LR_Tom Hit 2.wav
64,192,123983,5,2,0:0:0:0:
320,192,124152,1,0,0:0:0:100:LR_Tom Hit 2.wav
192,192,124320,1,2,0:0:0:0:
64,192,124489,1,8,0:0:0:0:
448,192,124657,1,2,0:0:0:0:
64,192,124826,1,8,0:0:0:0:
192,192,124994,1,10,0:0:0:0:
320,192,125163,1,8,0:0:0:0:
448,192,125163,1,4,0:0:0:0:
