osu file format v14

[General]
AudioFilename: audio.mp3
AudioLeadIn: 0
PreviewTime: 63165
Countdown: 0
SampleSet: Soft
StackLeniency: 0.7
Mode: 3
LetterboxInBreaks: 0
SpecialStyle: 0
WidescreenStoryboard: 1

[Editor]
DistanceSpacing: 1.3
BeatDivisor: 4
GridSize: 4
TimelineZoom: 1.7

[Metadata]
Title:Yume Tourou
TitleUnicode:夢灯籠
Artist:RADWIMPS
ArtistUnicode:RADWIMPS
Creator:Level 51
Version:Itomori
Source:
Tags:
BeatmapID:1172816
BeatmapSetID:553904

[Difficulty]
HPDrainRate:8.8
CircleSize:4
OverallDifficulty:8.2
ApproachRate:5
SliderMultiplier:1.4
SliderTickRate:1

[Events]
//Background and Video events
0,0,"59214087_p0.jpg",0,0
//Break Periods
//Storyboard Layer 0 (Background)
//Storyboard Layer 1 (Fail)
//Storyboard Layer 2 (Pass)
//Storyboard Layer 3 (Foreground)
//Storyboard Sound Samples

[TimingPoints]
24473,348.837209302326,4,2,1,25,1,0
52379,337.078651685393,4,2,1,25,1,0
52379,-100,4,2,1,25,0,1
63165,-100,4,2,1,25,0,0
90131,-100,4,2,1,25,0,1
113558,-100,4,2,1,25,0,0
114401,-100,4,2,1,25,0,1
125187,-100,4,2,1,25,0,0

[HitObjects]
64,192,24473,5,0,0:0:0:0:
192,192,24473,128,0,24821:0:0:0:0:
320,192,24821,1,0,0:0:0:0:
448,192,24996,1,0,0:0:0:0:
448,192,25170,1,0,0:0:0:0:
320,192,25519,1,0,0:0:0:0:
192,192,25519,128,0,25868:0:0:0:0:
320,192,25693,1,0,0:0:0:0:
64,192,25868,128,0,26217:0:0:0:0:
448,192,25868,1,0,0:0:0:0:
320,192,26217,1,0,0:0:0:0:
448,192,26391,1,0,0:0:0:0:
192,192,26914,128,0,27263:0:0:0:0:
448,192,26914,1,0,0:0:0:0:
320,192,27089,1,0,0:0:0:0:
64,192,27263,1,0,0:0:0:0:
448,192,27263,128,0,27612:0:0:0:0:
64,192,27612,1,0,0:0:0:0:
320,192,27786,1,0,0:0:0:0:
192,192,28310,128,0,28659:0:0:0:0:
64,192,28659,128,0,29007:0:0:0:0:
320,192,28659,1,0,0:0:0:0:
320,192,29007,1,0,0:0:0:0:
448,192,29182,1,0,0:0:0:0:
320,192,29356,1,0,0:0:0:0:
448,192,29531,1,0,0:0:0:0:
192,192,29705,128,0,30054:0:0:0:0:
320,192,29879,1,0,0:0:0:0:
64,192,30054,1,0,0:0:0:0:
448,192,30054,128,0,30403:0:0:0:0:
192,192,30403,1,0,0:0:0:0:
320,192,30577,1,0,0:0:0:0:
64,192,31100,128,0,31449:0:0:0:0:
448,192,31275,1,0,0:0:0:0:
320,192,31449,128,0,31798:0:0:0:0:
192,192,31449,1,0,0:0:0:0:
448,192,31798,1,0,0:0:0:0:
320,192,31973,1,0,0:0:0:0:
192,192,32147,1,0,0:0:0:0:
320,192,32496,1,0,0:0:0:0:
192,192,32496,128,0,32845:0:0:0:0:
448,192,32670,1,0,0:0:0:0:
64,192,32845,128,0,33193:0:0:0:0:
320,192,32845,1,0,0:0:0:0:
192,192,33193,1,0,0:0:0:0:
448,192,33368,1,0,0:0:0:0:
320,192,33891,128,0,34240:0:0:0:0:
64,192,34240,128,0,34589:0:0:0:0:
448,192,34240,1,0,0:0:0:0:
320,192,34414,1,0,0:0:0:0:
448,192,34589,1,0,0:0:0:0:
320,192,34763,1,0,0:0:0:0:
64,192,34938,1,0,0:0:0:0:
192,192,35112,1,0,0:0:0:0:
64,192,35286,1,0,0:0:0:0:
320,192,35286,128,0,35635:0:0:0:0:
192,192,35461,1,0,0:0:0:0:
448,192,35635,128,0,35984:0:0:0:0:
192,192,35635,1,0,0:0:0:0:
64,192,35984,1,0,0:0:0:0:
320,192,36159,1,0,0:0:0:0:
448,192,36682,128,0,37031:0:0:0:0:
192,192,36856,1,0,0:0:0:0:
64,192,37031,128,0,37379:0:0:0:0:
320,192,37031,1,0,0:0:0:0:
320,192,37379,1,0,0:0:0:0:
448,192,37554,1,0,0:0:0:0:
320,192,38077,128,0,38426:0:0:0:0:
64,192,38426,128,0,38775:0:0:0:0:
448,192,38426,1,0,0:0:0:0:
192,192,38775,1,0,0:0:0:0:
448,192,38949,1,0,0:0:0:0:
320,192,39473,128,0,39821:0:0:0:0:
64,192,39821,128,0,40170:0:0:0:0:
448,192,39821,1,0,0:0:0:0:
192,192,40170,1,0,0:0:0:0:
448,192,40345,1,0,0:0:0:0:
64,192,40519,1,0,0:0:0:0:
320,192,40693,1,0,0:0:0:0:
192,192,40868,128,0,41217:0:0:0:0:
448,192,40868,1,0,0:0:0:0:
448,192,41042,1,0,0:0:0:0:
64,192,41217,128,0,41566:0:0:0:0:
320,192,41217,1,0,0:0:0:0:
192,192,41566,1,0,0:0:0:0:
448,192,41566,1,0,0:0:0:0:
320,192,41740,1,0,0:0:0:0:
448,192,41740,1,0,0:0:0:0:
192,192,42263,1,0,0:0:0:0:
448,192,42263,1,0,0:0:0:0:
320,192,42438,1,0,0:0:0:0:
64,192,42612,128,0,42961:0:0:0:0:
448,192,42612,1,0,0:0:0:0:
192,192,42961,1,0,0:0:0:0:
320,192,42961,1,0,0:0:0:0:
320,192,43135,1,0,0:0:0:0:
448,192,43135,1,0,0:0:0:0:
192,192,43310,1,0,0:0:0:0:
320,192,43659,1,0,0:0:0:0:
448,192,43659,1,0,0:0:0:0:
64,192,43659,128,0,44007:0:0:0:0:
192,192,44007,128,0,44356:0:0:0:0:
448,192,44007,1,0,0:0:0:0:
64,192,44356,1,0,0:0:0:0:
320,192,44356,1,0,0:0:0:0:
64,192,44531,1,0,0:0:0:0:
448,192,44531,1,0,0:0:0:0:
448,192,45054,1,0,0:0:0:0:
64,192,45054,128,0,45403:0:0:0:0:
192,192,45054,1,0,0:0:0:0:
448,192,45228,1,0,0:0:0:0:
192,192,45403,1,0,0:0:0:0:
448,192,45577,1,0,0:0:0:0:
64,192,45752,1,0,0:0:0:0:
192,192,46013,1,0,0:0:0:0:
448,192,46100,1,0,0:0:0:0:
320,192,46275,1,0,0:0:0:0:
192,192,46449,1,0,0:0:0:0:
320,192,46624,1,0,0:0:0:0:
448,192,46798,1,0,0:0:0:0:
64,192,46798,128,0,47147:0:0:0:0:
192,192,47147,1,0,0:0:0:0:
448,192,47147,1,0,0:0:0:0:
320,192,47321,1,0,0:0:0:0:
448,192,47321,1,0,0:0:0:0:
320,192,47845,1,0,0:0:0:0:
64,192,47845,1,0,0:0:0:0:
192,192,48019,1,0,0:0:0:0:
448,192,48193,128,0,48542:0:0:0:0:
64,192,48193,1,0,0:0:0:0:
64,192,48542,1,0,0:0:0:0:
320,192,48542,1,0,0:0:0:0:
64,192,49066,1,0,0:0:0:0:
192,192,49066,1,0,0:0:0:0:
64,192,49240,1,0,0:0:0:0:
320,192,49240,1,0,0:0:0:0:
192,192,49589,128,0,49938:0:0:0:0:
320,192,49589,1,0,0:0:0:0:
64,192,49938,1,0,0:0:0:0:
448,192,49938,1,0,0:0:0:0:
320,192,50112,1,0,0:0:0:0:
192,192,50286,1,0,0:0:0:0:
320,192,50635,128,0,50984:0:0:0:0:
448,192,50635,1,0,0:0:0:0:
64,192,50635,1,0,0:0:0:0:
64,192,50984,128,0,51333:0:0:0:0:
192,192,50984,1,0,0:0:0:0:
320,192,51333,1,0,0:0:0:0:
448,192,51333,1,0,0:0:0:0:
192,192,51595,1,0,0:0:0:0:
320,192,51682,1,0,0:0:0:0:
448,192,51682,1,0,0:0:0:0:
192,192,51856,1,0,0:0:0:0:
64,192,52031,1,0,0:0:0:0:
320,192,52147,1,0,0:0:0:0:
448,192,52147,1,0,0:0:0:0:
64,192,52205,1,0,0:0:0:0:
192,192,52205,1,0,0:0:0:0:
320,192,52263,1,0,0:0:0:0:
448,192,52263,1,0,0:0:0:0:
64,192,52321,1,0,0:0:0:0:
192,192,52321,1,0,0:0:0:0:
320,192,52379,1,0,0:0:0:0:
448,192,52379,1,0,0:0:0:0:
192,192,52463,1,0,0:0:0:0:
64,192,52547,1,0,0:0:0:0:
320,192,52631,1,0,0:0:0:0:
192,192,52716,1,0,0:0:0:0:
448,192,52716,1,0,0:0:0:0:
64,192,52800,1,0,0:0:0:0:
320,192,52884,1,0,0:0:0:0:
448,192,52968,1,0,0:0:0:0:
192,192,53053,1,0,0:0:0:0:
64,192,53053,1,0,0:0:0:0:
320,192,53137,1,0,0:0:0:0:
448,192,53221,1,0,0:0:0:0:
192,192,53305,1,0,0:0:0:0:
320,192,53390,1,0,0:0:0:0:
64,192,53390,1,0,0:0:0:0:
448,192,53474,1,0,0:0:0:0:
192,192,53558,1,0,0:0:0:0:
320,192,53643,1,0,0:0:0:0:
192,192,53727,1,0,0:0:0:0:
64,192,53727,1,0,0:0:0:0:
320,192,53811,1,0,0:0:0:0:
448,192,53895,1,0,0:0:0:0:
192,192,53980,1,0,0:0:0:0:
320,192,54064,1,0,0:0:0:0:
64,192,54064,1,0,0:0:0:0:
448,192,54148,1,0,0:0:0:0:
192,192,54232,1,0,0:0:0:0:
320,192,54317,1,0,0:0:0:0:
192,192,54401,1,0,0:0:0:0:
64,192,54401,1,0,0:0:0:0:
320,192,54485,1,0,0:0:0:0:
448,192,54570,1,0,0:0:0:0:
64,192,54570,1,0,0:0:0:0:
320,192,54654,1,0,0:0:0:0:
64,192,54738,1,0,0:0:0:0:
448,192,54738,1,0,0:0:0:0:
320,192,54822,1,0,0:0:0:0:
192,192,54907,1,0,0:0:0:0:
448,192,54991,1,0,0:0:0:0:
320,192,55075,1,0,0:0:0:0:
64,192,55075,1,0,0:0:0:0:
192,192,55159,1,0,0:0:0:0:
448,192,55244,1,0,0:0:0:0:
320,192,55328,1,0,0:0:0:0:
192,192,55412,1,0,0:0:0:0:
64,192,55412,1,0,0:0:0:0:
320,192,55496,1,0,0:0:0:0:
448,192,55581,1,0,0:0:0:0:
192,192,55665,1,0,0:0:0:0:
320,192,55749,1,0,0:0:0:0:
64,192,55749,1,0,0:0:0:0:
448,192,55834,1,0,0:0:0:0:
192,192,55918,1,0,0:0:0:0:
320,192,56002,1,0,0:0:0:0:
64,192,56086,1,0,0:0:0:0:
192,192,56086,1,0,0:0:0:0:
448,192,56171,1,0,0:0:0:0:
320,192,56255,1,0,0:0:0:0:
64,192,56339,1,0,0:0:0:0:
320,192,56423,1,0,0:0:0:0:
448,192,56423,1,0,0:0:0:0:
64,192,56508,1,0,0:0:0:0:
192,192,56592,1,0,0:0:0:0:
320,192,56676,1,0,0:0:0:0:
64,192,56761,1,0,0:0:0:0:
448,192,56761,1,0,0:0:0:0:
192,192,56845,1,0,0:0:0:0:
320,192,56929,1,0,0:0:0:0:
64,192,57013,1,0,0:0:0:0:
448,192,57098,1,0,0:0:0:0:
192,192,57098,1,0,0:0:0:0:
320,192,57182,1,0,0:0:0:0:
192,192,57266,1,0,0:0:0:0:
64,192,57350,1,0,0:0:0:0:
320,192,57435,1,0,0:0:0:0:
448,192,57435,1,0,0:0:0:0:
64,192,57547,1,0,0:0:0:0:
192,192,57547,1,0,0:0:0:0:
320,192,57659,1,0,0:0:0:0:
448,192,57659,1,0,0:0:0:0:
192,192,57772,1,0,0:0:0:0:
64,192,57772,1,0,0:0:0:0:
320,192,57856,1,0,0:0:0:0:
448,192,57940,1,0,0:0:0:0:
64,192,58025,1,0,0:0:0:0:
192,192,58109,1,0,0:0:0:0:
320,192,58109,1,0,0:0:0:0:
448,192,58193,1,0,0:0:0:0:
64,192,58277,1,0,0:0:0:0:
192,192,58362,1,0,0:0:0:0:
64,192,58446,1,0,0:0:0:0:
320,192,58446,1,0,0:0:0:0:
448,192,58530,1,0,0:0:0:0:
192,192,58614,1,0,0:0:0:0:
320,192,58699,1,0,0:0:0:0:
64,192,58783,1,0,0:0:0:0:
192,192,58783,1,0,0:0:0:0:
448,192,58867,1,0,0:0:0:0:
320,192,58952,1,0,0:0:0:0:
192,192,59036,1,0,0:0:0:0:
320,192,59120,1,0,0:0:0:0:
64,192,59120,1,0,0:0:0:0:
448,192,59204,1,0,0:0:0:0:
192,192,59289,1,0,0:0:0:0:
320,192,59373,1,0,0:0:0:0:
64,192,59457,1,0,0:0:0:0:
448,192,59457,1,0,0:0:0:0:
192,192,59541,1,0,0:0:0:0:
448,192,59626,1,0,0:0:0:0:
320,192,59710,1,0,0:0:0:0:
192,192,59794,1,0,0:0:0:0:
64,192,59794,1,0,0:0:0:0:
320,192,59878,1,0,0:0:0:0:
192,192,59963,1,0,0:0:0:0:
64,192,59963,1,0,0:0:0:0:
320,192,60047,1,0,0:0:0:0:
64,192,60131,1,0,0:0:0:0:
192,192,60131,1,0,0:0:0:0:
448,192,60216,1,0,0:0:0:0:
320,192,60300,1,0,0:0:0:0:
192,192,60384,1,0,0:0:0:0:
64,192,60468,1,0,0:0:0:0:
448,192,60468,1,0,0:0:0:0:
320,192,60553,1,0,0:0:0:0:
192,192,60637,1,0,0:0:0:0:
448,192,60721,1,0,0:0:0:0:
64,192,60805,1,0,0:0:0:0:
320,192,60805,1,0,0:0:0:0:
192,192,60890,1,0,0:0:0:0:
448,192,60974,1,0,0:0:0:0:
64,192,61058,1,0,0:0:0:0:
320,192,61143,1,0,0:0:0:0:
448,192,61143,1,0,0:0:0:0:
192,192,61227,1,0,0:0:0:0:
320,192,61311,1,0,0:0:0:0:
192,192,61395,1,0,0:0:0:0:
448,192,61480,1,0,0:0:0:0:
64,192,61480,1,0,0:0:0:0:
320,192,61564,1,0,0:0:0:0:
192,192,61648,1,0,0:0:0:0:
448,192,61732,1,0,0:0:0:0:
64,192,61817,1,0,0:0:0:0:
320,192,61817,1,0,0:0:0:0:
192,192,61901,1,0,0:0:0:0:
448,192,61985,5,0,0:0:0:0:
64,192,62070,1,0,0:0:0:0:
448,192,62154,1,0,0:0:0:0:
192,192,62154,1,0,0:0:0:0:
320,192,62238,1,0,0:0:0:0:
64,192,62322,1,0,0:0:0:0:
192,192,62407,1,0,0:0:0:0:
320,192,62491,5,0,0:0:0:0:
448,192,62491,1,0,0:0:0:0:
192,192,62575,5,0,0:0:0:0:
64,192,62575,1,0,0:0:0:0:
320,192,62659,5,0,0:0:0:0:
448,192,62659,1,0,0:0:0:0:
64,192,62744,5,0,0:0:0:0:
192,192,62744,1,0,0:0:0:0:
320,192,62828,5,0,0:0:0:0:
448,192,62828,1,0,0:0:0:0:
192,192,62912,1,0,0:0:0:0:
64,192,62912,1,0,0:0:0:0:
320,192,62996,1,0,0:0:0:0:
448,192,62996,1,0,0:0:0:0:
192,192,63081,1,0,0:0:0:0:
64,192,63081,1,0,0:0:0:0:
448,192,63165,5,0,0:0:0:0:
320,192,63165,1,0,0:0:0:0:
192,192,63249,1,0,0:0:0:0:
320,192,63334,1,0,0:0:0:0:
64,192,63418,1,0,0:0:0:0:
192,192,63502,1,0,0:0:0:0:
320,192,63586,1,0,0:0:0:0:
64,192,63671,1,0,0:0:0:0:
448,192,63671,1,0,0:0:0:0:
192,192,63755,1,0,0:0:0:0:
320,192,63839,1,0,0:0:0:0:
448,192,63839,1,0,0:0:0:0:
192,192,63923,1,0,0:0:0:0:
64,192,64008,1,0,0:0:0:0:
320,192,64092,1,0,0:0:0:0:
192,192,64176,1,0,0:0:0:0:
448,192,64176,1,0,0:0:0:0:
64,192,64261,1,0,0:0:0:0:
320,192,64345,1,0,0:0:0:0:
448,192,64345,1,0,0:0:0:0:
192,192,64429,1,0,0:0:0:0:
64,192,64513,1,0,0:0:0:0:
320,192,64513,1,0,0:0:0:0:
448,192,64598,1,0,0:0:0:0:
192,192,64682,1,0,0:0:0:0:
64,192,64682,1,0,0:0:0:0:
320,192,64766,1,0,0:0:0:0:
448,192,64850,1,0,0:0:0:0:
64,192,64850,1,0,0:0:0:0:
192,192,64935,1,0,0:0:0:0:
320,192,65019,1,0,0:0:0:0:
448,192,65103,1,0,0:0:0:0:
64,192,65187,1,0,0:0:0:0:
192,192,65187,1,0,0:0:0:0:
320,192,65272,1,0,0:0:0:0:
448,192,65356,1,0,0:0:0:0:
320,192,65440,1,0,0:0:0:0:
448,192,65525,1,0,0:0:0:0:
64,192,65525,1,0,0:0:0:0:
320,192,65609,1,0,0:0:0:0:
64,192,65693,1,0,0:0:0:0:
448,192,65693,1,0,0:0:0:0:
320,192,65777,1,0,0:0:0:0:
64,192,65862,1,0,0:0:0:0:
192,192,65862,1,0,0:0:0:0:
320,192,65946,1,0,0:0:0:0:
448,192,66030,1,0,0:0:0:0:
192,192,66114,1,0,0:0:0:0:
320,192,66199,1,0,0:0:0:0:
64,192,66283,1,0,0:0:0:0:
192,192,66367,1,0,0:0:0:0:
448,192,66367,1,0,0:0:0:0:
320,192,66452,1,0,0:0:0:0:
64,192,66536,1,0,0:0:0:0:
192,192,66536,1,0,0:0:0:0:
448,192,66620,1,0,0:0:0:0:
320,192,66704,1,0,0:0:0:0:
64,192,66704,1,0,0:0:0:0:
192,192,66789,1,0,0:0:0:0:
320,192,66873,1,0,0:0:0:0:
448,192,66873,1,0,0:0:0:0:
192,192,66957,1,0,0:0:0:0:
64,192,67041,1,0,0:0:0:0:
448,192,67041,1,0,0:0:0:0:
320,192,67126,1,0,0:0:0:0:
192,192,67210,1,0,0:0:0:0:
64,192,67210,1,0,0:0:0:0:
448,192,67294,1,0,0:0:0:0:
320,192,67378,1,0,0:0:0:0:
192,192,67463,1,0,0:0:0:0:
64,192,67547,1,0,0:0:0:0:
320,192,67547,1,0,0:0:0:0:
448,192,67631,1,0,0:0:0:0:
192,192,67716,1,0,0:0:0:0:
320,192,67800,1,0,0:0:0:0:
64,192,67884,1,0,0:0:0:0:
192,192,67884,1,0,0:0:0:0:
320,192,67968,1,0,0:0:0:0:
448,192,68053,1,0,0:0:0:0:
192,192,68137,1,0,0:0:0:0:
448,192,68221,1,0,0:0:0:0:
64,192,68221,1,0,0:0:0:0:
192,192,68305,1,0,0:0:0:0:
448,192,68390,1,0,0:0:0:0:
64,192,68390,1,0,0:0:0:0:
192,192,68474,1,0,0:0:0:0:
448,192,68558,1,0,0:0:0:0:
64,192,68558,1,0,0:0:0:0:
320,192,68643,1,0,0:0:0:0:
192,192,68727,1,0,0:0:0:0:
320,192,68811,1,0,0:0:0:0:
64,192,68895,1,0,0:0:0:0:
192,192,68980,1,0,0:0:0:0:
320,192,69064,1,0,0:0:0:0:
448,192,69064,1,0,0:0:0:0:
192,192,69148,1,0,0:0:0:0:
64,192,69232,1,0,0:0:0:0:
448,192,69232,1,0,0:0:0:0:
320,192,69317,1,0,0:0:0:0:
192,192,69401,1,0,0:0:0:0:
64,192,69485,1,0,0:0:0:0:
320,192,69570,1,0,0:0:0:0:
448,192,69570,1,0,0:0:0:0:
192,192,69654,1,0,0:0:0:0:
64,192,69738,1,0,0:0:0:0:
448,192,69738,1,0,0:0:0:0:
320,192,69822,1,0,0:0:0:0:
192,192,69907,1,0,0:0:0:0:
64,192,69907,1,0,0:0:0:0:
320,192,69991,1,0,0:0:0:0:
448,192,70075,1,0,0:0:0:0:
192,192,70159,1,0,0:0:0:0:
320,192,70244,1,0,0:0:0:0:
64,192,70244,1,0,0:0:0:0:
448,192,70328,1,0,0:0:0:0:
192,192,70412,1,0,0:0:0:0:
320,192,70496,1,0,0:0:0:0:
64,192,70581,1,0,0:0:0:0:
192,192,70581,1,0,0:0:0:0:
448,192,70665,1,0,0:0:0:0:
320,192,70749,1,0,0:0:0:0:
192,192,70834,1,0,0:0:0:0:
64,192,70918,1,0,0:0:0:0:
192,192,71002,1,0,0:0:0:0:
64,192,71086,1,0,0:0:0:0:
448,192,71086,1,0,0:0:0:0:
192,192,71171,1,0,0:0:0:0:
64,192,71255,1,0,0:0:0:0:
448,192,71255,1,0,0:0:0:0:
192,192,71339,1,0,0:0:0:0:
320,192,71423,1,0,0:0:0:0:
448,192,71423,1,0,0:0:0:0:
192,192,71508,1,0,0:0:0:0:
64,192,71592,1,0,0:0:0:0:
320,192,71592,1,0,0:0:0:0:
448,192,71676,1,0,0:0:0:0:
192,192,71761,1,0,0:0:0:0:
64,192,71761,1,0,0:0:0:0:
320,192,71845,1,0,0:0:0:0:
448,192,71929,1,0,0:0:0:0:
192,192,71929,1,0,0:0:0:0:
64,192,72013,1,0,0:0:0:0:
448,192,72098,1,0,0:0:0:0:
320,192,72182,1,0,0:0:0:0:
64,192,72266,1,0,0:0:0:0:
192,192,72266,1,0,0:0:0:0:
448,192,72350,1,0,0:0:0:0:
320,192,72435,1,0,0:0:0:0:
192,192,72435,1,0,0:0:0:0:
64,192,72519,1,0,0:0:0:0:
192,192,72603,1,0,0:0:0:0:
320,192,72603,1,0,0:0:0:0:
64,192,72687,1,0,0:0:0:0:
320,192,72772,1,0,0:0:0:0:
192,192,72772,1,0,0:0:0:0:
64,192,72856,1,0,0:0:0:0:
320,192,72940,1,0,0:0:0:0:
192,192,72940,1,0,0:0:0:0:
64,192,73025,1,0,0:0:0:0:
448,192,73109,1,0,0:0:0:0:
320,192,73109,1,0,0:0:0:0:
192,192,73193,1,0,0:0:0:0:
64,192,73277,1,0,0:0:0:0:
448,192,73277,1,0,0:0:0:0:
192,192,73362,1,0,0:0:0:0:
448,192,73446,1,0,0:0:0:0:
192,192,73530,1,0,0:0:0:0:
64,192,73614,1,0,0:0:0:0:
320,192,73614,1,0,0:0:0:0:
448,192,73699,1,0,0:0:0:0:
192,192,73783,1,0,0:0:0:0:
320,192,73867,1,0,0:0:0:0:
64,192,73952,1,0,0:0:0:0:
192,192,73952,1,0,0:0:0:0:
448,192,74036,1,0,0:0:0:0:
320,192,74120,1,0,0:0:0:0:
64,192,74204,1,0,0:0:0:0:
320,192,74289,1,0,0:0:0:0:
192,192,74373,1,0,0:0:0:0:
448,192,74457,1,0,0:0:0:0:
64,192,74457,1,0,0:0:0:0:
320,192,74541,1,0,0:0:0:0:
64,192,74626,1,0,0:0:0:0:
192,192,74626,1,0,0:0:0:0:
320,192,74710,1,0,0:0:0:0:
448,192,74794,1,0,0:0:0:0:
192,192,74794,1,0,0:0:0:0:
64,192,74878,1,0,0:0:0:0:
320,192,74963,1,0,0:0:0:0:
448,192,74963,1,0,0:0:0:0:
192,192,75047,1,0,0:0:0:0:
64,192,75131,1,0,0:0:0:0:
320,192,75131,1,0,0:0:0:0:
448,192,75216,1,0,0:0:0:0:
192,192,75300,1,0,0:0:0:0:
64,192,75300,1,0,0:0:0:0:
320,192,75384,1,0,0:0:0:0:
448,192,75468,1,0,0:0:0:0:
64,192,75468,1,0,0:0:0:0:
192,192,75553,1,0,0:0:0:0:
320,192,75637,1,0,0:0:0:0:
448,192,75637,1,0,0:0:0:0:
64,192,75721,1,0,0:0:0:0:
192,192,75805,1,0,0:0:0:0:
320,192,75805,1,0,0:0:0:0:
448,192,75890,1,0,0:0:0:0:
64,192,75974,1,0,0:0:0:0:
192,192,75974,1,0,0:0:0:0:
320,192,76058,1,0,0:0:0:0:
192,192,76143,1,0,0:0:0:0:
448,192,76143,1,0,0:0:0:0:
64,192,76227,1,0,0:0:0:0:
192,192,76311,1,0,0:0:0:0:
448,192,76311,1,0,0:0:0:0:
64,192,76395,1,0,0:0:0:0:
192,192,76480,1,0,0:0:0:0:
448,192,76480,1,0,0:0:0:0:
64,192,76564,1,0,0:0:0:0:
192,192,76648,1,0,0:0:0:0:
448,192,76648,1,0,0:0:0:0:
320,192,76732,1,0,0:0:0:0:
64,192,76817,1,0,0:0:0:0:
192,192,76901,1,0,0:0:0:0:
320,192,76985,1,0,0:0:0:0:
448,192,77070,1,0,0:0:0:0:
192,192,77154,1,0,0:0:0:0:
320,192,77154,1,0,0:0:0:0:
64,192,77238,1,0,0:0:0:0:
192,192,77322,1,0,0:0:0:0:
448,192,77322,1,0,0:0:0:0:
320,192,77407,1,0,0:0:0:0:
64,192,77491,1,0,0:0:0:0:
448,192,77491,1,0,0:0:0:0:
192,192,77575,1,0,0:0:0:0:
320,192,77659,1,0,0:0:0:0:
64,192,77659,1,0,0:0:0:0:
448,192,77744,1,0,0:0:0:0:
192,192,77828,1,0,0:0:0:0:
320,192,77912,1,0,0:0:0:0:
64,192,77996,1,0,0:0:0:0:
192,192,77996,1,0,0:0:0:0:
448,192,78081,1,0,0:0:0:0:
320,192,78165,1,0,0:0:0:0:
64,192,78249,1,0,0:0:0:0:
448,192,78334,1,0,0:0:0:0:
192,192,78334,1,0,0:0:0:0:
320,192,78418,1,0,0:0:0:0:
64,192,78502,1,0,0:0:0:0:
448,192,78586,1,0,0:0:0:0:
64,192,78671,1,0,0:0:0:0:
320,192,78671,1,0,0:0:0:0:
192,192,78755,1,0,0:0:0:0:
448,192,78839,1,0,0:0:0:0:
320,192,78923,1,0,0:0:0:0:
64,192,79008,1,0,0:0:0:0:
448,192,79008,1,0,0:0:0:0:
320,192,79092,1,0,0:0:0:0:
64,192,79176,1,0,0:0:0:0:
448,192,79176,1,0,0:0:0:0:
320,192,79261,1,0,0:0:0:0:
64,192,79345,1,0,0:0:0:0:
448,192,79345,1,0,0:0:0:0:
192,192,79429,1,0,0:0:0:0:
320,192,79513,1,0,0:0:0:0:
64,192,79598,1,0,0:0:0:0:
192,192,79682,1,0,0:0:0:0:
448,192,79766,1,0,0:0:0:0:
320,192,79850,1,0,0:0:0:0:
64,192,79850,1,0,0:0:0:0:
192,192,79935,1,0,0:0:0:0:
320,192,80019,1,0,0:0:0:0:
448,192,80019,1,0,0:0:0:0:
64,192,80103,1,0,0:0:0:0:
192,192,80187,1,0,0:0:0:0:
448,192,80187,1,0,0:0:0:0:
320,192,80272,1,0,0:0:0:0:
64,192,80356,1,0,0:0:0:0:
192,192,80356,1,0,0:0:0:0:
448,192,80440,1,0,0:0:0:0:
64,192,80525,1,0,0:0:0:0:
320,192,80525,1,0,0:0:0:0:
192,192,80609,1,0,0:0:0:0:
320,192,80693,1,0,0:0:0:0:
448,192,80693,1,0,0:0:0:0:
64,192,80777,1,0,0:0:0:0:
192,192,80862,1,0,0:0:0:0:
448,192,80862,1,0,0:0:0:0:
320,192,80946,1,0,0:0:0:0:
64,192,81030,1,0,0:0:0:0:
192,192,81030,1,0,0:0:0:0:
448,192,81114,1,0,0:0:0:0:
192,192,81199,1,0,0:0:0:0:
320,192,81199,1,0,0:0:0:0:
64,192,81283,1,0,0:0:0:0:
320,192,81367,1,0,0:0:0:0:
448,192,81367,1,0,0:0:0:0:
192,192,81452,1,0,0:0:0:0:
64,192,81536,1,0,0:0:0:0:
192,192,81620,1,0,0:0:0:0:
320,192,81704,1,0,0:0:0:0:
448,192,81789,1,0,0:0:0:0:
64,192,81873,1,0,0:0:0:0:
320,192,81873,1,0,0:0:0:0:
448,192,81957,1,0,0:0:0:0:
64,192,82041,1,0,0:0:0:0:
320,192,82041,1,0,0:0:0:0:
448,192,82126,1,0,0:0:0:0:
64,192,82210,1,0,0:0:0:0:
320,192,82210,1,0,0:0:0:0:
448,192,82294,1,0,0:0:0:0:
192,192,82378,1,0,0:0:0:0:
320,192,82378,1,0,0:0:0:0:
64,192,82463,1,0,0:0:0:0:
320,192,82547,1,0,0:0:0:0:
448,192,82547,1,0,0:0:0:0:
192,192,82631,1,0,0:0:0:0:
64,192,82716,1,0,0:0:0:0:
448,192,82716,1,0,0:0:0:0:
320,192,82800,1,0,0:0:0:0:
192,192,82884,1,0,0:0:0:0:
64,192,82968,1,0,0:0:0:0:
320,192,83053,1,0,0:0:0:0:
448,192,83053,1,0,0:0:0:0:
192,192,83137,1,0,0:0:0:0:
64,192,83221,1,0,0:0:0:0:
320,192,83305,1,0,0:0:0:0:
192,192,83390,1,0,0:0:0:0:
448,192,83390,1,0,0:0:0:0:
64,192,83474,1,0,0:0:0:0:
192,192,83558,1,0,0:0:0:0:
320,192,83558,1,0,0:0:0:0:
448,192,83643,1,0,0:0:0:0:
64,192,83727,1,0,0:0:0:0:
320,192,83727,1,0,0:0:0:0:
192,192,83811,1,0,0:0:0:0:
320,192,83895,1,0,0:0:0:0:
448,192,83895,1,0,0:0:0:0:
192,192,83980,1,0,0:0:0:0:
64,192,83980,1,0,0:0:0:0:
320,192,84064,1,0,0:0:0:0:
448,192,84064,1,0,0:0:0:0:
192,192,84148,1,0,0:0:0:0:
64,192,84232,1,0,0:0:0:0:
448,192,84232,1,0,0:0:0:0:
320,192,84317,1,0,0:0:0:0:
64,192,84401,1,0,0:0:0:0:
448,192,84401,1,0,0:0:0:0:
192,192,84485,1,0,0:0:0:0:
64,192,84570,1,0,0:0:0:0:
448,192,84570,1,0,0:0:0:0:
320,192,84654,1,0,0:0:0:0:
64,192,84738,1,0,0:0:0:0:
192,192,84738,1,0,0:0:0:0:
64,192,84907,1,0,0:0:0:0:
192,192,84907,1,0,0:0:0:0:
320,192,85075,1,0,0:0:0:0:
448,192,85075,1,0,0:0:0:0:
64,192,85244,1,0,0:0:0:0:
192,192,85244,1,0,0:0:0:0:
320,192,85412,1,0,0:0:0:0:
448,192,85412,1,0,0:0:0:0:
64,192,85581,1,0,0:0:0:0:
192,192,85581,1,0,0:0:0:0:
64,192,85749,1,0,0:0:0:0:
192,192,85749,1,0,0:0:0:0:
320,192,85918,1,0,0:0:0:0:
448,192,85918,1,0,0:0:0:0:
64,192,86086,1,0,0:0:0:0:
192,192,86086,1,0,0:0:0:0:
320,192,86255,1,0,0:0:0:0:
448,192,86255,1,0,0:0:0:0:
320,192,86423,1,0,0:0:0:0:
448,192,86423,1,0,0:0:0:0:
320,192,86592,1,0,0:0:0:0:
448,192,86592,1,0,0:0:0:0:
320,192,86761,1,0,0:0:0:0:
448,192,86761,1,0,0:0:0:0:
320,192,86929,1,0,0:0:0:0:
448,192,86929,1,0,0:0:0:0:
320,192,87098,1,0,0:0:0:0:
448,192,87098,1,0,0:0:0:0:
320,192,87266,1,0,0:0:0:0:
448,192,87266,1,0,0:0:0:0:
64,192,87435,1,0,0:0:0:0:
192,192,87435,1,0,0:0:0:0:
64,192,87603,1,0,0:0:0:0:
192,192,87603,1,0,0:0:0:0:
320,192,87772,1,0,0:0:0:0:
448,192,87772,1,0,0:0:0:0:
64,192,87940,1,0,0:0:0:0:
192,192,87940,1,0,0:0:0:0:
320,192,88109,1,0,0:0:0:0:
448,192,88109,1,0,0:0:0:0:
64,192,88277,1,0,0:0:0:0:
192,192,88277,1,0,0:0:0:0:
64,192,88446,1,0,0:0:0:0:
192,192,88446,1,0,0:0:0:0:
320,192,88614,1,0,0:0:0:0:
448,192,88614,1,0,0:0:0:0:
192,192,88783,1,0,0:0:0:0:
64,192,88867,1,0,0:0:0:0:
320,192,88952,5,0,0:0:0:0:
448,192,88952,1,0,0:0:0:0:
192,192,89036,1,0,0:0:0:0:
64,192,89036,1,0,0:0:0:0:
320,192,89120,1,0,0:0:0:0:
448,192,89120,1,0,0:0:0:0:
192,192,89204,1,0,0:0:0:0:
64,192,89204,1,0,0:0:0:0:
448,192,89289,1,0,0:0:0:0:
64,192,89373,1,0,0:0:0:0:
320,192,89457,1,0,0:0:0:0:
448,192,89457,1,0,0:0:0:0:
192,192,89541,1,0,0:0:0:0:
64,192,89541,1,0,0:0:0:0:
320,192,89626,1,0,0:0:0:0:
448,192,89626,1,0,0:0:0:0:
192,192,89710,1,0,0:0:0:0:
64,192,89710,1,0,0:0:0:0:
448,192,89794,1,0,0:0:0:0:
320,192,89878,1,0,0:0:0:0:
192,192,89963,1,0,0:0:0:0:
64,192,90047,1,0,0:0:0:0:
320,192,90131,1,0,0:0:0:0:
448,192,90131,1,0,0:0:0:0:
192,192,90216,1,0,0:0:0:0:
320,192,90300,1,0,0:0:0:0:
64,192,90384,1,0,0:0:0:0:
192,192,90468,1,0,0:0:0:0:
448,192,90468,1,0,0:0:0:0:
320,192,90553,1,0,0:0:0:0:
64,192,90637,1,0,0:0:0:0:
448,192,90721,1,0,0:0:0:0:
64,192,90805,1,0,0:0:0:0:
192,192,90805,1,0,0:0:0:0:
320,192,90890,1,0,0:0:0:0:
448,192,90974,1,0,0:0:0:0:
192,192,91058,1,0,0:0:0:0:
320,192,91143,1,0,0:0:0:0:
64,192,91143,1,0,0:0:0:0:
448,192,91227,1,0,0:0:0:0:
192,192,91311,1,0,0:0:0:0:
320,192,91395,1,0,0:0:0:0:
64,192,91480,1,0,0:0:0:0:
192,192,91480,1,0,0:0:0:0:
320,192,91564,1,0,0:0:0:0:
448,192,91648,1,0,0:0:0:0:
64,192,91732,1,0,0:0:0:0:
320,192,91817,1,0,0:0:0:0:
448,192,91817,1,0,0:0:0:0:
192,192,91901,1,0,0:0:0:0:
64,192,91985,1,0,0:0:0:0:
320,192,92070,1,0,0:0:0:0:
192,192,92154,1,0,0:0:0:0:
64,192,92154,1,0,0:0:0:0:
448,192,92238,1,0,0:0:0:0:
320,192,92322,1,0,0:0:0:0:
192,192,92407,1,0,0:0:0:0:
64,192,92491,1,0,0:0:0:0:
448,192,92491,1,0,0:0:0:0:
320,192,92575,1,0,0:0:0:0:
448,192,92659,1,0,0:0:0:0:
192,192,92744,1,0,0:0:0:0:
320,192,92828,1,0,0:0:0:0:
64,192,92828,1,0,0:0:0:0:
448,192,92884,1,0,0:0:0:0:
192,192,92940,1,0,0:0:0:0:
320,192,92996,1,0,0:0:0:0:
64,192,93053,1,0,0:0:0:0:
192,192,93109,1,0,0:0:0:0:
320,192,93165,1,0,0:0:0:0:
448,192,93221,1,0,0:0:0:0:
192,192,93277,1,0,0:0:0:0:
64,192,93334,1,0,0:0:0:0:
320,192,93334,1,0,0:0:0:0:
448,192,93418,1,0,0:0:0:0:
192,192,93502,1,0,0:0:0:0:
64,192,93502,1,0,0:0:0:0:
320,192,93558,1,0,0:0:0:0:
448,192,93614,1,0,0:0:0:0:
192,192,93671,1,0,0:0:0:0:
64,192,93727,1,0,0:0:0:0:
320,192,93783,1,0,0:0:0:0:
192,192,93839,1,0,0:0:0:0:
448,192,93895,1,0,0:0:0:0:
320,192,93952,1,0,0:0:0:0:
192,192,94008,1,0,0:0:0:0:
64,192,94008,1,0,0:0:0:0:
448,192,94092,1,0,0:0:0:0:
64,192,94176,1,0,0:0:0:0:
320,192,94176,1,0,0:0:0:0:
192,192,94232,1,0,0:0:0:0:
448,192,94289,1,0,0:0:0:0:
320,192,94345,1,0,0:0:0:0:
192,192,94401,1,0,0:0:0:0:
64,192,94457,1,0,0:0:0:0:
320,192,94513,1,0,0:0:0:0:
448,192,94570,1,0,0:0:0:0:
192,192,94626,1,0,0:0:0:0:
320,192,94682,1,0,0:0:0:0:
64,192,94738,1,0,0:0:0:0:
192,192,94794,1,0,0:0:0:0:
448,192,94850,1,0,0:0:0:0:
320,192,94935,1,0,0:0:0:0:
192,192,95019,1,0,0:0:0:0:
64,192,95103,1,0,0:0:0:0:
320,192,95187,1,0,0:0:0:0:
64,192,95272,1,0,0:0:0:0:
320,192,95356,1,0,0:0:0:0:
448,192,95356,1,0,0:0:0:0:
192,192,95440,1,0,0:0:0:0:
64,192,95525,1,0,0:0:0:0:
448,192,95525,1,0,0:0:0:0:
320,192,95609,1,0,0:0:0:0:
192,192,95693,1,0,0:0:0:0:
64,192,95777,1,0,0:0:0:0:
320,192,95862,1,0,0:0:0:0:
448,192,95862,1,0,0:0:0:0:
192,192,95946,1,0,0:0:0:0:
320,192,96030,1,0,0:0:0:0:
192,192,96114,1,0,0:0:0:0:
64,192,96199,1,0,0:0:0:0:
448,192,96199,1,0,0:0:0:0:
320,192,96283,1,0,0:0:0:0:
64,192,96367,1,0,0:0:0:0:
192,192,96452,1,0,0:0:0:0:
320,192,96536,1,0,0:0:0:0:
448,192,96536,1,0,0:0:0:0:
192,192,96620,1,0,0:0:0:0:
64,192,96704,1,0,0:0:0:0:
320,192,96789,1,0,0:0:0:0:
192,192,96873,1,0,0:0:0:0:
448,192,96873,1,0,0:0:0:0:
64,192,96957,1,0,0:0:0:0:
320,192,97041,1,0,0:0:0:0:
192,192,97126,1,0,0:0:0:0:
448,192,97210,1,0,0:0:0:0:
64,192,97210,1,0,0:0:0:0:
320,192,97294,1,0,0:0:0:0:
192,192,97378,1,0,0:0:0:0:
448,192,97463,1,0,0:0:0:0:
64,192,97547,1,0,0:0:0:0:
320,192,97547,1,0,0:0:0:0:
448,192,97631,1,0,0:0:0:0:
192,192,97716,1,0,0:0:0:0:
320,192,97800,1,0,0:0:0:0:
64,192,97884,1,0,0:0:0:0:
192,192,97884,1,0,0:0:0:0:
320,192,97968,1,0,0:0:0:0:
448,192,98053,1,0,0:0:0:0:
64,192,98137,1,0,0:0:0:0:
320,192,98221,1,0,0:0:0:0:
448,192,98221,1,0,0:0:0:0:
192,192,98277,1,0,0:0:0:0:
64,192,98334,1,0,0:0:0:0:
320,192,98390,1,0,0:0:0:0:
192,192,98446,1,0,0:0:0:0:
448,192,98502,1,0,0:0:0:0:
320,192,98558,1,0,0:0:0:0:
64,192,98614,1,0,0:0:0:0:
192,192,98671,1,0,0:0:0:0:
320,192,98727,1,0,0:0:0:0:
448,192,98727,1,0,0:0:0:0:
192,192,98811,1,0,0:0:0:0:
64,192,98895,1,0,0:0:0:0:
448,192,98895,1,0,0:0:0:0:
320,192,98952,1,0,0:0:0:0:
192,192,99008,1,0,0:0:0:0:
64,192,99064,1,0,0:0:0:0:
320,192,99120,1,0,0:0:0:0:
448,192,99176,1,0,0:0:0:0:
192,192,99232,1,0,0:0:0:0:
320,192,99289,1,0,0:0:0:0:
64,192,99345,1,0,0:0:0:0:
192,192,99401,1,0,0:0:0:0:
448,192,99401,1,0,0:0:0:0:
320,192,99485,1,0,0:0:0:0:
64,192,99570,1,0,0:0:0:0:
192,192,99570,1,0,0:0:0:0:
448,192,99626,1,0,0:0:0:0:
320,192,99682,1,0,0:0:0:0:
192,192,99738,1,0,0:0:0:0:
64,192,99794,1,0,0:0:0:0:
320,192,99850,1,0,0:0:0:0:
448,192,99907,1,0,0:0:0:0:
192,192,99963,1,0,0:0:0:0:
320,192,100019,1,0,0:0:0:0:
64,192,100075,1,0,0:0:0:0:
448,192,100075,1,0,0:0:0:0:
192,192,100159,1,0,0:0:0:0:
320,192,100244,1,0,0:0:0:0:
64,192,100244,1,0,0:0:0:0:
448,192,100328,1,0,0:0:0:0:
64,192,100412,1,0,0:0:0:0:
192,192,100412,1,0,0:0:0:0:
320,192,100496,1,0,0:0:0:0:
448,192,100581,1,0,0:0:0:0:
192,192,100581,1,0,0:0:0:0:
64,192,100665,1,0,0:0:0:0:
320,192,100749,1,0,0:0:0:0:
448,192,100749,1,0,0:0:0:0:
192,192,100834,1,0,0:0:0:0:
64,192,100918,1,0,0:0:0:0:
448,192,100918,1,0,0:0:0:0:
320,192,100974,1,0,0:0:0:0:
192,192,101030,1,0,0:0:0:0:
64,192,101086,1,0,0:0:0:0:
320,192,101143,1,0,0:0:0:0:
192,192,101199,1,0,0:0:0:0:
448,192,101255,1,0,0:0:0:0:
320,192,101255,1,0,0:0:0:0:
64,192,101339,1,0,0:0:0:0:
448,192,101423,1,0,0:0:0:0:
320,192,101423,1,0,0:0:0:0:
64,192,101508,1,0,0:0:0:0:
192,192,101592,1,0,0:0:0:0:
320,192,101676,1,0,0:0:0:0:
448,192,101761,1,0,0:0:0:0:
64,192,101761,1,0,0:0:0:0:
192,192,101845,1,0,0:0:0:0:
448,192,101929,1,0,0:0:0:0:
64,192,101929,1,0,0:0:0:0:
192,192,102013,1,0,0:0:0:0:
320,192,102098,1,0,0:0:0:0:
448,192,102182,1,0,0:0:0:0:
64,192,102266,1,0,0:0:0:0:
192,192,102266,1,0,0:0:0:0:
320,192,102350,1,0,0:0:0:0:
192,192,102435,1,0,0:0:0:0:
448,192,102519,1,0,0:0:0:0:
64,192,102603,1,0,0:0:0:0:
192,192,102687,1,0,0:0:0:0:
320,192,102772,1,0,0:0:0:0:
448,192,102772,1,0,0:0:0:0:
192,192,102856,1,0,0:0:0:0:
64,192,102940,1,0,0:0:0:0:
448,192,102940,1,0,0:0:0:0:
320,192,103025,1,0,0:0:0:0:
192,192,103109,1,0,0:0:0:0:
64,192,103109,1,0,0:0:0:0:
320,192,103193,1,0,0:0:0:0:
448,192,103277,1,0,0:0:0:0:
192,192,103277,1,0,0:0:0:0:
64,192,103362,1,0,0:0:0:0:
320,192,103446,1,0,0:0:0:0:
448,192,103446,1,0,0:0:0:0:
192,192,103530,1,0,0:0:0:0:
64,192,103614,1,0,0:0:0:0:
320,192,103614,1,0,0:0:0:0:
448,192,103699,1,0,0:0:0:0:
192,192,103783,1,0,0:0:0:0:
320,192,103867,1,0,0:0:0:0:
64,192,103952,1,0,0:0:0:0:
448,192,103952,1,0,0:0:0:0:
192,192,104036,1,0,0:0:0:0:
448,192,104120,1,0,0:0:0:0:
64,192,104120,1,0,0:0:0:0:
192,192,104204,1,0,0:0:0:0:
320,192,104289,1,0,0:0:0:0:
448,192,104373,1,0,0:0:0:0:
64,192,104457,1,0,0:0:0:0:
192,192,104457,1,0,0:0:0:0:
448,192,104541,1,0,0:0:0:0:
64,192,104626,1,0,0:0:0:0:
192,192,104626,1,0,0:0:0:0:
320,192,104682,1,0,0:0:0:0:
448,192,104738,1,0,0:0:0:0:
192,192,104794,1,0,0:0:0:0:
320,192,104850,1,0,0:0:0:0:
64,192,104907,1,0,0:0:0:0:
192,192,104963,1,0,0:0:0:0:
448,192,105019,1,0,0:0:0:0:
320,192,105075,1,0,0:0:0:0:
192,192,105131,1,0,0:0:0:0:
64,192,105187,1,0,0:0:0:0:
320,192,105244,1,0,0:0:0:0:
192,192,105300,1,0,0:0:0:0:
448,192,105300,1,0,0:0:0:0:
64,192,105384,1,0,0:0:0:0:
320,192,105468,1,0,0:0:0:0:
448,192,105553,1,0,0:0:0:0:
192,192,105637,1,0,0:0:0:0:
320,192,105721,1,0,0:0:0:0:
64,192,105805,1,0,0:0:0:0:
320,192,105890,1,0,0:0:0:0:
448,192,105974,1,0,0:0:0:0:
192,192,105974,1,0,0:0:0:0:
64,192,106058,1,0,0:0:0:0:
448,192,106143,1,0,0:0:0:0:
192,192,106143,1,0,0:0:0:0:
64,192,106227,1,0,0:0:0:0:
448,192,106311,1,0,0:0:0:0:
192,192,106311,1,0,0:0:0:0:
320,192,106395,1,0,0:0:0:0:
192,192,106480,1,0,0:0:0:0:
64,192,106480,1,0,0:0:0:0:
320,192,106564,1,0,0:0:0:0:
192,192,106648,1,0,0:0:0:0:
64,192,106648,1,0,0:0:0:0:
448,192,106732,1,0,0:0:0:0:
64,192,106817,1,0,0:0:0:0:
192,192,106817,1,0,0:0:0:0:
320,192,106901,1,0,0:0:0:0:
448,192,106985,1,0,0:0:0:0:
64,192,107070,1,0,0:0:0:0:
320,192,107154,1,0,0:0:0:0:
448,192,107154,1,0,0:0:0:0:
64,192,107238,1,0,0:0:0:0:
320,192,107322,1,0,0:0:0:0:
448,192,107322,1,0,0:0:0:0:
64,192,107407,1,0,0:0:0:0:
320,192,107491,1,0,0:0:0:0:
448,192,107491,1,0,0:0:0:0:
64,192,107575,1,0,0:0:0:0:
320,192,107659,1,0,0:0:0:0:
448,192,107659,1,0,0:0:0:0:
64,192,107744,1,0,0:0:0:0:
192,192,107828,1,0,0:0:0:0:
448,192,107828,1,0,0:0:0:0:
320,192,107912,1,0,0:0:0:0:
64,192,107996,1,0,0:0:0:0:
192,192,107996,1,0,0:0:0:0:
448,192,108081,1,0,0:0:0:0:
320,192,108165,1,0,0:0:0:0:
64,192,108165,1,0,0:0:0:0:
192,192,108249,1,0,0:0:0:0:
448,192,108334,1,0,0:0:0:0:
192,192,108418,1,0,0:0:0:0:
448,192,108502,1,0,0:0:0:0:
320,192,108502,1,0,0:0:0:0:
64,192,108586,1,0,0:0:0:0:
320,192,108671,1,0,0:0:0:0:
448,192,108671,1,0,0:0:0:0:
192,192,108755,1,0,0:0:0:0:
64,192,108839,1,0,0:0:0:0:
448,192,108839,1,0,0:0:0:0:
320,192,108895,1,0,0:0:0:0:
192,192,108952,1,0,0:0:0:0:
64,192,109008,1,0,0:0:0:0:
320,192,109064,1,0,0:0:0:0:
448,192,109120,1,0,0:0:0:0:
192,192,109176,1,0,0:0:0:0:
320,192,109232,1,0,0:0:0:0:
64,192,109289,1,0,0:0:0:0:
192,192,109345,1,0,0:0:0:0:
448,192,109345,1,0,0:0:0:0:
320,192,109429,1,0,0:0:0:0:
192,192,109513,1,0,0:0:0:0:
64,192,109598,1,0,0:0:0:0:
320,192,109682,1,0,0:0:0:0:
192,192,109766,1,0,0:0:0:0:
448,192,109850,1,0,0:0:0:0:
320,192,109935,1,0,0:0:0:0:
64,192,110019,1,0,0:0:0:0:
192,192,110103,1,0,0:0:0:0:
448,192,110187,1,0,0:0:0:0:
320,192,110272,1,0,0:0:0:0:
192,192,110356,1,0,0:0:0:0:
64,192,110440,1,0,0:0:0:0:
448,192,110525,1,0,0:0:0:0:
320,192,110609,1,0,0:0:0:0:
448,192,110693,1,0,0:0:0:0:
320,192,110777,1,0,0:0:0:0:
64,192,110862,1,0,0:0:0:0:
192,192,110946,1,0,0:0:0:0:
64,192,111030,1,0,0:0:0:0:
192,192,111114,1,0,0:0:0:0:
448,192,111199,1,0,0:0:0:0:
320,192,111283,1,0,0:0:0:0:
448,192,111367,1,0,0:0:0:0:
320,192,111452,1,0,0:0:0:0:
192,192,111536,1,0,0:0:0:0:
64,192,111536,1,0,0:0:0:0:
448,192,111620,1,0,0:0:0:0:
64,192,111704,1,0,0:0:0:0:
192,192,111704,1,0,0:0:0:0:
320,192,111789,1,0,0:0:0:0:
448,192,111873,1,0,0:0:0:0:
192,192,111873,1,0,0:0:0:0:
64,192,111957,1,0,0:0:0:0:
320,192,112041,1,0,0:0:0:0:
448,192,112041,1,0,0:0:0:0:
192,192,112126,1,0,0:0:0:0:
64,192,112210,1,0,0:0:0:0:
320,192,112210,1,0,0:0:0:0:
448,192,112294,1,0,0:0:0:0:
192,192,112378,1,0,0:0:0:0:
320,192,112463,1,0,0:0:0:0:
64,192,112547,1,0,0:0:0:0:
192,192,112547,1,0,0:0:0:0:
320,192,112631,1,0,0:0:0:0:
448,192,112716,5,0,0:0:0:0:
64,192,112716,1,0,0:0:0:0:
192,192,112800,1,0,0:0:0:0:
320,192,112884,1,0,0:0:0:0:
448,192,112968,1,0,0:0:0:0:
64,192,113053,5,0,0:0:0:0:
192,192,113053,1,0,0:0:0:0:
448,192,113137,5,0,0:0:0:0:
320,192,113221,5,0,0:0:0:0:
64,192,113221,1,0,0:0:0:0:
192,192,113305,5,0,0:0:0:0:
320,192,113390,5,0,0:0:0:0:
448,192,113390,1,0,0:0:0:0:
64,192,113474,1,0,0:0:0:0:
320,192,113558,1,0,0:0:0:0:
448,192,113558,1,0,0:0:0:0:
320,192,113895,5,0,0:0:0:0:
192,192,114064,1,0,0:0:0:0:
64,192,114401,1,0,0:0:0:0:
192,192,114401,1,0,0:0:0:0:
320,192,114485,1,0,0:0:0:0:
448,192,114570,1,0,0:0:0:0:
192,192,114654,1,0,0:0:0:0:
320,192,114738,1,0,0:0:0:0:
64,192,114738,1,0,0:0:0:0:
448,192,114822,1,0,0:0:0:0:
192,192,114907,1,0,0:0:0:0:
64,192,114991,1,0,0:0:0:0:
320,192,115075,1,0,0:0:0:0:
448,192,115075,1,0,0:0:0:0:
192,192,115159,1,0,0:0:0:0:
64,192,115244,1,0,0:0:0:0:
448,192,115328,1,0,0:0:0:0:
192,192,115412,1,0,0:0:0:0:
320,192,115412,1,0,0:0:0:0:
448,192,115496,1,0,0:0:0:0:
64,192,115581,1,0,0:0:0:0:
192,192,115665,1,0,0:0:0:0:
320,192,115749,1,0,0:0:0:0:
448,192,115749,1,0,0:0:0:0:
192,192,115834,1,0,0:0:0:0:
320,192,115918,1,0,0:0:0:0:
448,192,116002,1,0,0:0:0:0:
192,192,116086,1,0,0:0:0:0:
64,192,116086,1,0,0:0:0:0:
320,192,116171,1,0,0:0:0:0:
64,192,116255,1,0,0:0:0:0:
448,192,116339,1,0,0:0:0:0:
192,192,116423,1,0,0:0:0:0:
320,192,116423,1,0,0:0:0:0:
64,192,116508,1,0,0:0:0:0:
320,192,116592,1,0,0:0:0:0:
448,192,116592,1,0,0:0:0:0:
64,192,116676,1,0,0:0:0:0:
320,192,116761,1,0,0:0:0:0:
448,192,116761,1,0,0:0:0:0:
192,192,116845,1,0,0:0:0:0:
64,192,116929,1,0,0:0:0:0:
320,192,117013,1,0,0:0:0:0:
192,192,117098,1,0,0:0:0:0:
448,192,117098,1,0,0:0:0:0:
64,192,117182,1,0,0:0:0:0:
320,192,117266,1,0,0:0:0:0:
64,192,117350,1,0,0:0:0:0:
448,192,117435,1,0,0:0:0:0:
320,192,117435,1,0,0:0:0:0:
192,192,117519,1,0,0:0:0:0:
64,192,117603,1,0,0:0:0:0:
320,192,117687,1,0,0:0:0:0:
192,192,117772,1,0,0:0:0:0:
448,192,117772,1,0,0:0:0:0:
64,192,117856,1,0,0:0:0:0:
192,192,117940,1,0,0:0:0:0:
320,192,118025,1,0,0:0:0:0:
448,192,118109,1,0,0:0:0:0:
64,192,118109,1,0,0:0:0:0:
192,192,118193,1,0,0:0:0:0:
320,192,118277,1,0,0:0:0:0:
64,192,118362,1,0,0:0:0:0:
192,192,118446,1,0,0:0:0:0:
448,192,118446,1,0,0:0:0:0:
320,192,118530,1,0,0:0:0:0:
192,192,118614,1,0,0:0:0:0:
64,192,118699,1,0,0:0:0:0:
320,192,118783,1,0,0:0:0:0:
448,192,118783,1,0,0:0:0:0:
192,192,118867,1,0,0:0:0:0:
64,192,118952,1,0,0:0:0:0:
192,192,119036,1,0,0:0:0:0:
448,192,119120,1,0,0:0:0:0:
64,192,119120,1,0,0:0:0:0:
320,192,119204,1,0,0:0:0:0:
192,192,119289,1,0,0:0:0:0:
448,192,119373,1,0,0:0:0:0:
192,192,119457,1,0,0:0:0:0:
64,192,119457,1,0,0:0:0:0:
320,192,119570,1,0,0:0:0:0:
448,192,119570,1,0,0:0:0:0:
192,192,119682,1,0,0:0:0:0:
64,192,119682,1,0,0:0:0:0:
320,192,119794,1,0,0:0:0:0:
448,192,119794,1,0,0:0:0:0:
64,192,119878,1,0,0:0:0:0:
320,192,119963,1,0,0:0:0:0:
192,192,120047,1,0,0:0:0:0:
448,192,120131,1,0,0:0:0:0:
64,192,120131,1,0,0:0:0:0:
320,192,120216,1,0,0:0:0:0:
192,192,120300,1,0,0:0:0:0:
320,192,120384,1,0,0:0:0:0:
64,192,120468,1,0,0:0:0:0:
192,192,120468,1,0,0:0:0:0:
448,192,120553,1,0,0:0:0:0:
320,192,120637,1,0,0:0:0:0:
192,192,120721,1,0,0:0:0:0:
64,192,120805,1,0,0:0:0:0:
448,192,120805,1,0,0:0:0:0:
320,192,120890,1,0,0:0:0:0:
448,192,120974,1,0,0:0:0:0:
192,192,121058,1,0,0:0:0:0:
320,192,121143,1,0,0:0:0:0:
64,192,121143,1,0,0:0:0:0:
448,192,121227,1,0,0:0:0:0:
192,192,121311,1,0,0:0:0:0:
320,192,121395,1,0,0:0:0:0:
64,192,121480,1,0,0:0:0:0:
192,192,121480,1,0,0:0:0:0:
320,192,121564,1,0,0:0:0:0:
448,192,121648,1,0,0:0:0:0:
64,192,121732,1,0,0:0:0:0:
320,192,121817,1,0,0:0:0:0:
448,192,121817,1,0,0:0:0:0:
192,192,121901,1,0,0:0:0:0:
64,192,121985,1,0,0:0:0:0:
448,192,121985,1,0,0:0:0:0:
192,192,122070,1,0,0:0:0:0:
448,192,122154,1,0,0:0:0:0:
64,192,122154,1,0,0:0:0:0:
192,192,122238,1,0,0:0:0:0:
320,192,122322,1,0,0:0:0:0:
192,192,122407,1,0,0:0:0:0:
320,192,122491,1,0,0:0:0:0:
448,192,122491,1,0,0:0:0:0:
64,192,122575,1,0,0:0:0:0:
192,192,122659,1,0,0:0:0:0:
320,192,122744,1,0,0:0:0:0:
448,192,122828,1,0,0:0:0:0:
64,192,122828,1,0,0:0:0:0:
192,192,122912,1,0,0:0:0:0:
320,192,122996,1,0,0:0:0:0:
448,192,123081,1,0,0:0:0:0:
64,192,123165,1,0,0:0:0:0:
192,192,123165,1,0,0:0:0:0:
320,192,123249,1,0,0:0:0:0:
192,192,123334,1,0,0:0:0:0:
448,192,123418,1,0,0:0:0:0:
320,192,123502,1,0,0:0:0:0:
64,192,123502,1,0,0:0:0:0:
192,192,123586,1,0,0:0:0:0:
320,192,123671,1,0,0:0:0:0:
448,192,123755,1,0,0:0:0:0:
64,192,123839,1,0,0:0:0:0:
192,192,123839,1,0,0:0:0:0:
320,192,123923,1,0,0:0:0:0:
448,192,124008,1,0,0:0:0:0:
64,192,124092,1,0,0:0:0:0:
320,192,124176,1,0,0:0:0:0:
448,192,124176,1,0,0:0:0:0:
64,192,124261,1,0,0:0:0:0:
192,192,124261,1,0,0:0:0:0:
320,192,124345,1,0,0:0:0:0:
448,192,124345,1,0,0:0:0:0:
192,192,124429,1,0,0:0:0:0:
64,192,124429,1,0,0:0:0:0:
320,192,124513,1,0,0:0:0:0:
448,192,124513,1,0,0:0:0:0:
192,192,124598,1,0,0:0:0:0:
64,192,124598,1,0,0:0:0:0:
320,192,124682,1,0,0:0:0:0:
448,192,124682,1,0,0:0:0:0:
192,192,124766,1,0,0:0:0:0:
64,192,124766,1,0,0:0:0:0:
320,192,124850,128,0,125187:0:0:0:0:
448,192,124850,128,0,125187:0:0:0:0:
64,192,125019,128,0,125187:0:0:0:0:
192,192,125019,128,0,125187:0:0:0:0:
