osu file format v14

[General]
AudioFilename: audio.mp3
AudioLeadIn: 0
PreviewTime: 90062
Countdown: 0
SampleSet: Soft
StackLeniency: 0.4
Mode: 0
LetterboxInBreaks: 0
WidescreenStoryboard: 1

[Editor]
Bookmarks: 24488,41232,52394,63180,73967,84753,90146,100933,114416
DistanceSpacing: 1
BeatDivisor: 2
GridSize: 16
TimelineZoom: 1.4

[Metadata]
Title:Yume Tourou
TitleUnicode:夢灯籠
Artist:RADWIMPS
ArtistUnicode:RADWIMPS
Creator:L3NNy
Version:Normal
Source:君の名は。
Tags:your name kimi no na wa japanese anime j-rock
BeatmapID:1967725
BeatmapSetID:936827

[Difficulty]
HPDrainRate:3.5
CircleSize:3
OverallDifficulty:4
ApproachRate:5
SliderMultiplier:1
SliderTickRate:1

[Events]
//Background and Video events
0,0,"y6.jpg",0,0
//Break Periods
//Storyboard Layer 0 (Background)
//Storyboard Layer 1 (Fail)
//Storyboard Layer 2 (Pass)
//Storyboard Layer 3 (Foreground)
//Storyboard Sound Samples

[TimingPoints]
24488,348.837209302326,4,2,1,40,1,0
52394,337.078651685393,4,2,1,70,1,0
52394,-80,4,2,1,85,0,1
54585,-80,4,2,0,85,0,1
55090,-80,4,2,1,85,0,1
59978,-80,4,2,0,85,0,1
60483,-80,4,2,1,85,0,1
63180,-100,4,2,1,50,0,0
84753,-100,4,2,1,70,0,0
90146,-80,4,2,1,85,0,1
100933,-80,4,2,1,85,0,1
113573,-80,4,2,1,85,0,0
114416,-80,4,2,1,85,0,1
116607,-80,4,2,0,85,0,1
117113,-80,4,2,1,85,0,1
122000,-80,4,2,0,85,0,1
122506,-80,4,2,1,85,0,1
125034,-80,4,2,1,85,0,0

[Colours]
Combo1 : 255,0,255
Combo2 : 17,124,255
Combo3 : 21,21,234
Combo4 : 255,128,255

[HitObjects]
25,290,24488,6,0,P|93:262|161:291,1,150,2|2,0:0|0:0,0:3:0:0:
195,324,25185,2,0,P|240:342|284:323,1,100,2|2,0:0|0:0,0:3:0:0:
357,252,25883,2,0,L|374:153,2,100,2|2|2,0:0|0:0|0:0,0:0:0:0:
447,294,26929,1,2,0:0:0:0:
469,196,27278,6,0,L|486:97,1,100,2|0,0:0|0:0,0:0:0:0:
470,49,27801,2,0,P|411:5|338:16,1,150,0|0,0:0|0:0,0:0:0:0:
268,87,28674,2,0,P|226:112|180:101,1,100,0|0,0:0|0:0,0:3:0:0:
131,82,29197,1,0,0:0:0:0:
83,63,29371,2,0,L|87:14,2,50
12,133,30069,6,0,P|-11:202|18:270,1,150,2|2,0:0|0:0,0:0:0:0:
53,306,30767,2,0,P|122:283|190:312,1,150,2|2,0:0|0:0,0:0:0:0:
236,331,31464,1,2,0:0:0:0:
326,291,31813,2,0,L|375:296,2,50,2|2|2,0:0|0:0|0:0,0:0:0:0:
255,220,32511,1,2,0:0:0:0:
325,149,32860,6,0,P|373:160|421:148,1,100,2|0,0:0|0:0,0:0:0:0:
473,62,33557,2,0,P|482:30|474:-1,2,66.6666666666667,2|2|2,0:0|0:0|0:0,0:0:0:0:
510,117,34255,1,2,0:0:0:0:
203,285,35476,1,2,0:0:0:0:
203,285,35650,6,0,P|230:191|194:100,1,200,2|2,0:0|0:0,0:0:0:0:
75,16,36871,1,2,0:0:0:0:
75,16,37046,2,0,P|47:83|74:151,1,150,2|2,0:0|0:0,0:0:0:0:
110,187,37743,1,2,0:0:0:0:
69,278,38092,1,2,0:0:0:0:
168,268,38441,6,0,P|213:250|257:269,1,100,2|0,0:0|0:0,0:3:0:0:
294,311,38964,2,0,P|362:339|430:310,1,150,0|0,0:0|0:0,0:3:0:0:
511,254,39836,2,0,B|497:104,1,150,0|0,0:0|1:0,0:0:0:0:
462,69,40534,1,2,0:0:0:0:
391,0,40883,1,2,0:0:0:0:
309,57,41232,6,0,P|260:48|214:66,1,100,2|2,0:0|0:0,0:0:0:0:
149,144,41929,1,2,0:0:0:0:
149,144,42104,2,0,P|101:156|53:144,1,100,2|2,0:0|0:0,0:0:0:0:
20,106,42627,1,2,0:0:0:0:
3,306,43325,2,0,L|-1:356,2,50,2|2|2,0:0|0:0|0:0,0:0:0:0:
31,264,43848,6,0,P|75:242|124:248,1,100,2|2,0:0|0:0,0:0:0:0:
159,283,44371,1,2,0:0:0:0:
229,353,44720,2,0,P|277:362|323:345,1,100,2|2,0:0|0:0,0:0:0:0:
359,310,45243,1,2,0:0:0:0:
392,215,45592,1,0,0:0:0:0:
392,215,45767,2,0,L|442:219,1,50,0|0,0:0|0:0,0:0:0:0:
462,173,46115,2,0,L|512:177,2,50,2|2|2,0:0|0:0|0:0,0:0:0:0:
435,129,46639,6,0,L|444:29,1,100,2|2,0:0|0:0,0:0:0:0:
402,0,47162,1,2,0:0:0:0:
304,21,47511,1,2,0:0:0:0:
304,21,47685,2,0,P|264:8|207:19,1,100,2|2,0:0|0:0,0:0:0:0:
172,53,48208,1,2,0:0:0:0:
51,212,48906,2,0,P|26:216|1:217,2,50,2|2|2,0:0|0:0|0:0,0:0:0:0:
86,247,49429,1,2,0:0:0:0:
121,282,49604,6,0,P|166:300|210:281,1,100,2|0,0:0|0:0,0:3:0:0:
294,334,50301,2,0,P|332:304|337:256,1,100,2|2,0:0|0:0,0:3:0:0:
426,210,50999,2,0,P|419:162|380:133,1,100,2|8,1:2|0:0,0:3:0:0:
329,134,51522,1,0,1:0:0:0:
329,134,51697,1,8,0:0:0:0:
45,7,52394,6,0,P|24:64|39:124,1,125,12|8,0:0|0:0,0:0:0:0:
146,189,53068,2,0,P|166:131|151:71,1,125,8|8,0:0|0:0,0:0:0:0:
256,3,53742,1,8,0:0:0:0:
360,71,54079,2,0,P|345:131|366:189,1,125,8|8,0:0|0:0,0:0:0:0:
410,233,54585,1,8,0:0:0:0:
410,233,54753,1,8,0:0:0:0:
500,319,55090,6,0,L|512:195,1,125,12|8,0:0|0:0,0:0:0:0:
420,108,55764,2,0,L|409:233,1,125,8|8,0:0|0:0,0:0:0:0:
317,146,56438,2,0,L|328:21,2,125,8|8|8,0:0|0:0|0:0,0:0:0:0:
197,185,57450,1,8,0:0:0:0:
84,238,57787,6,0,P|63:296|78:356,1,125,12|12,0:0|0:0,0:0:0:0:
191,303,58461,2,0,P|212:245|198:186,1,125,8|8,0:0|0:0,0:0:0:0:
109,96,59135,1,8,0:0:0:0:
214,28,59472,2,0,P|271:48|331:34,1,125,8|8,0:0|0:0,0:0:0:0:
389,7,59978,1,8,0:0:0:0:
389,7,60146,1,8,0:0:0:0:
389,128,60483,6,0,L|265:138,1,125,12|8,0:0|0:0,0:0:0:0:
322,223,61158,2,0,L|198:233,1,125,8|8,0:0|0:0,0:0:0:0:
131,329,61832,2,0,L|255:319,2,125,8|8|8,0:0|0:0|1:2,0:0:0:0:
28,269,62843,1,0,1:0:0:0:
28,269,63180,6,0,P|1:201|26:132,1,150.000005722046,2|2,1:2|0:0,0:0:0:0:
61,96,63854,1,2,1:2:0:0:
151,52,64191,1,2,1:2:0:0:
221,124,64528,2,0,P|270:133|316:115,2,100,2|2|2,1:2|1:2|1:2,0:0:0:0:
174,212,65540,1,2,1:2:0:0:
174,212,65708,1,2,0:0:0:0:
174,212,65877,6,0,P|166:284|210:344,1,150.000005722046,2|2,1:2|0:0,0:0:0:0:
259,356,66551,1,2,1:2:0:0:
355,382,66888,1,2,1:2:0:0:
412,301,67225,2,0,P|458:283|507:293,2,100,2|2|2,1:2|1:2|1:2,0:0:0:0:
350,223,68236,1,2,1:2:0:0:
350,223,68404,1,2,0:0:0:0:
350,223,68573,6,0,P|313:159|328:87,1,150.000005722046,2|2,1:2|0:0,0:0:0:0:
352,44,69247,2,0,L|451:53,2,100,2|2|2,1:2|1:2|1:2,0:0:0:0:
256,15,70259,1,2,1:2:0:0:
160,44,70596,2,0,L|61:53,1,100,2|0,1:2|1:0,0:0:0:0:
0,133,71270,6,0,P|-12:182|-1:230,1,100,2|2,1:2|1:2,0:0:0:0:
45,247,71776,1,2,0:0:0:0:
92,261,71944,2,0,P|104:309|92:357,1,100,2|2,1:2|1:2,0:0:0:0:
190,371,72618,2,0,P|238:383|286:371,1,100,2|2,1:2|1:2,0:0:0:0:
321,335,73124,1,2,0:0:0:0:
356,299,73292,2,0,P|404:286|452:298,1,100,2|2,1:2|1:2,0:0:0:0:
511,217,73967,6,0,B|539:145|483:145|511:69,1,150.000005722046,6|2,1:2|0:0,0:0:0:0:
498,22,74641,2,0,P|449:10|401:22,1,100,2|2,1:2|1:2,0:0:0:0:
304,0,75315,2,0,P|261:25|236:67,1,100,2|2,1:2|1:2,0:0:0:0:
151,121,75989,2,0,P|139:169|150:216,1,100,2|2,1:2|1:2,0:0:0:0:
239,169,76663,6,0,P|308:193|342:258,1,150.000005722046,2|2,1:2|0:0,0:0:0:0:
381,291,77337,2,0,P|429:297|476:281,1,100,2|2,1:2|1:2,0:0:0:0:
445,186,78011,2,0,P|474:146|484:98,1,100,2|2,1:2|1:2,0:0:0:0:
385,78,78686,2,0,P|365:31|328:0,1,100,2|2,1:2|1:2,0:0:0:0:
258,70,79360,6,0,L|109:97,1,150,2|2,1:2|0:0,0:0:0:0:
94,144,80034,2,0,P|82:192|94:240,1,100,2|2,1:2|1:2,0:0:0:0:
190,269,80708,2,0,P|201:317|189:365,2,100,2|2|2,1:2|1:2|1:2,0:0:0:0:
256,192,81719,1,0,1:0:0:0:
322,269,82056,6,0,B|310:317|310:317|322:365,1,100,2|2,1:2|1:2,0:0:0:0:
410,317,82731,2,0,B|421:268|421:268|409:220,1,100,2|2,1:2|1:2,0:0:0:0:
324,170,83405,2,0,B|312:121|312:121|324:73,2,100,2|2|10,1:2|1:2|0:0,0:0:0:0:
411,121,84416,1,10,0:0:0:0:
485,195,84753,5,6,1:2:0:0:
485,195,84922,1,0,1:0:0:0:
485,195,85090,2,0,B|497:243|497:243|486:292,1,100,4|12,0:0|0:0,0:0:0:0:
415,362,85764,2,0,L|366:349,1,50,4|0,1:2|1:0,0:0:0:0:
342,305,86101,2,0,B|294:293|294:293|245:304,1,100,4|4,0:0|0:0,0:0:0:0:
146,322,86776,1,8,0:0:0:0:
146,322,86944,2,0,B|102:329|102:329|84:320|84:320|49:326,1,100,4|0,0:0|0:0,0:3:0:0:
29,280,87450,5,4,1:2:0:0:
20,230,87619,1,0,1:0:0:0:
11,181,87787,2,0,B|0:132|0:132|10:83,1,100,4|12,0:0|0:0,0:0:0:0:
88,21,88461,2,0,L|136:8,1,50,4|8,1:2|0:0,0:0:0:0:
171,43,88798,2,0,B|219:31|219:31|268:42,1,100,4|8,1:2|0:0,0:0:0:0:
318,42,89304,1,0,1:0:0:0:
367,42,89472,2,0,B|416:53|416:53|464:41,1,100,8|0,0:0|1:0,0:0:0:0:
457,168,90146,6,0,P|492:217|493:279,1,125,6|10,1:2|0:0,0:0:0:0:
376,316,90820,2,0,P|340:364|281:384,1,125,2|2,1:2|1:2,0:0:0:0:
231,345,91326,1,8,0:0:0:0:
211,285,91495,2,0,P|153:265|116:216,1,125,2|10,1:2|0:0,0:0:0:0:
189,118,92169,2,0,P|189:57|225:7,1,125,2|2,1:2|1:2,0:0:0:0:
341,45,92843,6,0,P|399:27|458:45,1,125,2|8,1:2|0:0,0:0:0:0:
487,101,93349,1,2,0:0:0:0:
510,158,93517,2,0,P|453:181|392:168,1,125,2|0,1:2|1:0,0:0:0:0:
333,148,94023,1,10,0:0:0:0:
274,127,94191,2,0,B|194:131|156:189|266:277|116:395|15:342,1,375,2|2,1:2|1:2,0:0:0:0:
65,231,95540,6,0,P|27:183|23:122,1,125,6|10,1:2|0:0,0:0:0:0:
138,80,96214,2,0,P|171:29|228:6,1,125,2|2,1:2|1:2,0:0:0:0:
276,46,96719,1,8,0:0:0:0:
304,102,96889,2,0,P|362:118|402:165,1,125,2|10,1:2|0:0,0:0:0:0:
335,267,97563,2,0,P|337:327|304:379,1,125,2|2,1:2|1:2,0:0:0:0:
187,348,98237,6,0,P|130:369|70:354,1,125,2|8,1:2|0:0,0:0:0:0:
27,302,98742,1,2,0:0:0:0:
0,245,98910,2,0,P|57:224|116:241,1,125,2|0,1:2|1:0,0:0:0:0:
161,285,99416,1,10,0:0:0:0:
161,285,99585,1,2,1:2:0:0:
329,365,100090,1,8,3:0:0:0:
329,365,100259,2,0,P|387:383|446:365,1,125,2|2,1:2|1:2,0:0:0:0:
386,255,100933,6,0,P|369:194|386:136,1,125,2|10,1:2|0:0,0:0:0:0:
386,73,101438,2,0,P|325:89|267:73,1,125,2|2,0:0|0:0,0:0:0:0:
222,28,101944,1,2,1:2:0:0:
99,51,102281,2,0,P|82:111|99:169,1,125,2|8,1:2|0:0,0:0:0:0:
187,258,102955,1,2,1:2:0:0:
98,346,103292,1,2,1:2:0:0:
218,380,103629,6,0,L|342:373,1,125,2|10,1:2|0:0,0:0:0:0:
363,315,104135,2,0,L|487:308,1,125,2|2,0:0|0:0,0:0:0:0:
512,251,104641,1,2,1:2:0:0:
488,128,104978,2,0,L|363:121,1,125,0|8,1:0|0:0,0:0:0:0:
293,17,105652,1,8,3:0:0:0:
238,130,105989,1,10,3:0:0:0:
168,26,106326,6,0,P|107:9|49:26,1,125,6|10,1:2|0:0,0:0:0:0:
4,70,106832,2,0,L|14:194,1,125,2|2,0:2|0:0,0:0:0:0:
58,238,107337,1,2,1:2:0:0:
146,326,107674,6,0,P|207:343|265:326,1,125,2|10,1:2|0:0,0:0:0:0:
309,281,108180,2,0,L|433:291,1,125,2|10,0:2|0:0,0:0:0:0:
477,247,108686,1,2,1:2:0:0:
388,158,109023,6,0,P|327:141|269:158,1,125,4|8,1:2|0:0,0:0:0:0:
158,100,109697,2,0,P|142:160|158:220,1,125,0|0,1:0|1:0,0:0:0:0:
98,329,110371,2,0,P|158:346|218:330,2,125,0|8|0,1:0|3:0|1:0,0:0:0:0:
158,219,111383,1,8,3:0:0:0:
284,223,111719,6,0,P|344:206|402:223,1,125,6|10,1:2|0:0,0:0:0:0:
458,252,112225,2,0,P|474:191|458:133,1,125,2|2,0:0|1:2,0:0:0:0:
464,70,112731,1,2,1:2:0:0:
344,34,113068,2,0,P|283:50|225:34,1,125,2|10,1:2|0:0,0:0:0:0:
169,61,113573,1,2,1:2:0:0:
45,358,114416,6,0,P|24:301|39:241,1,125,12|8,0:0|0:0,0:0:0:0:
146,176,115090,2,0,P|166:234|151:294,1,125,8|8,0:0|0:0,0:0:0:0:
256,362,115764,1,8,0:0:0:0:
360,294,116101,2,0,P|345:234|366:176,1,125,8|8,0:0|0:0,0:0:0:0:
410,132,116607,1,8,0:0:0:0:
410,132,116775,1,8,0:0:0:0:
500,46,117112,6,0,L|512:170,1,125,12|8,0:0|0:0,0:0:0:0:
420,257,117786,2,0,L|409:132,1,125,8|8,0:0|0:0,0:0:0:0:
317,219,118460,2,0,L|328:344,2,125,8|8|8,0:0|0:0|0:0,0:0:0:0:
197,180,119472,1,8,0:0:0:0:
84,127,119809,6,0,P|63:69|78:9,1,125,12|12,0:0|0:0,0:0:0:0:
191,62,120483,2,0,P|212:120|198:179,1,125,8|8,0:0|0:0,0:0:0:0:
109,269,121157,1,8,0:0:0:0:
214,337,121494,2,0,P|271:317|331:331,1,125,8|8,0:0|0:0,0:0:0:0:
389,358,122000,1,8,0:0:0:0:
389,358,122168,1,8,0:0:0:0:
389,234,122505,6,0,L|265:224,1,125,12|8,0:0|0:0,0:0:0:0:
322,139,123180,2,0,L|198:129,1,125,8|8,0:0|0:0,0:0:0:0:
131,33,123854,2,0,L|255:43,2,125,8|8|8,0:0|0:0|1:2,0:0:0:0:
42,121,124865,1,0,1:0:0:0:
42,121,125034,1,8,0:0:0:0:
