osu file format v14

[General]
AudioFilename: audio1.mp3
AudioLeadIn: 0
PreviewTime: 25142
Countdown: 0
SampleSet: Soft
StackLeniency: 0.7
Mode: 3
LetterboxInBreaks: 0
SpecialStyle: 0
WidescreenStoryboard: 0

[Editor]
DistanceSpacing: 0.6
BeatDivisor: 4
GridSize: 32
TimelineZoom: 1.4

[Metadata]
Title:Tenki no Ko Series Pack
TitleUnicode:Tenki no Ko Series Pack
Artist:RADWIMPS
ArtistUnicode:RADWIMPS
Creator:ATing
Version:Grand Escape feat. Toko Miura
Source:天気の子
Tags:Grand Escape feat. Toko Miura
BeatmapID:2177400
BeatmapSetID:1041849

[Difficulty]
HPDrainRate:8
CircleSize:4
OverallDifficulty:8
ApproachRate:5
SliderMultiplier:1.4
SliderTickRate:1

[Events]
//Background and Video events
0,0,"ten kinoko.jpg",0,0
//Break Periods
//Storyboard Layer 0 (Background)
//Storyboard Layer 1 (Fail)
//Storyboard Layer 2 (Pass)
//Storyboard Layer 3 (Foreground)
//Storyboard Layer 4 (Overlay)
//Storyboard Sound Samples

[TimingPoints]
485,410.958904109589,4,2,0,13,1,0

[HitObjects]
448,192,485,5,0,0:0:0:0:
192,192,690,1,0,0:0:0:0:
448,192,2539,1,0,0:0:0:0:
192,192,2745,1,0,0:0:0:0:
448,192,3772,1,0,0:0:0:0:
192,192,3978,1,0,0:0:0:0:
448,192,5827,1,0,0:0:0:0:
192,192,6032,1,0,0:0:0:0:
448,192,7060,128,0,7163:0:0:0:0:
192,192,7265,1,0,0:0:0:0:
320,192,7368,128,0,7471:0:0:0:0:
64,192,7676,128,0,7779:0:0:0:0:
448,192,7882,128,0,7984:0:0:0:0:
192,192,8190,128,0,8293:0:0:0:0:
320,192,8498,128,0,8601:0:0:0:0:
64,192,8704,128,0,8806:0:0:0:0:
320,192,9012,128,0,9115:0:0:0:0:
192,192,9320,128,0,9423:0:0:0:0:
448,192,9526,128,0,9628:0:0:0:0:
64,192,9731,1,0,0:0:0:0:
320,192,9834,128,0,9937:0:0:0:0:
192,192,10142,128,0,10245:0:0:0:0:
448,192,10348,128,0,10450:0:0:0:0:
192,192,10553,1,0,0:0:0:0:
320,192,10656,128,0,10758:0:0:0:0:
64,192,10964,128,0,11067:0:0:0:0:
448,192,11169,128,0,11272:0:0:0:0:
192,192,11478,128,0,11580:0:0:0:0:
320,192,11786,128,0,11889:0:0:0:0:
64,192,11991,1,0,0:0:0:0:
192,192,12197,1,0,0:0:0:0:
320,192,12402,1,0,0:0:0:0:
64,192,12608,1,0,0:0:0:0:
192,192,12813,1,0,0:0:0:0:
320,192,13019,1,0,0:0:0:0:
64,192,13224,1,0,0:0:0:0:
192,192,13430,1,0,0:0:0:0:
320,192,13635,1,0,0:0:0:0:
64,192,13841,1,0,0:0:0:0:
448,192,14046,1,0,0:0:0:0:
192,192,14252,1,0,0:0:0:0:
64,192,14457,1,0,0:0:0:0:
320,192,14663,1,0,0:0:0:0:
192,192,14868,1,0,0:0:0:0:
448,192,15074,1,0,0:0:0:0:
64,192,15279,1,0,0:0:0:0:
192,192,15485,1,0,0:0:0:0:
320,192,15690,1,0,0:0:0:0:
64,192,15895,1,0,0:0:0:0:
192,192,16101,1,0,0:0:0:0:
320,192,16306,1,0,0:0:0:0:
64,192,16512,1,0,0:0:0:0:
192,192,16717,1,0,0:0:0:0:
320,192,16923,1,0,0:0:0:0:
64,192,17128,1,0,0:0:0:0:
192,192,17334,1,0,0:0:0:0:
448,192,17539,1,0,0:0:0:0:
64,192,17745,1,0,0:0:0:0:
320,192,17950,1,0,0:0:0:0:
192,192,18156,128,0,18567:0:0:0:0:
448,192,18567,1,0,0:0:0:0:
320,192,18772,1,0,0:0:0:0:
192,192,18978,1,0,0:0:0:0:
448,192,19183,1,0,0:0:0:0:
320,192,19389,1,0,0:0:0:0:
192,192,19594,1,0,0:0:0:0:
448,192,19800,1,0,0:0:0:0:
320,192,20005,1,0,0:0:0:0:
192,192,20211,1,0,0:0:0:0:
448,192,20416,1,0,0:0:0:0:
320,192,20621,1,0,0:0:0:0:
64,192,20827,1,0,0:0:0:0:
448,192,21032,1,0,0:0:0:0:
320,192,21238,1,0,0:0:0:0:
192,192,21443,1,0,0:0:0:0:
64,192,21649,1,0,0:0:0:0:
448,192,21854,1,0,0:0:0:0:
320,192,22060,1,0,0:0:0:0:
192,192,22265,1,0,0:0:0:0:
448,192,22471,1,0,0:0:0:0:
320,192,22676,1,0,0:0:0:0:
192,192,22882,1,0,0:0:0:0:
448,192,23087,1,0,0:0:0:0:
320,192,23293,1,0,0:0:0:0:
192,192,23498,1,0,0:0:0:0:
448,192,23704,1,0,0:0:0:0:
192,192,23909,1,0,0:0:0:0:
64,192,24115,1,0,0:0:0:0:
448,192,24320,1,0,0:0:0:0:
192,192,24526,1,0,0:0:0:0:
320,192,24731,128,0,25142:0:0:0:0:
64,192,25142,1,0,0:0:0:0:
192,192,25348,1,0,0:0:0:0:
448,192,25450,1,0,0:0:0:0:
320,192,25553,1,0,0:0:0:0:
64,192,25758,1,0,0:0:0:0:
448,192,25861,1,0,0:0:0:0:
192,192,25964,1,0,0:0:0:0:
320,192,26169,1,0,0:0:0:0:
64,192,26375,1,0,0:0:0:0:
448,192,26478,1,0,0:0:0:0:
192,192,26580,1,0,0:0:0:0:
320,192,26786,1,0,0:0:0:0:
64,192,26991,1,0,0:0:0:0:
448,192,27094,1,0,0:0:0:0:
192,192,27197,1,0,0:0:0:0:
320,192,27402,1,0,0:0:0:0:
64,192,27505,1,0,0:0:0:0:
320,192,27608,1,0,0:0:0:0:
448,192,27813,1,0,0:0:0:0:
320,192,28019,1,0,0:0:0:0:
192,192,28121,1,0,0:0:0:0:
448,192,28224,1,0,0:0:0:0:
320,192,28327,1,0,0:0:0:0:
64,192,28430,1,0,0:0:0:0:
192,192,28635,1,0,0:0:0:0:
448,192,28738,1,0,0:0:0:0:
320,192,28841,1,0,0:0:0:0:
64,192,29046,1,0,0:0:0:0:
448,192,29149,1,0,0:0:0:0:
192,192,29252,1,0,0:0:0:0:
320,192,29457,1,0,0:0:0:0:
64,192,29663,1,0,0:0:0:0:
448,192,29765,1,0,0:0:0:0:
192,192,29868,1,0,0:0:0:0:
320,192,30074,1,0,0:0:0:0:
64,192,30279,1,0,0:0:0:0:
448,192,30382,1,0,0:0:0:0:
320,192,30484,1,0,0:0:0:0:
192,192,30690,1,0,0:0:0:0:
320,192,30793,1,0,0:0:0:0:
192,192,30895,1,0,0:0:0:0:
448,192,31101,1,0,0:0:0:0:
192,192,31306,1,0,0:0:0:0:
320,192,31409,1,0,0:0:0:0:
64,192,31512,1,0,0:0:0:0:
192,192,31615,1,0,0:0:0:0:
448,192,31717,1,0,0:0:0:0:
320,192,31923,1,0,0:0:0:0:
64,192,32026,1,0,0:0:0:0:
192,192,32128,1,0,0:0:0:0:
448,192,32334,1,0,0:0:0:0:
64,192,32437,1,0,0:0:0:0:
320,192,32539,1,0,0:0:0:0:
192,192,32745,1,0,0:0:0:0:
448,192,32950,1,0,0:0:0:0:
64,192,33053,1,0,0:0:0:0:
320,192,33156,1,0,0:0:0:0:
192,192,33361,1,0,0:0:0:0:
448,192,33567,1,0,0:0:0:0:
192,192,33669,1,0,0:0:0:0:
320,192,33772,1,0,0:0:0:0:
64,192,33978,1,0,0:0:0:0:
448,192,34080,1,0,0:0:0:0:
64,192,34183,1,0,0:0:0:0:
320,192,34389,1,0,0:0:0:0:
192,192,34594,1,0,0:0:0:0:
320,192,34697,1,0,0:0:0:0:
64,192,34800,1,0,0:0:0:0:
192,192,34902,1,0,0:0:0:0:
448,192,35005,1,0,0:0:0:0:
320,192,35211,1,0,0:0:0:0:
64,192,35313,1,0,0:0:0:0:
192,192,35416,1,0,0:0:0:0:
448,192,35621,1,0,0:0:0:0:
64,192,35724,1,0,0:0:0:0:
320,192,35827,1,0,0:0:0:0:
192,192,36032,1,0,0:0:0:0:
448,192,36238,1,0,0:0:0:0:
64,192,36341,1,0,0:0:0:0:
320,192,36443,1,0,0:0:0:0:
192,192,36649,1,0,0:0:0:0:
448,192,36854,1,0,0:0:0:0:
192,192,36957,1,0,0:0:0:0:
320,192,37060,1,0,0:0:0:0:
64,192,37265,1,0,0:0:0:0:
448,192,37368,1,0,0:0:0:0:
64,192,37471,1,0,0:0:0:0:
320,192,37676,1,0,0:0:0:0:
192,192,37882,1,0,0:0:0:0:
448,192,37984,1,0,0:0:0:0:
64,192,38087,1,0,0:0:0:0:
320,192,38190,1,0,0:0:0:0:
192,192,38293,1,0,0:0:0:0:
320,192,38498,1,0,0:0:0:0:
64,192,38601,1,0,0:0:0:0:
448,192,38704,1,0,0:0:0:0:
192,192,38909,1,0,0:0:0:0:
64,192,39012,1,0,0:0:0:0:
320,192,39115,1,0,0:0:0:0:
448,192,39320,1,0,0:0:0:0:
192,192,39526,1,0,0:0:0:0:
64,192,39628,1,0,0:0:0:0:
320,192,39731,1,0,0:0:0:0:
448,192,39937,1,0,0:0:0:0:
192,192,40142,1,0,0:0:0:0:
64,192,40245,1,0,0:0:0:0:
320,192,40348,1,0,0:0:0:0:
192,192,40553,1,0,0:0:0:0:
448,192,40656,1,0,0:0:0:0:
192,192,40758,1,0,0:0:0:0:
320,192,40964,1,0,0:0:0:0:
192,192,41169,1,0,0:0:0:0:
448,192,41272,1,0,0:0:0:0:
64,192,41375,1,0,0:0:0:0:
320,192,41478,1,0,0:0:0:0:
64,192,41580,1,0,0:0:0:0:
192,192,41786,1,0,0:0:0:0:
448,192,41889,1,0,0:0:0:0:
320,192,41991,1,0,0:0:0:0:
64,192,42197,1,0,0:0:0:0:
448,192,42300,1,0,0:0:0:0:
192,192,42402,1,0,0:0:0:0:
320,192,42608,1,0,0:0:0:0:
64,192,42813,1,0,0:0:0:0:
448,192,42916,1,0,0:0:0:0:
192,192,43019,1,0,0:0:0:0:
320,192,43224,1,0,0:0:0:0:
64,192,43430,1,0,0:0:0:0:
192,192,43532,1,0,0:0:0:0:
448,192,43635,1,0,0:0:0:0:
320,192,43841,1,0,0:0:0:0:
192,192,43943,1,0,0:0:0:0:
320,192,44046,1,0,0:0:0:0:
64,192,44252,1,0,0:0:0:0:
320,192,44457,1,0,0:0:0:0:
192,192,44560,1,0,0:0:0:0:
448,192,44663,1,0,0:0:0:0:
320,192,44765,1,0,0:0:0:0:
64,192,44868,1,0,0:0:0:0:
192,192,45074,1,0,0:0:0:0:
448,192,45176,1,0,0:0:0:0:
320,192,45279,1,0,0:0:0:0:
64,192,45484,1,0,0:0:0:0:
448,192,45587,1,0,0:0:0:0:
192,192,45690,1,0,0:0:0:0:
320,192,45895,1,0,0:0:0:0:
64,192,46101,1,0,0:0:0:0:
448,192,46204,1,0,0:0:0:0:
192,192,46306,1,0,0:0:0:0:
320,192,46512,1,0,0:0:0:0:
64,192,46717,1,0,0:0:0:0:
192,192,46820,1,0,0:0:0:0:
448,192,46923,1,0,0:0:0:0:
320,192,47128,1,0,0:0:0:0:
64,192,47231,1,0,0:0:0:0:
320,192,47334,1,0,0:0:0:0:
192,192,47539,1,0,0:0:0:0:
320,192,47745,1,0,0:0:0:0:
448,192,47848,1,0,0:0:0:0:
192,192,47950,1,0,0:0:0:0:
320,192,48053,1,0,0:0:0:0:
64,192,48156,1,0,0:0:0:0:
448,192,48156,128,0,48258:0:0:0:0:
320,192,48361,128,0,48464:0:0:0:0:
192,192,48567,128,0,48669:0:0:0:0:
448,192,48772,128,0,48875:0:0:0:0:
64,192,48978,1,0,0:0:0:0:
320,192,48978,128,0,49080:0:0:0:0:
192,192,49183,128,0,49286:0:0:0:0:
448,192,49389,128,0,49491:0:0:0:0:
320,192,49594,128,0,49697:0:0:0:0:
64,192,49800,1,0,0:0:0:0:
192,192,49800,128,0,49902:0:0:0:0:
448,192,50005,128,0,50108:0:0:0:0:
320,192,50211,128,0,50313:0:0:0:0:
64,192,50416,128,0,50519:0:0:0:0:
192,192,50621,128,0,50724:0:0:0:0:
448,192,50827,128,0,50930:0:0:0:0:
64,192,51032,128,0,51443:0:0:0:0:
448,192,51443,1,0,0:0:0:0:
320,192,51443,128,0,51546:0:0:0:0:
192,192,51649,128,0,51752:0:0:0:0:
64,192,51854,128,0,51957:0:0:0:0:
320,192,52060,128,0,52163:0:0:0:0:
448,192,52265,1,0,0:0:0:0:
192,192,52265,128,0,52368:0:0:0:0:
64,192,52471,128,0,52574:0:0:0:0:
320,192,52676,128,0,52779:0:0:0:0:
192,192,52882,128,0,52984:0:0:0:0:
448,192,53087,1,0,0:0:0:0:
64,192,53087,128,0,53190:0:0:0:0:
320,192,53293,128,0,53395:0:0:0:0:
192,192,53498,128,0,53601:0:0:0:0:
448,192,53704,128,0,53806:0:0:0:0:
64,192,53909,128,0,54012:0:0:0:0:
192,192,54115,128,0,54217:0:0:0:0:
320,192,54320,128,0,54423:0:0:0:0:
448,192,54526,128,0,54628:0:0:0:0:
64,192,54731,1,0,0:0:0:0:
192,192,54731,128,0,54834:0:0:0:0:
320,192,54937,128,0,55039:0:0:0:0:
448,192,55142,128,0,55245:0:0:0:0:
192,192,55348,128,0,55450:0:0:0:0:
64,192,55553,1,0,0:0:0:0:
320,192,55553,128,0,55656:0:0:0:0:
448,192,55758,128,0,55861:0:0:0:0:
192,192,55964,128,0,56067:0:0:0:0:
320,192,56169,128,0,56272:0:0:0:0:
64,192,56375,1,0,0:0:0:0:
448,192,56375,128,0,56478:0:0:0:0:
192,192,56580,128,0,56683:0:0:0:0:
448,192,56786,128,0,56889:0:0:0:0:
320,192,56991,128,0,57094:0:0:0:0:
192,192,57197,128,0,57300:0:0:0:0:
448,192,57402,128,0,57505:0:0:0:0:
64,192,57608,128,0,58019:0:0:0:0:
320,192,58019,1,0,0:0:0:0:
448,192,58019,128,0,58121:0:0:0:0:
192,192,58224,128,0,58327:0:0:0:0:
64,192,58430,128,0,58532:0:0:0:0:
448,192,58635,128,0,58738:0:0:0:0:
320,192,58841,1,0,0:0:0:0:
192,192,58841,128,0,58943:0:0:0:0:
64,192,59046,128,0,59149:0:0:0:0:
448,192,59252,128,0,59354:0:0:0:0:
320,192,59457,128,0,59560:0:0:0:0:
192,192,59663,1,0,0:0:0:0:
64,192,59663,128,0,59765:0:0:0:0:
448,192,59868,128,0,59971:0:0:0:0:
320,192,60074,128,0,60176:0:0:0:0:
64,192,60279,128,0,60382:0:0:0:0:
192,192,60484,128,0,60587:0:0:0:0:
320,192,60690,128,0,60793:0:0:0:0:
64,192,60895,128,0,60998:0:0:0:0:
192,192,61101,128,0,61204:0:0:0:0:
64,192,61306,1,0,0:0:0:0:
448,192,61306,128,0,61409:0:0:0:0:
320,192,61512,128,0,61615:0:0:0:0:
192,192,61717,128,0,61820:0:0:0:0:
448,192,61923,128,0,62026:0:0:0:0:
64,192,62128,1,0,0:0:0:0:
320,192,62128,128,0,62231:0:0:0:0:
192,192,62334,128,0,62437:0:0:0:0:
448,192,62539,128,0,62642:0:0:0:0:
320,192,62745,128,0,62848:0:0:0:0:
64,192,62950,1,0,0:0:0:0:
192,192,62950,128,0,63053:0:0:0:0:
448,192,63156,128,0,63258:0:0:0:0:
320,192,63361,128,0,63464:0:0:0:0:
64,192,63567,128,0,63669:0:0:0:0:
192,192,63772,128,0,63875:0:0:0:0:
448,192,63978,128,0,64080:0:0:0:0:
64,192,64183,128,0,64594:0:0:0:0:
448,192,64594,1,0,0:0:0:0:
320,192,64594,128,0,64697:0:0:0:0:
192,192,64800,128,0,64902:0:0:0:0:
64,192,65005,128,0,65108:0:0:0:0:
320,192,65211,128,0,65313:0:0:0:0:
448,192,65416,1,0,0:0:0:0:
192,192,65416,128,0,65519:0:0:0:0:
64,192,65621,128,0,65724:0:0:0:0:
320,192,65827,128,0,65930:0:0:0:0:
192,192,66032,128,0,66135:0:0:0:0:
448,192,66238,1,0,0:0:0:0:
64,192,66238,128,0,66341:0:0:0:0:
320,192,66443,128,0,66546:0:0:0:0:
192,192,66649,128,0,66752:0:0:0:0:
448,192,66854,128,0,66957:0:0:0:0:
64,192,67060,128,0,67163:0:0:0:0:
192,192,67265,128,0,67368:0:0:0:0:
320,192,67471,128,0,67574:0:0:0:0:
448,192,67676,128,0,67779:0:0:0:0:
64,192,67882,1,0,0:0:0:0:
192,192,67882,128,0,67985:0:0:0:0:
320,192,68087,128,0,68190:0:0:0:0:
448,192,68293,128,0,68395:0:0:0:0:
192,192,68498,128,0,68601:0:0:0:0:
64,192,68704,1,0,0:0:0:0:
320,192,68704,128,0,68806:0:0:0:0:
448,192,68909,128,0,69012:0:0:0:0:
192,192,69115,128,0,69217:0:0:0:0:
320,192,69320,128,0,69423:0:0:0:0:
64,192,69526,1,0,0:0:0:0:
448,192,69526,128,0,69628:0:0:0:0:
192,192,69731,128,0,69834:0:0:0:0:
448,192,69937,128,0,70039:0:0:0:0:
320,192,70142,128,0,70245:0:0:0:0:
192,192,70348,128,0,70450:0:0:0:0:
448,192,70553,128,0,70656:0:0:0:0:
64,192,70758,128,0,71169:0:0:0:0:
320,192,71169,1,0,0:0:0:0:
448,192,71169,128,0,71272:0:0:0:0:
192,192,71375,128,0,71478:0:0:0:0:
64,192,71580,128,0,71683:0:0:0:0:
448,192,71786,128,0,71889:0:0:0:0:
192,192,71991,1,0,0:0:0:0:
320,192,71991,128,0,72094:0:0:0:0:
64,192,72197,128,0,72300:0:0:0:0:
448,192,72402,128,0,72505:0:0:0:0:
320,192,72608,128,0,72711:0:0:0:0:
64,192,72813,1,0,0:0:0:0:
192,192,72813,128,0,72916:0:0:0:0:
448,192,73019,128,0,73121:0:0:0:0:
320,192,73224,128,0,73327:0:0:0:0:
64,192,73430,128,0,73532:0:0:0:0:
192,192,73635,128,0,73738:0:0:0:0:
320,192,73841,128,0,73943:0:0:0:0:
64,192,74046,128,0,74149:0:0:0:0:
192,192,74252,128,0,74354:0:0:0:0:
64,192,74457,128,0,74560:0:0:0:0:
448,192,74457,128,0,74560:0:0:0:0:
192,192,74663,128,0,74765:0:0:0:0:
320,192,74868,128,0,74971:0:0:0:0:
64,192,75074,128,0,75176:0:0:0:0:
192,192,75279,128,0,75382:0:0:0:0:
320,192,75485,128,0,75587:0:0:0:0:
64,192,75690,128,0,75793:0:0:0:0:
192,192,75895,128,0,75998:0:0:0:0:
320,192,76101,128,0,76204:0:0:0:0:
448,192,76101,128,0,76204:0:0:0:0:
64,192,76306,128,0,76409:0:0:0:0:
448,192,76512,128,0,76615:0:0:0:0:
192,192,76717,128,0,76820:0:0:0:0:
320,192,76923,128,0,77026:0:0:0:0:
64,192,76923,128,0,77026:0:0:0:0:
448,192,77128,128,0,77231:0:0:0:0:
192,192,77334,128,0,77437:0:0:0:0:
320,192,77539,128,0,77642:0:0:0:0:
64,192,77745,128,0,77848:0:0:0:0:
448,192,77745,128,0,77848:0:0:0:0:
192,192,77950,128,0,78053:0:0:0:0:
320,192,78156,128,0,78258:0:0:0:0:
64,192,78361,128,0,78464:0:0:0:0:
192,192,78567,128,0,78669:0:0:0:0:
320,192,78772,128,0,78875:0:0:0:0:
64,192,78978,128,0,79080:0:0:0:0:
192,192,79183,128,0,79286:0:0:0:0:
320,192,79389,128,0,79491:0:0:0:0:
448,192,79389,128,0,79491:0:0:0:0:
64,192,79594,128,0,79697:0:0:0:0:
448,192,79800,128,0,79902:0:0:0:0:
192,192,80005,128,0,80108:0:0:0:0:
64,192,80211,128,0,80313:0:0:0:0:
320,192,80211,128,0,80313:0:0:0:0:
448,192,80416,128,0,80519:0:0:0:0:
192,192,80621,128,0,81032:0:0:0:0:
64,192,81032,128,0,81135:0:0:0:0:
448,192,81032,128,0,81135:0:0:0:0:
320,192,81238,128,0,81341:0:0:0:0:
192,192,81443,128,0,81546:0:0:0:0:
448,192,81649,128,0,81752:0:0:0:0:
320,192,81854,128,0,81957:0:0:0:0:
192,192,82060,128,0,82163:0:0:0:0:
448,192,82265,128,0,82368:0:0:0:0:
320,192,82471,128,0,82574:0:0:0:0:
192,192,82676,128,0,82779:0:0:0:0:
64,192,82676,128,0,82779:0:0:0:0:
448,192,82882,128,0,82985:0:0:0:0:
64,192,83087,128,0,83190:0:0:0:0:
320,192,83293,128,0,83395:0:0:0:0:
192,192,83498,128,0,83601:0:0:0:0:
448,192,83498,128,0,83601:0:0:0:0:
64,192,83704,128,0,83806:0:0:0:0:
320,192,83909,128,0,84012:0:0:0:0:
192,192,84115,128,0,84217:0:0:0:0:
448,192,84320,128,0,84423:0:0:0:0:
64,192,84320,128,0,84423:0:0:0:0:
320,192,84526,128,0,84628:0:0:0:0:
192,192,84731,128,0,84834:0:0:0:0:
448,192,84937,128,0,85039:0:0:0:0:
320,192,85142,128,0,85245:0:0:0:0:
192,192,85348,128,0,85450:0:0:0:0:
448,192,85553,128,0,85656:0:0:0:0:
320,192,85758,128,0,85861:0:0:0:0:
192,192,85964,128,0,86067:0:0:0:0:
64,192,85964,128,0,86067:0:0:0:0:
448,192,86169,128,0,86272:0:0:0:0:
64,192,86375,128,0,86478:0:0:0:0:
320,192,86580,128,0,86683:0:0:0:0:
192,192,86786,128,0,86889:0:0:0:0:
448,192,86786,128,0,86889:0:0:0:0:
64,192,86991,128,0,87094:0:0:0:0:
320,192,87197,128,0,87608:0:0:0:0:
64,192,87608,128,0,87711:0:0:0:0:
192,192,87608,128,0,87711:0:0:0:0:
320,192,87813,128,0,87916:0:0:0:0:
448,192,88019,128,0,88121:0:0:0:0:
192,192,88224,128,0,88327:0:0:0:0:
320,192,88430,128,0,88532:0:0:0:0:
448,192,88635,128,0,88738:0:0:0:0:
192,192,88841,128,0,88943:0:0:0:0:
320,192,89046,128,0,89149:0:0:0:0:
448,192,89252,128,0,89354:0:0:0:0:
64,192,89252,128,0,89354:0:0:0:0:
192,192,89457,128,0,89560:0:0:0:0:
320,192,89663,128,0,89765:0:0:0:0:
64,192,89868,128,0,89971:0:0:0:0:
448,192,90074,128,0,90176:0:0:0:0:
192,192,90074,128,0,90176:0:0:0:0:
320,192,90279,128,0,90382:0:0:0:0:
64,192,90485,128,0,90587:0:0:0:0:
448,192,90690,128,0,90793:0:0:0:0:
64,192,90895,128,0,90998:0:0:0:0:
192,192,90895,128,0,90998:0:0:0:0:
320,192,91101,128,0,91204:0:0:0:0:
448,192,91306,128,0,91409:0:0:0:0:
192,192,91512,128,0,91615:0:0:0:0:
320,192,91717,128,0,91820:0:0:0:0:
448,192,91923,128,0,92026:0:0:0:0:
192,192,92128,128,0,92231:0:0:0:0:
320,192,92334,128,0,92437:0:0:0:0:
448,192,92539,128,0,92642:0:0:0:0:
64,192,92539,128,0,92642:0:0:0:0:
192,192,92745,128,0,92848:0:0:0:0:
320,192,92950,128,0,93053:0:0:0:0:
64,192,93156,128,0,93258:0:0:0:0:
192,192,93361,128,0,93464:0:0:0:0:
320,192,93361,128,0,93464:0:0:0:0:
448,192,93567,128,0,93669:0:0:0:0:
64,192,93772,128,0,94183:0:0:0:0:
320,192,94183,128,0,94286:0:0:0:0:
448,192,94183,128,0,94286:0:0:0:0:
192,192,94389,128,0,94491:0:0:0:0:
64,192,94594,128,0,94697:0:0:0:0:
320,192,94800,128,0,94902:0:0:0:0:
192,192,95005,128,0,95108:0:0:0:0:
64,192,95211,128,0,95313:0:0:0:0:
320,192,95416,128,0,95519:0:0:0:0:
192,192,95621,128,0,95724:0:0:0:0:
448,192,95827,128,0,95930:0:0:0:0:
64,192,95827,128,0,95930:0:0:0:0:
320,192,96032,128,0,96135:0:0:0:0:
192,192,96238,128,0,96341:0:0:0:0:
448,192,96443,128,0,96546:0:0:0:0:
320,192,96649,128,0,96752:0:0:0:0:
64,192,96649,128,0,96752:0:0:0:0:
192,192,96854,128,0,96957:0:0:0:0:
448,192,97060,128,0,97163:0:0:0:0:
64,192,97265,128,0,97368:0:0:0:0:
320,192,97471,128,0,97574:0:0:0:0:
448,192,97471,128,0,97574:0:0:0:0:
192,192,97676,128,0,97779:0:0:0:0:
64,192,97882,128,0,97984:0:0:0:0:
320,192,98087,128,0,98190:0:0:0:0:
192,192,98293,128,0,98395:0:0:0:0:
64,192,98498,128,0,98601:0:0:0:0:
320,192,98704,128,0,98806:0:0:0:0:
192,192,98909,128,0,99012:0:0:0:0:
448,192,99115,128,0,99217:0:0:0:0:
64,192,99115,128,0,99217:0:0:0:0:
320,192,99320,128,0,99423:0:0:0:0:
192,192,99526,128,0,99628:0:0:0:0:
448,192,99731,128,0,99834:0:0:0:0:
320,192,99937,128,0,100039:0:0:0:0:
192,192,99937,128,0,100039:0:0:0:0:
64,192,100142,128,0,100245:0:0:0:0:
448,192,100348,128,0,100758:0:0:0:0:
192,192,100758,128,0,100964:0:0:0:0:
64,192,100758,128,0,102402:0:0:0:0:
320,192,100964,128,0,101169:0:0:0:0:
448,192,101169,128,0,101375:0:0:0:0:
192,192,101375,128,0,101580:0:0:0:0:
320,192,101580,128,0,101786:0:0:0:0:
448,192,101786,128,0,101991:0:0:0:0:
192,192,101991,128,0,102197:0:0:0:0:
448,192,102197,128,0,102402:0:0:0:0:
320,192,102402,128,0,104046:0:0:0:0:
192,192,102402,128,0,102608:0:0:0:0:
64,192,102608,128,0,102813:0:0:0:0:
448,192,102813,128,0,103019:0:0:0:0:
192,192,103019,128,0,103224:0:0:0:0:
64,192,103224,128,0,103430:0:0:0:0:
448,192,103430,128,0,103635:0:0:0:0:
64,192,103635,128,0,103841:0:0:0:0:
192,192,103841,128,0,104046:0:0:0:0:
448,192,104046,128,0,105484:0:0:0:0:
64,192,104046,128,0,104252:0:0:0:0:
192,192,104252,128,0,104457:0:0:0:0:
320,192,104457,128,0,104663:0:0:0:0:
64,192,104663,128,0,104868:0:0:0:0:
192,192,104868,128,0,105074:0:0:0:0:
320,192,105074,128,0,105279:0:0:0:0:
64,192,105279,128,0,105484:0:0:0:0:
192,192,105484,128,0,105690:0:0:0:0:
320,192,105690,1,0,0:0:0:0:
448,192,105690,1,0,0:0:0:0:
64,192,105895,128,0,106101:0:0:0:0:
320,192,106101,1,0,0:0:0:0:
64,192,106306,128,0,106512:0:0:0:0:
448,192,106512,1,0,0:0:0:0:
64,192,106717,128,0,106923:0:0:0:0:
320,192,106923,1,0,0:0:0:0:
64,192,107128,128,0,107334:0:0:0:0:
448,192,107334,1,0,0:0:0:0:
192,192,107334,1,0,0:0:0:0:
320,192,107539,128,0,107745:0:0:0:0:
64,192,107745,1,0,0:0:0:0:
320,192,107950,128,0,108156:0:0:0:0:
192,192,108156,1,0,0:0:0:0:
320,192,108361,128,0,108567:0:0:0:0:
64,192,108567,1,0,0:0:0:0:
320,192,108772,128,0,108978:0:0:0:0:
448,192,108978,1,0,0:0:0:0:
64,192,108978,1,0,0:0:0:0:
192,192,109183,128,0,109389:0:0:0:0:
320,192,109389,1,0,0:0:0:0:
192,192,109594,128,0,109800:0:0:0:0:
448,192,109800,1,0,0:0:0:0:
192,192,110005,128,0,110211:0:0:0:0:
320,192,110211,1,0,0:0:0:0:
192,192,110416,128,0,110621:0:0:0:0:
64,192,110621,1,0,0:0:0:0:
448,192,110621,1,0,0:0:0:0:
320,192,110827,128,0,111032:0:0:0:0:
192,192,111032,1,0,0:0:0:0:
320,192,111238,128,0,111443:0:0:0:0:
64,192,111443,1,0,0:0:0:0:
320,192,111649,128,0,111854:0:0:0:0:
192,192,111854,1,0,0:0:0:0:
320,192,112060,128,0,112265:0:0:0:0:
448,192,112265,1,0,0:0:0:0:
192,192,112265,1,0,0:0:0:0:
64,192,112471,128,0,112676:0:0:0:0:
448,192,112676,1,0,0:0:0:0:
64,192,112882,128,0,113087:0:0:0:0:
320,192,113087,1,0,0:0:0:0:
64,192,113293,128,0,113498:0:0:0:0:
448,192,113498,1,0,0:0:0:0:
64,192,113704,128,0,113909:0:0:0:0:
192,192,113909,1,0,0:0:0:0:
320,192,113909,1,0,0:0:0:0:
448,192,114115,128,0,114320:0:0:0:0:
64,192,114320,1,0,0:0:0:0:
448,192,114526,128,0,114731:0:0:0:0:
192,192,114731,1,0,0:0:0:0:
448,192,114937,128,0,115142:0:0:0:0:
64,192,115142,1,0,0:0:0:0:
448,192,115348,128,0,115553:0:0:0:0:
320,192,115553,1,0,0:0:0:0:
64,192,115553,1,0,0:0:0:0:
192,192,115758,128,0,115964:0:0:0:0:
448,192,115964,1,0,0:0:0:0:
192,192,116169,128,0,116375:0:0:0:0:
320,192,116375,1,0,0:0:0:0:
192,192,116580,128,0,116786:0:0:0:0:
448,192,116786,1,0,0:0:0:0:
192,192,116991,128,0,117197:0:0:0:0:
64,192,117197,1,0,0:0:0:0:
448,192,117197,1,0,0:0:0:0:
320,192,117402,128,0,117608:0:0:0:0:
192,192,117608,1,0,0:0:0:0:
320,192,117813,128,0,118019:0:0:0:0:
64,192,118019,1,0,0:0:0:0:
320,192,118224,128,0,118430:0:0:0:0:
192,192,118430,1,0,0:0:0:0:
320,192,118635,128,0,118841:0:0:0:0:
64,192,118841,1,0,0:0:0:0:
448,192,118841,1,0,0:0:0:0:
192,192,119046,128,0,119252:0:0:0:0:
320,192,119252,1,0,0:0:0:0:
192,192,119457,128,0,119663:0:0:0:0:
448,192,119663,1,0,0:0:0:0:
64,192,119663,1,0,0:0:0:0:
192,192,119868,128,0,120074:0:0:0:0:
320,192,120074,1,0,0:0:0:0:
192,192,120279,128,0,120484:0:0:0:0:
64,192,120484,1,0,0:0:0:0:
448,192,120484,1,0,0:0:0:0:
320,192,120690,128,0,120895:0:0:0:0:
192,192,120895,1,0,0:0:0:0:
320,192,121101,128,0,121306:0:0:0:0:
64,192,121306,1,0,0:0:0:0:
448,192,121306,1,0,0:0:0:0:
320,192,121512,128,0,121717:0:0:0:0:
192,192,121717,1,0,0:0:0:0:
320,192,121923,128,0,122128:0:0:0:0:
448,192,122128,1,0,0:0:0:0:
192,192,122128,1,0,0:0:0:0:
64,192,122334,128,0,122539:0:0:0:0:
320,192,122539,1,0,0:0:0:0:
64,192,122745,128,0,122950:0:0:0:0:
448,192,122950,1,0,0:0:0:0:
192,192,122950,1,0,0:0:0:0:
64,192,123156,128,0,123361:0:0:0:0:
320,192,123361,1,0,0:0:0:0:
64,192,123567,128,0,123772:0:0:0:0:
192,192,123772,1,0,0:0:0:0:
320,192,123772,1,0,0:0:0:0:
448,192,123978,128,0,124183:0:0:0:0:
64,192,124183,1,0,0:0:0:0:
448,192,124389,128,0,124594:0:0:0:0:
192,192,124594,1,0,0:0:0:0:
320,192,124594,1,0,0:0:0:0:
448,192,124800,128,0,125005:0:0:0:0:
64,192,125005,1,0,0:0:0:0:
448,192,125211,128,0,125416:0:0:0:0:
192,192,125416,1,0,0:0:0:0:
320,192,125416,1,0,0:0:0:0:
64,192,125621,128,0,125827:0:0:0:0:
320,192,125827,1,0,0:0:0:0:
448,192,125827,1,0,0:0:0:0:
192,192,126032,128,0,126238:0:0:0:0:
64,192,126238,1,0,0:0:0:0:
448,192,126238,1,0,0:0:0:0:
320,192,126443,128,0,126649:0:0:0:0:
192,192,126649,1,0,0:0:0:0:
64,192,126649,1,0,0:0:0:0:
448,192,126854,128,0,127060:0:0:0:0:
320,192,127060,1,0,0:0:0:0:
192,192,127060,1,0,0:0:0:0:
64,192,127265,128,0,127471:0:0:0:0:
320,192,127471,1,0,0:0:0:0:
448,192,127471,1,0,0:0:0:0:
192,192,127676,128,0,127882:0:0:0:0:
64,192,127882,1,0,0:0:0:0:
448,192,127882,1,0,0:0:0:0:
320,192,128087,128,0,128293:0:0:0:0:
192,192,128293,1,0,0:0:0:0:
64,192,128293,1,0,0:0:0:0:
448,192,128498,128,0,128704:0:0:0:0:
320,192,128704,1,0,0:0:0:0:
192,192,128704,128,0,128909:0:0:0:0:
64,192,128909,128,0,129115:0:0:0:0:
448,192,129115,1,0,0:0:0:0:
320,192,129115,128,0,129320:0:0:0:0:
192,192,129320,128,0,129526:0:0:0:0:
448,192,129526,1,0,0:0:0:0:
64,192,129526,128,0,129731:0:0:0:0:
320,192,129731,128,0,129937:0:0:0:0:
64,192,129937,1,0,0:0:0:0:
192,192,129937,128,0,130142:0:0:0:0:
448,192,130142,128,0,130348:0:0:0:0:
192,192,130348,1,0,0:0:0:0:
320,192,130348,128,0,130553:0:0:0:0:
64,192,130553,128,0,130758:0:0:0:0:
320,192,130758,1,0,0:0:0:0:
448,192,130758,128,0,130964:0:0:0:0:
192,192,130964,128,0,131169:0:0:0:0:
64,192,131169,128,0,131375:0:0:0:0:
448,192,131169,128,0,131375:0:0:0:0:
320,192,131375,128,0,131580:0:0:0:0:
192,192,131580,128,0,131786:0:0:0:0:
64,192,131580,128,0,131786:0:0:0:0:
448,192,131786,128,0,131991:0:0:0:0:
320,192,131991,1,0,0:0:0:0:
64,192,132197,128,0,132402:0:0:0:0:
448,192,132402,128,0,132608:0:0:0:0:
192,192,132608,128,0,132813:0:0:0:0:
64,192,132813,128,0,133019:0:0:0:0:
448,192,133019,128,0,133224:0:0:0:0:
192,192,133224,128,0,133327:0:0:0:0:
64,192,133327,128,0,133430:0:0:0:0:
320,192,133430,128,0,133532:0:0:0:0:
192,192,133532,128,0,133635:0:0:0:0:
448,192,133635,128,0,133841:0:0:0:0:
64,192,133841,128,0,134046:0:0:0:0:
192,192,134046,128,0,134252:0:0:0:0:
448,192,134252,128,0,134457:0:0:0:0:
64,192,134457,128,0,134663:0:0:0:0:
192,192,134663,128,0,134868:0:0:0:0:
448,192,134868,128,0,135074:0:0:0:0:
64,192,135074,128,0,135279:0:0:0:0:
320,192,135279,1,0,0:0:0:0:
448,192,135279,1,0,0:0:0:0:
192,192,135382,1,0,0:0:0:0:
64,192,135485,1,0,0:0:0:0:
320,192,135587,1,0,0:0:0:0:
448,192,135690,1,0,0:0:0:0:
192,192,135793,1,0,0:0:0:0:
320,192,135895,1,0,0:0:0:0:
64,192,135998,1,0,0:0:0:0:
448,192,136101,1,0,0:0:0:0:
320,192,136204,1,0,0:0:0:0:
192,192,136306,1,0,0:0:0:0:
448,192,136409,1,0,0:0:0:0:
64,192,136512,1,0,0:0:0:0:
192,192,136615,1,0,0:0:0:0:
320,192,136717,1,0,0:0:0:0:
64,192,136820,1,0,0:0:0:0:
320,192,136923,1,0,0:0:0:0:
192,192,137026,1,0,0:0:0:0:
448,192,137128,1,0,0:0:0:0:
320,192,137231,1,0,0:0:0:0:
192,192,137334,1,0,0:0:0:0:
320,192,137437,1,0,0:0:0:0:
64,192,137539,1,0,0:0:0:0:
192,192,137642,1,0,0:0:0:0:
448,192,137745,1,0,0:0:0:0:
320,192,137848,1,0,0:0:0:0:
192,192,137950,1,0,0:0:0:0:
448,192,138053,1,0,0:0:0:0:
64,192,138156,1,0,0:0:0:0:
192,192,138258,1,0,0:0:0:0:
320,192,138361,1,0,0:0:0:0:
64,192,138464,1,0,0:0:0:0:
448,192,138567,1,0,0:0:0:0:
192,192,138567,1,0,0:0:0:0:
320,192,138669,1,0,0:0:0:0:
64,192,138772,1,0,0:0:0:0:
448,192,138875,1,0,0:0:0:0:
192,192,138978,1,0,0:0:0:0:
320,192,139080,1,0,0:0:0:0:
64,192,139183,1,0,0:0:0:0:
192,192,139286,1,0,0:0:0:0:
320,192,139389,1,0,0:0:0:0:
64,192,139491,1,0,0:0:0:0:
448,192,139594,1,0,0:0:0:0:
192,192,139697,1,0,0:0:0:0:
320,192,139800,1,0,0:0:0:0:
64,192,139902,1,0,0:0:0:0:
192,192,140005,1,0,0:0:0:0:
448,192,140108,1,0,0:0:0:0:
320,192,140211,1,0,0:0:0:0:
192,192,140313,1,0,0:0:0:0:
64,192,140416,1,0,0:0:0:0:
320,192,140519,1,0,0:0:0:0:
448,192,140621,1,0,0:0:0:0:
192,192,140724,1,0,0:0:0:0:
320,192,140827,1,0,0:0:0:0:
64,192,140930,1,0,0:0:0:0:
448,192,141032,1,0,0:0:0:0:
320,192,141135,1,0,0:0:0:0:
64,192,141238,128,0,141443:0:0:0:0:
192,192,141341,1,0,0:0:0:0:
448,192,141443,128,0,141649:0:0:0:0:
320,192,141546,1,0,0:0:0:0:
192,192,141649,128,0,141854:0:0:0:0:
64,192,141752,1,0,0:0:0:0:
448,192,141854,1,0,0:0:0:0:
320,192,141854,1,0,0:0:0:0:
192,192,141957,1,0,0:0:0:0:
64,192,142060,1,0,0:0:0:0:
320,192,142163,1,0,0:0:0:0:
192,192,142265,1,0,0:0:0:0:
448,192,142265,1,0,0:0:0:0:
64,192,142368,1,0,0:0:0:0:
320,192,142471,1,0,0:0:0:0:
192,192,142574,1,0,0:0:0:0:
320,192,142676,1,0,0:0:0:0:
448,192,142676,1,0,0:0:0:0:
64,192,142779,1,0,0:0:0:0:
192,192,142882,1,0,0:0:0:0:
320,192,142985,1,0,0:0:0:0:
64,192,143087,1,0,0:0:0:0:
448,192,143087,1,0,0:0:0:0:
192,192,143190,1,0,0:0:0:0:
320,192,143293,1,0,0:0:0:0:
64,192,143395,1,0,0:0:0:0:
192,192,143498,1,0,0:0:0:0:
448,192,143498,1,0,0:0:0:0:
320,192,143601,1,0,0:0:0:0:
192,192,143704,1,0,0:0:0:0:
64,192,143806,1,0,0:0:0:0:
320,192,143909,1,0,0:0:0:0:
448,192,143909,1,0,0:0:0:0:
192,192,144012,1,0,0:0:0:0:
64,192,144115,1,0,0:0:0:0:
320,192,144217,1,0,0:0:0:0:
192,192,144320,1,0,0:0:0:0:
448,192,144320,1,0,0:0:0:0:
64,192,144423,1,0,0:0:0:0:
320,192,144526,1,0,0:0:0:0:
192,192,144628,1,0,0:0:0:0:
64,192,144731,1,0,0:0:0:0:
448,192,144731,1,0,0:0:0:0:
320,192,144834,1,0,0:0:0:0:
192,192,144937,1,0,0:0:0:0:
320,192,145039,1,0,0:0:0:0:
64,192,145142,1,0,0:0:0:0:
448,192,145142,1,0,0:0:0:0:
192,192,145245,1,0,0:0:0:0:
64,192,145348,1,0,0:0:0:0:
320,192,145348,1,0,0:0:0:0:
192,192,145450,1,0,0:0:0:0:
64,192,145553,1,0,0:0:0:0:
448,192,145553,1,0,0:0:0:0:
320,192,145656,1,0,0:0:0:0:
192,192,145758,1,0,0:0:0:0:
448,192,145758,1,0,0:0:0:0:
64,192,145861,1,0,0:0:0:0:
320,192,145964,1,0,0:0:0:0:
448,192,145964,1,0,0:0:0:0:
192,192,146067,1,0,0:0:0:0:
64,192,146169,1,0,0:0:0:0:
320,192,146169,1,0,0:0:0:0:
448,192,146272,1,0,0:0:0:0:
192,192,146375,1,0,0:0:0:0:
64,192,146375,1,0,0:0:0:0:
320,192,146478,1,0,0:0:0:0:
192,192,146580,1,0,0:0:0:0:
64,192,146580,1,0,0:0:0:0:
448,192,146683,1,0,0:0:0:0:
64,192,146786,1,0,0:0:0:0:
320,192,146786,1,0,0:0:0:0:
192,192,146889,1,0,0:0:0:0:
320,192,146991,1,0,0:0:0:0:
448,192,146991,1,0,0:0:0:0:
64,192,147094,1,0,0:0:0:0:
320,192,147197,1,0,0:0:0:0:
192,192,147197,1,0,0:0:0:0:
448,192,147300,1,0,0:0:0:0:
64,192,147402,1,0,0:0:0:0:
192,192,147402,1,0,0:0:0:0:
320,192,147505,1,0,0:0:0:0:
64,192,147608,1,0,0:0:0:0:
192,192,147608,1,0,0:0:0:0:
320,192,147711,1,0,0:0:0:0:
448,192,147711,1,0,0:0:0:0:
192,192,147813,1,0,0:0:0:0:
64,192,147813,1,0,0:0:0:0:
320,192,147916,1,0,0:0:0:0:
448,192,147916,1,0,0:0:0:0:
64,192,148019,1,0,0:0:0:0:
192,192,148070,1,0,0:0:0:0:
320,192,148121,1,0,0:0:0:0:
448,192,148173,1,0,0:0:0:0:
64,192,148224,1,0,0:0:0:0:
192,192,148276,1,0,0:0:0:0:
320,192,148327,1,0,0:0:0:0:
448,192,148378,1,0,0:0:0:0:
64,192,148430,1,0,0:0:0:0:
192,192,148430,1,0,0:0:0:0:
64,192,148841,1,0,0:0:0:0:
192,192,148841,1,0,0:0:0:0:
448,192,148841,1,0,0:0:0:0:
64,192,149252,1,0,0:0:0:0:
448,192,149252,1,0,0:0:0:0:
320,192,149252,1,0,0:0:0:0:
64,192,149663,1,0,0:0:0:0:
320,192,149663,1,0,0:0:0:0:
448,192,149663,1,0,0:0:0:0:
64,192,150074,1,0,0:0:0:0:
192,192,150074,1,0,0:0:0:0:
320,192,150074,1,0,0:0:0:0:
320,192,150485,1,0,0:0:0:0:
192,192,150485,1,0,0:0:0:0:
64,192,150485,1,0,0:0:0:0:
192,192,150895,1,0,0:0:0:0:
320,192,150895,1,0,0:0:0:0:
448,192,150895,1,0,0:0:0:0:
448,192,151306,1,0,0:0:0:0:
320,192,151306,1,0,0:0:0:0:
192,192,151306,1,0,0:0:0:0:
192,192,151717,1,0,0:0:0:0:
64,192,151717,1,0,0:0:0:0:
448,192,151717,1,0,0:0:0:0:
64,192,152128,1,0,0:0:0:0:
192,192,152128,1,0,0:0:0:0:
448,192,152128,1,0,0:0:0:0:
320,192,152539,1,0,0:0:0:0:
448,192,152539,1,0,0:0:0:0:
64,192,152539,1,0,0:0:0:0:
320,192,152950,1,0,0:0:0:0:
448,192,152950,1,0,0:0:0:0:
64,192,152950,1,0,0:0:0:0:
64,192,153361,1,0,0:0:0:0:
192,192,153361,1,0,0:0:0:0:
320,192,153361,1,0,0:0:0:0:
64,192,153772,1,0,0:0:0:0:
192,192,153772,1,0,0:0:0:0:
320,192,153772,1,0,0:0:0:0:
192,192,154183,1,0,0:0:0:0:
320,192,154183,1,0,0:0:0:0:
448,192,154183,1,0,0:0:0:0:
192,192,154594,1,0,0:0:0:0:
320,192,154594,1,0,0:0:0:0:
448,192,154594,1,0,0:0:0:0:
64,192,155005,128,0,155211:0:0:0:0:
192,192,155005,1,0,0:0:0:0:
448,192,155005,1,0,0:0:0:0:
64,192,155416,1,0,0:0:0:0:
448,192,155416,1,0,0:0:0:0:
192,192,155416,1,0,0:0:0:0:
64,192,155827,1,0,0:0:0:0:
320,192,155827,1,0,0:0:0:0:
448,192,155827,128,0,156032:0:0:0:0:
64,192,156238,1,0,0:0:0:0:
320,192,156238,1,0,0:0:0:0:
448,192,156238,1,0,0:0:0:0:
64,192,156649,1,0,0:0:0:0:
320,192,156649,1,0,0:0:0:0:
192,192,156649,128,0,156854:0:0:0:0:
64,192,157060,1,0,0:0:0:0:
192,192,157060,1,0,0:0:0:0:
320,192,157060,1,0,0:0:0:0:
192,192,157471,1,0,0:0:0:0:
320,192,157471,128,0,157676:0:0:0:0:
448,192,157471,1,0,0:0:0:0:
192,192,157882,1,0,0:0:0:0:
448,192,157882,1,0,0:0:0:0:
320,192,157882,1,0,0:0:0:0:
192,192,158293,1,0,0:0:0:0:
64,192,158293,1,0,0:0:0:0:
448,192,158293,128,0,158498:0:0:0:0:
64,192,158704,1,0,0:0:0:0:
448,192,158704,1,0,0:0:0:0:
192,192,158704,1,0,0:0:0:0:
320,192,159115,1,0,0:0:0:0:
448,192,159115,1,0,0:0:0:0:
64,192,159115,128,0,159320:0:0:0:0:
64,192,159526,1,0,0:0:0:0:
320,192,159526,1,0,0:0:0:0:
448,192,159526,1,0,0:0:0:0:
64,192,159937,1,0,0:0:0:0:
192,192,159937,1,0,0:0:0:0:
320,192,159937,128,0,160142:0:0:0:0:
64,192,160348,1,0,0:0:0:0:
192,192,160348,1,0,0:0:0:0:
320,192,160348,1,0,0:0:0:0:
448,192,160758,1,0,0:0:0:0:
320,192,160758,1,0,0:0:0:0:
192,192,160758,128,0,160964:0:0:0:0:
448,192,161169,1,0,0:0:0:0:
320,192,161169,1,0,0:0:0:0:
192,192,161169,128,0,161580:0:0:0:0:
64,192,161580,1,0,0:0:0:0:
448,192,161580,1,0,0:0:0:0:
320,192,161683,1,0,0:0:0:0:
192,192,161786,1,0,0:0:0:0:
320,192,161889,1,0,0:0:0:0:
64,192,161991,1,0,0:0:0:0:
448,192,161991,1,0,0:0:0:0:
192,192,162094,1,0,0:0:0:0:
320,192,162197,1,0,0:0:0:0:
192,192,162300,1,0,0:0:0:0:
448,192,162402,1,0,0:0:0:0:
320,192,162402,1,0,0:0:0:0:
64,192,162505,1,0,0:0:0:0:
192,192,162608,1,0,0:0:0:0:
320,192,162711,1,0,0:0:0:0:
64,192,162813,1,0,0:0:0:0:
448,192,162813,1,0,0:0:0:0:
320,192,162916,1,0,0:0:0:0:
192,192,163019,1,0,0:0:0:0:
448,192,163121,1,0,0:0:0:0:
320,192,163224,1,0,0:0:0:0:
64,192,163224,1,0,0:0:0:0:
192,192,163327,1,0,0:0:0:0:
320,192,163430,1,0,0:0:0:0:
448,192,163532,1,0,0:0:0:0:
192,192,163635,1,0,0:0:0:0:
64,192,163635,1,0,0:0:0:0:
320,192,163738,1,0,0:0:0:0:
64,192,163841,1,0,0:0:0:0:
320,192,163943,1,0,0:0:0:0:
192,192,164046,1,0,0:0:0:0:
448,192,164046,1,0,0:0:0:0:
64,192,164149,1,0,0:0:0:0:
320,192,164252,1,0,0:0:0:0:
192,192,164354,1,0,0:0:0:0:
320,192,164457,1,0,0:0:0:0:
448,192,164457,1,0,0:0:0:0:
64,192,164560,1,0,0:0:0:0:
448,192,164663,1,0,0:0:0:0:
192,192,164765,1,0,0:0:0:0:
64,192,164868,1,0,0:0:0:0:
320,192,164868,1,0,0:0:0:0:
448,192,164971,1,0,0:0:0:0:
192,192,165074,1,0,0:0:0:0:
320,192,165176,1,0,0:0:0:0:
448,192,165279,1,0,0:0:0:0:
64,192,165279,1,0,0:0:0:0:
192,192,165382,1,0,0:0:0:0:
320,192,165485,1,0,0:0:0:0:
448,192,165587,1,0,0:0:0:0:
64,192,165690,1,0,0:0:0:0:
192,192,165690,1,0,0:0:0:0:
320,192,165793,1,0,0:0:0:0:
192,192,165895,1,0,0:0:0:0:
320,192,165998,1,0,0:0:0:0:
64,192,166101,1,0,0:0:0:0:
448,192,166101,1,0,0:0:0:0:
192,192,166204,1,0,0:0:0:0:
320,192,166306,1,0,0:0:0:0:
192,192,166409,1,0,0:0:0:0:
64,192,166512,1,0,0:0:0:0:
448,192,166512,1,0,0:0:0:0:
320,192,166615,1,0,0:0:0:0:
192,192,166717,1,0,0:0:0:0:
64,192,166820,1,0,0:0:0:0:
320,192,166923,1,0,0:0:0:0:
448,192,166923,1,0,0:0:0:0:
192,192,167026,1,0,0:0:0:0:
320,192,167128,1,0,0:0:0:0:
192,192,167231,1,0,0:0:0:0:
64,192,167334,1,0,0:0:0:0:
448,192,167334,1,0,0:0:0:0:
320,192,167437,1,0,0:0:0:0:
64,192,167539,1,0,0:0:0:0:
448,192,167539,1,0,0:0:0:0:
320,192,167642,1,0,0:0:0:0:
192,192,167745,1,0,0:0:0:0:
64,192,167745,1,0,0:0:0:0:
448,192,167848,1,0,0:0:0:0:
320,192,167848,1,0,0:0:0:0:
192,192,167950,1,0,0:0:0:0:
64,192,167950,1,0,0:0:0:0:
320,192,168053,1,0,0:0:0:0:
448,192,168053,1,0,0:0:0:0:
192,192,168156,1,0,0:0:0:0:
64,192,168156,1,0,0:0:0:0:
448,192,168258,1,0,0:0:0:0:
320,192,168361,1,0,0:0:0:0:
192,192,168464,1,0,0:0:0:0:
64,192,168567,1,0,0:0:0:0:
448,192,168567,1,0,0:0:0:0:
320,192,168669,1,0,0:0:0:0:
192,192,168772,1,0,0:0:0:0:
448,192,168875,1,0,0:0:0:0:
320,192,168978,1,0,0:0:0:0:
64,192,168978,1,0,0:0:0:0:
192,192,169080,1,0,0:0:0:0:
448,192,169183,1,0,0:0:0:0:
320,192,169286,1,0,0:0:0:0:
64,192,169389,1,0,0:0:0:0:
192,192,169389,1,0,0:0:0:0:
448,192,169491,1,0,0:0:0:0:
320,192,169594,1,0,0:0:0:0:
192,192,169697,1,0,0:0:0:0:
448,192,169800,1,0,0:0:0:0:
320,192,169800,1,0,0:0:0:0:
64,192,169902,1,0,0:0:0:0:
192,192,170005,1,0,0:0:0:0:
320,192,170108,1,0,0:0:0:0:
448,192,170211,1,0,0:0:0:0:
64,192,170211,1,0,0:0:0:0:
192,192,170313,1,0,0:0:0:0:
320,192,170416,1,0,0:0:0:0:
64,192,170519,1,0,0:0:0:0:
192,192,170621,1,0,0:0:0:0:
448,192,170621,1,0,0:0:0:0:
320,192,170724,1,0,0:0:0:0:
64,192,170827,1,0,0:0:0:0:
192,192,170930,1,0,0:0:0:0:
320,192,171032,1,0,0:0:0:0:
448,192,171032,1,0,0:0:0:0:
64,192,171135,1,0,0:0:0:0:
192,192,171238,1,0,0:0:0:0:
320,192,171341,1,0,0:0:0:0:
448,192,171443,1,0,0:0:0:0:
64,192,171443,1,0,0:0:0:0:
192,192,171546,1,0,0:0:0:0:
320,192,171649,1,0,0:0:0:0:
64,192,171752,1,0,0:0:0:0:
192,192,171854,1,0,0:0:0:0:
448,192,171854,1,0,0:0:0:0:
320,192,171957,1,0,0:0:0:0:
192,192,172060,1,0,0:0:0:0:
64,192,172163,1,0,0:0:0:0:
448,192,172265,1,0,0:0:0:0:
320,192,172265,1,0,0:0:0:0:
192,192,172368,1,0,0:0:0:0:
320,192,172471,1,0,0:0:0:0:
448,192,172574,1,0,0:0:0:0:
192,192,172676,1,0,0:0:0:0:
64,192,172676,1,0,0:0:0:0:
320,192,172779,1,0,0:0:0:0:
192,192,172882,1,0,0:0:0:0:
64,192,172985,1,0,0:0:0:0:
320,192,173087,1,0,0:0:0:0:
448,192,173087,1,0,0:0:0:0:
192,192,173190,1,0,0:0:0:0:
64,192,173293,1,0,0:0:0:0:
448,192,173293,1,0,0:0:0:0:
320,192,173395,1,0,0:0:0:0:
192,192,173498,1,0,0:0:0:0:
448,192,173498,1,0,0:0:0:0:
64,192,173601,1,0,0:0:0:0:
320,192,173704,1,0,0:0:0:0:
192,192,173806,1,0,0:0:0:0:
320,192,173909,1,0,0:0:0:0:
448,192,173909,1,0,0:0:0:0:
64,192,174012,1,0,0:0:0:0:
448,192,174115,1,0,0:0:0:0:
320,192,174115,1,0,0:0:0:0:
64,192,174217,1,0,0:0:0:0:
192,192,174217,1,0,0:0:0:0:
320,192,174320,1,0,0:0:0:0:
448,192,174320,1,0,0:0:0:0:
192,192,174423,1,0,0:0:0:0:
64,192,174423,1,0,0:0:0:0:
320,192,174526,1,0,0:0:0:0:
448,192,174526,1,0,0:0:0:0:
192,192,174628,1,0,0:0:0:0:
64,192,174628,1,0,0:0:0:0:
448,192,174731,1,0,0:0:0:0:
320,192,174731,1,0,0:0:0:0:
64,192,174834,1,0,0:0:0:0:
192,192,174937,1,0,0:0:0:0:
448,192,174937,1,0,0:0:0:0:
320,192,175039,1,0,0:0:0:0:
192,192,175142,1,0,0:0:0:0:
64,192,175142,1,0,0:0:0:0:
448,192,175245,1,0,0:0:0:0:
320,192,175348,1,0,0:0:0:0:
64,192,175348,1,0,0:0:0:0:
192,192,175450,1,0,0:0:0:0:
320,192,175553,1,0,0:0:0:0:
448,192,175553,1,0,0:0:0:0:
64,192,175656,1,0,0:0:0:0:
320,192,175758,1,0,0:0:0:0:
448,192,175758,1,0,0:0:0:0:
64,192,175861,1,0,0:0:0:0:
320,192,175964,1,0,0:0:0:0:
448,192,175964,1,0,0:0:0:0:
64,192,176067,1,0,0:0:0:0:
320,192,176169,1,0,0:0:0:0:
448,192,176169,1,0,0:0:0:0:
192,192,176272,1,0,0:0:0:0:
320,192,176375,1,0,0:0:0:0:
64,192,176375,1,0,0:0:0:0:
448,192,176478,1,0,0:0:0:0:
64,192,176580,1,0,0:0:0:0:
192,192,176580,1,0,0:0:0:0:
320,192,176683,1,0,0:0:0:0:
448,192,176786,1,0,0:0:0:0:
192,192,176786,1,0,0:0:0:0:
64,192,176889,1,0,0:0:0:0:
448,192,176991,1,0,0:0:0:0:
320,192,176991,1,0,0:0:0:0:
192,192,177094,1,0,0:0:0:0:
64,192,177197,1,0,0:0:0:0:
448,192,177197,1,0,0:0:0:0:
320,192,177300,1,0,0:0:0:0:
64,192,177402,1,0,0:0:0:0:
448,192,177402,1,0,0:0:0:0:
320,192,177505,1,0,0:0:0:0:
64,192,177608,1,0,0:0:0:0:
448,192,177608,1,0,0:0:0:0:
320,192,177711,1,0,0:0:0:0:
64,192,177813,1,0,0:0:0:0:
448,192,177813,1,0,0:0:0:0:
192,192,177916,1,0,0:0:0:0:
320,192,178019,1,0,0:0:0:0:
64,192,178019,1,0,0:0:0:0:
448,192,178121,1,0,0:0:0:0:
192,192,178224,1,0,0:0:0:0:
64,192,178224,1,0,0:0:0:0:
320,192,178327,1,0,0:0:0:0:
448,192,178430,1,0,0:0:0:0:
192,192,178430,1,0,0:0:0:0:
64,192,178532,1,0,0:0:0:0:
320,192,178635,1,0,0:0:0:0:
448,192,178635,1,0,0:0:0:0:
192,192,178738,1,0,0:0:0:0:
64,192,178841,1,0,0:0:0:0:
320,192,178841,1,0,0:0:0:0:
448,192,178943,1,0,0:0:0:0:
192,192,179046,1,0,0:0:0:0:
64,192,179046,1,0,0:0:0:0:
320,192,179149,1,0,0:0:0:0:
64,192,179252,1,0,0:0:0:0:
448,192,179252,1,0,0:0:0:0:
192,192,179354,1,0,0:0:0:0:
320,192,179457,1,0,0:0:0:0:
64,192,179457,1,0,0:0:0:0:
192,192,179560,1,0,0:0:0:0:
448,192,179663,1,0,0:0:0:0:
64,192,179663,1,0,0:0:0:0:
320,192,179765,1,0,0:0:0:0:
192,192,179868,1,0,0:0:0:0:
448,192,179868,1,0,0:0:0:0:
320,192,179971,1,0,0:0:0:0:
448,192,180074,1,0,0:0:0:0:
64,192,180074,1,0,0:0:0:0:
192,192,180176,1,0,0:0:0:0:
320,192,180279,1,0,0:0:0:0:
64,192,180279,1,0,0:0:0:0:
192,192,180382,1,0,0:0:0:0:
64,192,180485,1,0,0:0:0:0:
448,192,180485,1,0,0:0:0:0:
320,192,180485,1,0,0:0:0:0:
448,192,180690,1,0,0:0:0:0:
192,192,180690,1,0,0:0:0:0:
320,192,180690,1,0,0:0:0:0:
448,192,180895,1,0,0:0:0:0:
64,192,180895,1,0,0:0:0:0:
320,192,180895,1,0,0:0:0:0:
192,192,181101,1,0,0:0:0:0:
448,192,181101,128,0,181717:0:0:0:0:
320,192,181101,1,0,0:0:0:0:
