osu file format v14

[General]
AudioFilename: audio.mp3
AudioLeadIn: 0
PreviewTime: 979
Countdown: 0
SampleSet: Normal
StackLeniency: 0.7
Mode: 1
LetterboxInBreaks: 0
WidescreenStoryboard: 0

[Editor]
DistanceSpacing: 1.2
BeatDivisor: 4
GridSize: 16
TimelineZoom: 1.3

[Metadata]
Title:Suzume feat. Toaka
TitleUnicode:すずめ feat. 十明
Artist:RADWIMPS
ArtistUnicode:RADWIMPS
Creator:ler1211
Version:Desire for Life
Source:すずめの戸締まり
Tags:rinze Suzume no Tojimari hara nanoka 原菜乃華 japanese pop jpop j-pop theme song ost original soundtrack anime movie film
BeatmapID:4054038
BeatmapSetID:1956955

[Difficulty]
HPDrainRate:6
CircleSize:5
OverallDifficulty:4.5
ApproachRate:5
SliderMultiplier:1.6
SliderTickRate:1

[Events]
//Background and Video events
0,0,"suzume.jpg",0,-10
//Break Periods
2,166845,168383
//Storyboard Layer 0 (Background)
//Storyboard Layer 1 (Fail)
//Storyboard Layer 2 (Pass)
//Storyboard Layer 3 (Foreground)
//Storyboard Layer 4 (Overlay)
//Storyboard Sound Samples

[TimingPoints]
-1992,769.230769230769,4,1,0,30,1,8
123,-90.9090909090909,4,1,0,10,0,0
507,-125,4,1,0,30,0,0
1084,769.230769230769,4,1,0,30,1,0
1084,-125,4,1,0,30,0,0
6276,-90.9090909090909,4,1,0,10,0,0
6660,-125,4,1,0,30,0,0
12430,-90.9090909090909,4,1,0,10,0,0
12814,-100,4,1,0,40,0,0
24545,-94.3396226415094,4,1,0,40,0,0
24833,-93.4579439252336,4,1,0,40,0,0
25026,-92.5925925925926,4,1,0,40,0,0
25218,-91.743119266055,4,1,0,40,0,0
25699,-83.3333333333333,4,1,0,40,0,0
26083,-100,4,1,0,40,0,0
37814,-100,4,1,0,30,0,0
38199,-117.647058823529,4,1,0,20,0,0
39353,-117.647058823529,4,1,0,30,0,0
39738,-117.647058823529,4,1,0,20,0,0
40891,-117.647058823529,4,1,0,30,0,0
41276,-117.647058823529,4,1,0,20,0,0
42430,-117.647058823529,4,1,0,30,0,0
42815,-117.647058823529,4,1,0,20,0,0
43968,-117.647058823529,4,1,0,30,0,0
44353,-117.647058823529,4,1,0,20,0,0
45507,-117.647058823529,4,1,0,30,0,0
45892,-117.647058823529,4,1,0,20,0,0
47045,-117.647058823529,4,1,0,30,0,0
47430,-117.647058823529,4,1,0,20,0,0
47814,-117.647058823529,4,1,0,30,0,0
48199,-117.647058823529,4,1,0,20,0,0
48583,-117.647058823529,4,1,0,30,0,0
48968,-117.647058823529,4,1,0,20,0,0
49353,-92.5925925925926,4,1,0,40,0,0
49593,-93.4579439252336,4,1,0,40,0,0
49689,-94.3396226415094,4,1,0,40,0,0
49833,-96.1538461538461,4,1,0,40,0,0
50314,-100,4,1,0,40,0,0
62622,-100,4,1,0,40,0,0
73389,-100,4,1,0,40,0,0
73485,-99.4060820831941,4,1,0,41,0,0
73581,-98.8156915513073,4,1,0,41,0,0
73677,-98.2288074545685,4,1,0,42,0,0
73774,-97.6454089676311,4,1,0,43,0,0
73870,-97.0654753888339,4,1,0,43,0,0
73966,-96.4889861394669,4,1,0,44,0,0
74062,-95.9159207630403,4,1,0,44,0,0
74158,-95.3462589245593,4,1,0,45,0,0
74254,-94.7799804098022,4,1,0,46,0,0
74351,-94.2170651246033,4,1,0,46,0,0
74447,-93.6574930941396,4,1,0,47,0,0
74543,-93.1012444622223,4,1,0,48,0,0
74639,-92.5482994905919,4,1,0,48,0,0
74735,-91.9986385582182,4,1,0,49,0,0
74831,-91.4522421606035,4,1,0,49,0,0
74930,-90.9090909090909,4,1,0,50,0,1
78968,-90.9090909090909,4,1,0,20,0,1
79353,-90.9090909090909,4,1,0,50,0,1
85122,-90.9090909090909,4,1,0,20,0,1
85507,-90.9090909090909,4,1,0,50,0,1
87237,-90.9090909090909,4,1,0,50,0,0
92862,-88.8888888888889,4,1,0,50,0,0
93391,-86.9565217391304,4,1,0,50,0,1
97430,-86.9565217391304,4,1,0,20,0,1
97718,-86.9565217391304,4,1,0,50,0,1
103583,-86.9565217391304,4,1,0,20,0,1
103968,-86.9565217391304,4,1,0,50,0,1
118007,-86.9565217391304,4,1,0,40,0,0
118391,-111.111111111111,4,1,0,40,0,0
127427,-90.9090909090909,4,1,0,43,0,0
127620,-90.9090909090909,4,1,0,45,0,0
127812,-90.9090909090909,4,1,0,48,0,0
128004,-90.9090909090909,4,1,0,50,0,0
128197,-90.9090909090909,4,1,0,53,0,0
128389,-90.9090909090909,4,1,0,55,0,0
128581,-90.9090909090909,4,1,0,58,0,0
128773,-90.9090909090909,4,1,0,60,0,0
128966,-90.9090909090909,4,1,0,63,0,0
129158,-90.9090909090909,4,1,0,65,0,0
129350,-90.9090909090909,4,1,0,68,0,0
129543,-90.9090909090909,4,1,0,70,0,0
129735,-90.9090909090909,4,1,0,73,0,0
129927,-90.9090909090909,4,1,0,75,0,0
130120,-125,4,1,0,30,0,0
142237,-117.647058823529,4,1,0,30,0,0
166276,-90.9090909090909,4,1,0,10,0,0
166660,-117.647058823529,4,1,0,30,0,0
170122,-111.111111111111,4,1,0,40,0,0
176276,-105.263157894737,4,1,0,40,0,0
180312,-105.263157894737,4,1,0,40,0,0
180408,-104.622120076925,4,1,0,41,0,0
180504,-103.98498608921,4,1,0,43,0,0
180600,-103.351732157816,4,1,0,44,0,0
180697,-102.722334653746,4,1,0,45,0,0
180793,-102.0967700919,4,1,0,46,0,0
180889,-101.475015130199,4,1,0,48,0,0
180985,-100.857046568715,4,1,0,49,0,0
181081,-100.242841348803,4,1,0,50,0,0
181177,-99.632376552243,4,1,0,51,0,0
181274,-99.0256294003828,4,1,0,53,0,0
181370,-98.4225772532894,4,1,0,54,0,0
181466,-97.8231976089038,4,1,0,55,0,0
181562,-97.2274681022013,4,1,0,56,0,0
181658,-96.6353665043572,4,1,0,58,0,0
181754,-96.0468707219169,4,1,0,59,0,0
181850,-95.4619587959724,4,1,0,60,0,0
181947,-94.8806089013416,4,1,0,61,0,0
182043,-94.3027993457554,4,1,0,63,0,0
182139,-93.7285085690471,4,1,0,64,0,0
182235,-93.1577151423485,4,1,0,65,0,0
182331,-92.5903977672903,4,1,0,66,0,0
182427,-92.0265352752073,4,1,0,68,0,0
182524,-91.4661066263481,4,1,0,69,0,0
182620,-90.909090909091,4,1,0,70,0,0
183487,-90.909090909091,4,1,0,10,0,0
183968,-90.909090909091,4,1,0,50,0,0
184160,769.230769230769,4,1,0,50,1,0
184160,-90.9090909090909,4,1,0,50,0,1
188198,-90.9090909090909,4,1,0,20,0,1
188583,-90.9090909090909,4,1,0,50,0,1
194352,-90.9090909090909,4,1,0,20,0,1
194737,-90.9090909090909,4,1,0,50,0,1
196467,-90.9090909090909,4,1,0,50,0,0
202044,-86.9565217391304,4,1,0,50,0,0
202621,-83.3333333333333,4,1,0,50,0,1
206660,-83.3333333333333,4,1,0,20,0,1
206948,-83.3333333333333,4,1,0,50,0,1
212813,-83.3333333333333,4,1,0,20,0,1
213198,-83.3333333333333,4,1,0,50,0,1
227236,-83.3333333333333,4,1,0,40,0,0
227426,-100,4,1,0,39,0,0
227619,-100,4,1,0,38,0,0
227811,-100,4,1,0,37,0,0
228003,-100,4,1,0,36,0,0
228196,-100,4,1,0,35,0,0
228388,-100,4,1,0,34,0,0
228580,-100,4,1,0,33,0,0
228772,-100,4,1,0,33,0,0
228965,-100,4,1,0,32,0,0
229157,-100,4,1,0,31,0,0
229349,-100,4,1,0,30,0,0
229542,-100,4,1,0,29,0,0
229734,-100,4,1,0,28,0,0
229926,-100,4,1,0,27,0,0
230119,-100,4,1,0,26,0,0
230311,-100,4,1,0,25,0,0
230503,-100,4,1,0,24,0,0
230696,-100,4,1,0,23,0,0
230888,-100,4,1,0,22,0,0
231080,-100,4,1,0,21,0,0
231272,-100,4,1,0,20,0,0
231465,-100,4,1,0,19,0,0
231657,-100,4,1,0,18,0,0
231849,-100,4,1,0,18,0,0
232042,-100,4,1,0,17,0,0
232234,-100,4,1,0,16,0,0
232426,-100,4,1,0,15,0,0
232619,-100,4,1,0,14,0,0
232811,-100,4,1,0,13,0,0
233003,-100,4,1,0,12,0,0
233196,-100,4,1,0,11,0,0
233388,-100,4,1,0,10,0,0

[HitObjects]
256,192,315,5,8,0:0:0:0:
256,192,1084,1,0,0:0:0:0:
256,192,1853,1,0,0:0:0:0:
256,192,2430,1,0,0:0:0:0:
256,192,2622,1,0,0:0:0:0:
256,192,2814,1,0,0:0:0:0:
256,192,3007,1,0,0:0:0:0:
256,192,3391,1,0,0:0:0:0:
256,192,3776,1,0,0:0:0:0:
256,192,3968,1,0,0:0:0:0:
256,192,4160,1,0,0:0:0:0:
256,192,4545,1,0,0:0:0:0:
256,192,4737,1,0,0:0:0:0:
256,192,4930,1,0,0:0:0:0:
256,192,5122,1,0,0:0:0:0:
256,192,5314,1,0,0:0:0:0:
256,192,5699,1,0,0:0:0:0:
256,192,6468,1,8,0:0:0:0:
256,192,7237,1,0,0:0:0:0:
256,192,8007,1,0,0:0:0:0:
256,192,8584,1,0,0:0:0:0:
256,192,8776,1,0,0:0:0:0:
256,192,8968,1,0,0:0:0:0:
256,192,9160,1,0,0:0:0:0:
256,192,9545,1,0,0:0:0:0:
256,192,9930,1,0,0:0:0:0:
256,192,10122,1,0,0:0:0:0:
256,192,10314,1,0,0:0:0:0:
256,192,10699,1,0,0:0:0:0:
256,192,10891,1,0,0:0:0:0:
256,192,11083,1,0,0:0:0:0:
256,192,11276,1,0,0:0:0:0:
256,192,11468,1,0,0:0:0:0:
256,192,11853,1,0,0:0:0:0:
256,192,12622,1,8,0:0:0:0:
256,192,13391,1,0,0:0:0:0:
256,192,13968,1,0,0:0:0:0:
256,192,14160,1,8,0:0:0:0:
256,192,14545,1,0,0:0:0:0:
256,192,14929,1,8,0:0:0:0:
256,192,15121,1,8,0:0:0:0:
256,192,15314,1,0,0:0:0:0:
256,192,15507,1,0,0:0:0:0:
256,192,15698,1,8,0:0:0:0:
256,192,16083,1,8,0:0:0:0:
256,192,16276,1,8,0:0:0:0:
256,192,16467,1,0,0:0:0:0:
256,192,16852,1,8,0:0:0:0:
256,192,17044,1,0,0:0:0:0:
256,192,17237,1,8,0:0:0:0:
256,192,17430,1,8,0:0:0:0:
256,192,17621,1,0,0:0:0:0:
256,192,18006,1,8,0:0:0:0:
256,192,18583,1,0,0:0:0:0:
256,192,18775,1,8,0:0:0:0:
256,192,19160,1,8,0:0:0:0:
256,192,19544,1,0,0:0:0:0:
256,192,20122,1,0,0:0:0:0:
256,192,20314,1,8,0:0:0:0:
256,192,20699,1,0,0:0:0:0:
256,192,21083,1,8,0:0:0:0:
256,192,21275,1,0,0:0:0:0:
256,192,21468,1,0,0:0:0:0:
256,192,21660,1,0,0:0:0:0:
256,192,21852,1,8,0:0:0:0:
256,192,22237,1,8,0:0:0:0:
256,192,22430,1,8,0:0:0:0:
256,192,22621,1,0,0:0:0:0:
256,192,23006,1,0,0:0:0:0:
256,192,23198,1,0,0:0:0:0:
256,192,23390,1,8,0:0:0:0:
256,192,23583,1,8,0:0:0:0:
256,192,23775,1,0,0:0:0:0:
256,192,24160,1,8,0:0:0:0:
256,192,24737,1,0,0:0:0:0:
256,192,24929,1,8,0:0:0:0:
256,192,25122,1,8,0:0:0:0:
256,192,25314,1,8,0:0:0:0:
256,192,25699,1,4,0:0:0:0:
256,192,26468,1,12,0:0:0:0:
256,192,27045,1,8,0:0:0:0:
256,192,27237,1,0,0:0:0:0:
256,192,27814,1,0,0:0:0:0:
256,192,28007,1,8,0:0:0:0:
256,192,28391,1,8,0:0:0:0:
256,192,28776,1,4,0:0:0:0:
256,192,29545,1,12,0:0:0:0:
256,192,29930,1,8,0:0:0:0:
256,192,30314,1,0,0:0:0:0:
256,192,30891,1,0,0:0:0:0:
256,192,31083,1,8,0:0:0:0:
256,192,31468,1,8,0:0:0:0:
256,192,31853,1,4,0:0:0:0:
256,192,32622,1,12,0:0:0:0:
256,192,33199,1,8,0:0:0:0:
256,192,33391,1,0,0:0:0:0:
256,192,33968,1,0,0:0:0:0:
256,192,34160,1,8,0:0:0:0:
256,192,34545,1,8,0:0:0:0:
256,192,34930,1,4,0:0:0:0:
256,192,35699,1,12,0:0:0:0:
256,192,36083,1,8,0:0:0:0:
256,192,36468,1,0,0:0:0:0:
256,192,37045,1,0,0:0:0:0:
256,192,37237,1,8,0:0:0:0:
256,192,37622,1,8,0:0:0:0:
256,192,38007,1,0,0:0:0:0:
256,192,39160,1,0,0:0:0:0:
256,192,39545,1,8,0:0:0:0:
256,192,40699,1,8,0:0:0:0:
256,192,41083,1,0,0:0:0:0:
256,192,42237,1,0,0:0:0:0:
256,192,42622,1,8,0:0:0:0:
256,192,43776,1,8,0:0:0:0:
256,192,44160,1,0,0:0:0:0:
256,192,45314,1,0,0:0:0:0:
256,192,45699,1,8,0:0:0:0:
256,192,46853,1,8,0:0:0:0:
256,192,47237,1,0,0:0:0:0:
256,192,48007,1,0,0:0:0:0:
256,192,48391,1,0,0:0:0:0:
256,192,48776,1,8,0:0:0:0:
256,192,49545,1,0,0:0:0:0:
256,192,49641,1,0,0:0:0:0:
256,192,49737,1,0,0:0:0:0:
256,192,49930,1,8,0:0:0:0:
256,192,50314,1,4,0:0:0:0:
256,192,51083,1,8,0:0:0:0:
256,192,51468,1,8,0:0:0:0:
256,192,51853,1,0,0:0:0:0:
256,192,52045,1,0,0:0:0:0:
256,192,52237,1,0,0:0:0:0:
256,192,52622,1,8,0:0:0:0:
256,192,52814,1,8,0:0:0:0:
256,192,53007,1,8,0:0:0:0:
256,192,53391,1,4,0:0:0:0:
256,192,54160,1,8,0:0:0:0:
256,192,54545,1,8,0:0:0:0:
256,192,54930,1,0,0:0:0:0:
256,192,55122,1,8,0:0:0:0:
256,192,55507,1,8,0:0:0:0:
256,192,55699,1,0,0:0:0:0:
256,192,55891,1,0,0:0:0:0:
256,192,56083,1,8,0:0:0:0:
256,192,56468,1,4,0:0:0:0:
256,192,57237,1,8,0:0:0:0:
256,192,57622,1,8,0:0:0:0:
256,192,58007,1,0,0:0:0:0:
256,192,58199,1,8,0:0:0:0:
256,192,58391,1,0,0:0:0:0:
256,192,58776,1,8,0:0:0:0:
256,192,58968,1,0,0:0:0:0:
256,192,59160,1,8,0:0:0:0:
256,192,59545,1,4,0:0:0:0:
256,192,59930,1,8,0:0:0:0:
256,192,60122,1,8,0:0:0:0:
256,192,60314,1,0,0:0:0:0:
256,192,60699,1,8,0:0:0:0:
256,192,61083,1,0,0:0:0:0:
256,192,61276,1,8,0:0:0:0:
256,192,61660,1,0,0:0:0:0:
256,192,61757,1,0,0:0:0:0:
256,192,61853,1,0,0:0:0:0:
256,192,62045,1,0,0:0:0:0:
256,192,62237,1,8,0:0:0:0:
256,192,62622,1,0,0:0:0:0:
256,192,63199,1,0,0:0:0:0:
256,192,63391,1,8,0:0:0:0:
256,192,63776,1,8,0:0:0:0:
256,192,64160,1,0,0:0:0:0:
256,192,64353,1,0,0:0:0:0:
256,192,64737,1,0,0:0:0:0:
256,192,64930,1,8,0:0:0:0:
256,192,65314,1,8,0:0:0:0:
256,192,65699,1,0,0:0:0:0:
256,192,66276,1,0,0:0:0:0:
256,192,66468,1,8,0:0:0:0:
256,192,66853,1,8,0:0:0:0:
256,192,67237,1,0,0:0:0:0:
256,192,67430,1,0,0:0:0:0:
256,192,67814,1,0,0:0:0:0:
256,192,68007,1,8,0:0:0:0:
256,192,68391,1,8,0:0:0:0:
256,192,68583,1,8,0:0:0:0:
256,192,68776,1,0,0:0:0:0:
256,192,68968,1,0,0:0:0:0:
256,192,69353,1,0,0:0:0:0:
256,192,69545,1,8,0:0:0:0:
256,192,69930,1,8,0:0:0:0:
256,192,70314,1,0,0:0:0:0:
256,192,70507,1,0,0:0:0:0:
256,192,70699,1,8,0:0:0:0:
256,192,70891,1,0,0:0:0:0:
256,192,71084,1,8,0:0:0:0:
256,192,71468,1,8,0:0:0:0:
256,192,71853,1,0,0:0:0:0:
256,192,72430,1,0,0:0:0:0:
256,192,72622,1,8,0:0:0:0:
256,192,73007,1,8,0:0:0:0:
256,192,73391,1,0,0:0:0:0:
256,192,73584,1,0,0:0:0:0:
256,192,73968,1,0,0:0:0:0:
256,192,74064,1,0,0:0:0:0:
256,192,74161,1,0,0:0:0:0:
256,192,74353,1,0,0:0:0:0:
256,192,74545,1,8,0:0:0:0:
256,192,74930,1,4,0:0:0:0:
256,192,75314,1,8,0:0:0:0:
256,192,75507,1,8,0:0:0:0:
256,192,75891,1,0,0:0:0:0:
256,192,76083,1,8,0:0:0:0:
256,192,76276,1,8,0:0:0:0:
256,192,76468,1,0,0:0:0:0:
256,192,76853,1,0,0:0:0:0:
256,192,77045,1,0,0:0:0:0:
256,192,77237,1,8,0:0:0:0:
256,192,77430,1,8,0:0:0:0:
256,192,77622,1,0,0:0:0:0:
256,192,77814,1,8,0:0:0:0:
256,192,78007,1,0,0:0:0:0:
256,192,78391,1,8,0:0:0:0:
256,192,79160,1,8,0:0:0:0:
256,192,79545,1,0,0:0:0:0:
256,192,79737,1,8,0:0:0:0:
256,192,79930,1,0,0:0:0:0:
256,192,80122,1,0,0:0:0:0:
256,192,80314,1,8,0:0:0:0:
256,192,80507,1,0,0:0:0:0:
256,192,80699,1,8,0:0:0:0:
256,192,81083,1,4,0:0:0:0:
256,192,81468,1,8,0:0:0:0:
256,192,81661,1,8,0:0:0:0:
256,192,81853,1,0,0:0:0:0:
256,192,82237,1,0,0:0:0:0:
256,192,82430,1,0,0:0:0:0:
256,192,82622,1,8,0:0:0:0:
256,192,82814,1,8,0:0:0:0:
256,192,83007,1,0,0:0:0:0:
256,192,83199,1,0,0:0:0:0:
256,192,83391,1,8,0:0:0:0:
256,192,83776,1,0,0:0:0:0:
256,192,83968,1,8,0:0:0:0:
256,192,84161,1,0,0:0:0:0:
256,192,84545,1,8,0:0:0:0:
256,192,85314,1,8,0:0:0:0:
256,192,85699,1,8,0:0:0:0:
256,192,85891,1,8,0:0:0:0:
256,192,86084,1,0,0:0:0:0:
256,192,86276,1,0,0:0:0:0:
256,192,86468,1,8,0:0:0:0:
256,192,86661,1,0,0:0:0:0:
256,192,86853,1,8,0:0:0:0:
256,192,87237,1,4,0:0:0:0:
256,192,87622,1,8,0:0:0:0:
256,192,88007,1,0,0:0:0:0:
256,192,88391,1,8,0:0:0:0:
256,192,88583,1,8,0:0:0:0:
256,192,88776,1,0,0:0:0:0:
256,192,89545,1,12,0:0:0:0:
256,192,90314,1,4,0:0:0:0:
256,192,90699,1,0,0:0:0:0:
256,192,91083,1,8,0:0:0:0:
256,192,91468,1,0,0:0:0:0:
256,192,91660,1,0,0:0:0:0:
256,192,91853,1,8,0:0:0:0:
256,192,91949,1,8,0:0:0:0:
256,192,92045,1,8,0:0:0:0:
256,192,92237,1,0,0:0:0:0:
256,192,92430,1,0,0:0:0:0:
256,192,92622,1,8,0:0:0:0:
256,192,93007,1,8,0:0:0:0:
256,192,93391,1,4,0:0:0:0:
256,192,93776,1,8,0:0:0:0:
256,192,93969,1,8,0:0:0:0:
256,192,94160,1,0,0:0:0:0:
256,192,94353,1,8,0:0:0:0:
256,192,94545,1,0,0:0:0:0:
256,192,94738,1,0,0:0:0:0:
256,192,94930,1,8,0:0:0:0:
256,192,95315,1,0,0:0:0:0:
256,192,95507,1,0,0:0:0:0:
256,192,95699,1,8,0:0:0:0:
256,192,95892,1,0,0:0:0:0:
256,192,96084,1,8,0:0:0:0:
256,192,96276,1,8,0:0:0:0:
256,192,96469,1,0,0:0:0:0:
256,192,96853,1,8,0:0:0:0:
256,192,97237,1,0,0:0:0:0:
256,192,97622,1,8,0:0:0:0:
256,192,97814,1,0,0:0:0:0:
256,192,98007,1,8,0:0:0:0:
256,192,98392,1,0,0:0:0:0:
256,192,98584,1,0,0:0:0:0:
256,192,98776,1,8,0:0:0:0:
256,192,98969,1,0,0:0:0:0:
256,192,99161,1,8,0:0:0:0:
256,192,99545,1,4,0:0:0:0:
256,192,99930,1,8,0:0:0:0:
256,192,100123,1,0,0:0:0:0:
256,192,100314,1,0,0:0:0:0:
256,192,100507,1,0,0:0:0:0:
256,192,100699,1,8,0:0:0:0:
256,192,100892,1,8,0:0:0:0:
256,192,101084,1,0,0:0:0:0:
256,192,101469,1,8,0:0:0:0:
256,192,101661,1,0,0:0:0:0:
256,192,101853,1,8,0:0:0:0:
256,192,102046,1,8,0:0:0:0:
256,192,102238,1,0,0:0:0:0:
256,192,102430,1,8,0:0:0:0:
256,192,102623,1,0,0:0:0:0:
256,192,103007,1,8,0:0:0:0:
256,192,103391,1,0,0:0:0:0:
256,192,103776,1,8,0:0:0:0:
256,192,104161,1,0,0:0:0:0:
256,192,104353,1,0,0:0:0:0:
256,192,104546,1,8,0:0:0:0:
256,192,104738,1,0,0:0:0:0:
256,192,104930,1,8,0:0:0:0:
256,192,105123,1,8,0:0:0:0:
256,192,105315,1,8,0:0:0:0:
256,192,105699,1,4,0:0:0:0:
256,192,106083,1,0,0:0:0:0:
256,192,106468,1,8,0:0:0:0:
256,192,106852,1,8,0:0:0:0:
256,192,107044,1,8,0:0:0:0:
256,192,107237,1,0,0:0:0:0:
256,192,107622,1,0,0:0:0:0:
256,192,108006,1,12,0:0:0:0:
256,192,108775,1,4,0:0:0:0:
256,192,109160,1,0,0:0:0:0:
256,192,109544,1,8,0:0:0:0:
256,192,109929,1,8,0:0:0:0:
256,192,110122,1,8,0:0:0:0:
256,192,110314,1,0,0:0:0:0:
256,192,110506,1,0,0:0:0:0:
256,192,110698,1,0,0:0:0:0:
256,192,111083,1,12,0:0:0:0:
256,192,111853,1,4,0:0:0:0:
256,192,112237,1,0,0:0:0:0:
256,192,112622,1,8,0:0:0:0:
256,192,113007,1,0,0:0:0:0:
256,192,113199,1,8,0:0:0:0:
256,192,113391,1,0,0:0:0:0:
256,192,113776,1,0,0:0:0:0:
256,192,114160,1,12,0:0:0:0:
256,192,114545,1,8,0:0:0:0:
256,192,114930,1,4,0:0:0:0:
256,192,115699,1,8,0:0:0:0:
256,192,115891,1,0,0:0:0:0:
256,192,116083,1,0,0:0:0:0:
256,192,116276,1,0,0:0:0:0:
256,192,116468,1,8,0:0:0:0:
256,192,116853,1,0,0:0:0:0:
256,192,117237,1,12,0:0:0:0:
256,192,118007,1,4,0:0:0:0:
256,192,120314,1,12,0:0:0:0:
256,192,121083,1,4,0:0:0:0:
256,192,123391,1,12,0:0:0:0:
256,192,124160,1,4,0:0:0:0:
256,192,126468,1,12,0:0:0:0:
256,192,127237,1,4,0:0:0:0:
256,192,127430,12,0,129930,0:0:0:0:
256,192,130314,5,8,0:0:0:0:
256,192,131468,1,0,0:0:0:0:
256,192,133391,1,8,0:0:0:0:
256,192,134545,1,8,0:0:0:0:
256,192,136468,1,0,0:0:0:0:
256,192,137622,1,8,0:0:0:0:
256,192,139545,1,0,0:0:0:0:
256,192,140699,1,0,0:0:0:0:
256,192,142622,1,8,0:0:0:0:
256,192,143199,1,8,0:0:0:0:
256,192,143776,1,0,0:0:0:0:
256,192,145699,1,8,0:0:0:0:
256,192,146276,1,0,0:0:0:0:
256,192,146853,1,8,0:0:0:0:
256,192,148776,1,0,0:0:0:0:
256,192,149353,1,0,0:0:0:0:
256,192,149930,1,8,0:0:0:0:
256,192,151853,1,0,0:0:0:0:
256,192,152430,1,8,0:0:0:0:
256,192,153007,1,0,0:0:0:0:
256,192,153776,1,0,0:0:0:0:
256,192,154160,1,8,0:0:0:0:
256,192,154930,1,0,0:0:0:0:
256,192,156083,1,0,0:0:0:0:
256,192,156853,1,8,0:0:0:0:
256,192,157237,1,8,0:0:0:0:
256,192,158007,1,0,0:0:0:0:
256,192,158391,1,0,0:0:0:0:
256,192,158776,1,8,0:0:0:0:
256,192,159160,1,0,0:0:0:0:
256,192,159930,1,0,0:0:0:0:
256,192,160314,1,8,0:0:0:0:
256,192,161083,1,0,0:0:0:0:
256,192,161660,1,0,0:0:0:0:
256,192,161853,1,8,0:0:0:0:
256,192,162237,1,0,0:0:0:0:
256,192,163007,1,0,0:0:0:0:
256,192,163391,1,8,0:0:0:0:
256,192,164160,1,0,0:0:0:0:
256,192,164737,1,8,0:0:0:0:
256,192,165314,1,0,0:0:0:0:
256,192,166468,1,8,0:0:0:0:
256,192,170314,5,4,0:0:0:0:
256,192,171083,1,12,0:0:0:0:
256,192,171468,1,8,0:0:0:0:
256,192,171853,1,0,0:0:0:0:
256,192,172430,1,8,0:0:0:0:
256,192,172622,1,8,0:0:0:0:
256,192,173007,1,8,0:0:0:0:
256,192,173391,1,4,0:0:0:0:
256,192,174160,1,12,0:0:0:0:
256,192,174545,1,8,0:0:0:0:
256,192,174930,1,0,0:0:0:0:
256,192,175507,1,8,0:0:0:0:
256,192,175699,1,8,0:0:0:0:
256,192,175891,1,0,0:0:0:0:
256,192,176083,1,8,0:0:0:0:
256,192,176468,1,4,0:0:0:0:
256,192,177045,1,0,0:0:0:0:
256,192,177237,1,8,0:0:0:0:
256,192,177622,1,0,0:0:0:0:
256,192,178007,1,8,0:0:0:0:
256,192,178583,1,8,0:0:0:0:
256,192,178776,1,8,0:0:0:0:
256,192,178968,1,0,0:0:0:0:
256,192,179160,1,8,0:0:0:0:
256,192,179545,1,4,0:0:0:0:
256,192,180314,1,12,0:0:0:0:
256,192,180699,1,0,0:0:0:0:
256,192,180891,1,0,0:0:0:0:
256,192,181083,1,8,0:0:0:0:
256,192,181468,1,8,0:0:0:0:
256,192,181660,1,8,0:0:0:0:
256,192,181853,1,0,0:0:0:0:
256,192,182045,1,0,0:0:0:0:
256,192,182237,1,8,0:0:0:0:
256,192,182333,1,8,0:0:0:0:
256,192,182430,1,8,0:0:0:0:
256,192,182622,12,0,183391,0:0:0:0:
256,192,184160,5,4,0:0:0:0:
256,192,184544,1,8,0:0:0:0:
256,192,184737,1,8,0:0:0:0:
256,192,185121,1,0,0:0:0:0:
256,192,185313,1,8,0:0:0:0:
256,192,185506,1,8,0:0:0:0:
256,192,185698,1,0,0:0:0:0:
256,192,186083,1,0,0:0:0:0:
256,192,186275,1,0,0:0:0:0:
256,192,186467,1,8,0:0:0:0:
256,192,186660,1,8,0:0:0:0:
256,192,186852,1,0,0:0:0:0:
256,192,187044,1,8,0:0:0:0:
256,192,187237,1,0,0:0:0:0:
256,192,187621,1,8,0:0:0:0:
256,192,188390,1,8,0:0:0:0:
256,192,188775,1,0,0:0:0:0:
256,192,188967,1,8,0:0:0:0:
256,192,189160,1,0,0:0:0:0:
256,192,189352,1,0,0:0:0:0:
256,192,189544,1,8,0:0:0:0:
256,192,189737,1,0,0:0:0:0:
256,192,189929,1,8,0:0:0:0:
256,192,190313,1,4,0:0:0:0:
256,192,190698,1,8,0:0:0:0:
256,192,190891,1,8,0:0:0:0:
256,192,191083,1,0,0:0:0:0:
256,192,191467,1,0,0:0:0:0:
256,192,191660,1,0,0:0:0:0:
256,192,191852,1,8,0:0:0:0:
256,192,192044,1,8,0:0:0:0:
256,192,192237,1,0,0:0:0:0:
256,192,192429,1,0,0:0:0:0:
256,192,192621,1,8,0:0:0:0:
256,192,193006,1,0,0:0:0:0:
256,192,193198,1,8,0:0:0:0:
256,192,193391,1,0,0:0:0:0:
256,192,193775,1,8,0:0:0:0:
256,192,194544,1,8,0:0:0:0:
256,192,194929,1,8,0:0:0:0:
256,192,195121,1,8,0:0:0:0:
256,192,195314,1,0,0:0:0:0:
256,192,195506,1,0,0:0:0:0:
256,192,195698,1,8,0:0:0:0:
256,192,195891,1,0,0:0:0:0:
256,192,196083,1,8,0:0:0:0:
256,192,196467,1,4,0:0:0:0:
256,192,196852,1,8,0:0:0:0:
256,192,197237,1,0,0:0:0:0:
256,192,197621,1,8,0:0:0:0:
256,192,197813,1,8,0:0:0:0:
256,192,198006,1,0,0:0:0:0:
256,192,198775,1,12,0:0:0:0:
256,192,199544,1,4,0:0:0:0:
256,192,199929,1,0,0:0:0:0:
256,192,200313,1,8,0:0:0:0:
256,192,200698,1,0,0:0:0:0:
256,192,200890,1,0,0:0:0:0:
256,192,201083,1,8,0:0:0:0:
256,192,201179,1,8,0:0:0:0:
256,192,201275,1,8,0:0:0:0:
256,192,201467,1,0,0:0:0:0:
256,192,201660,1,0,0:0:0:0:
256,192,201852,1,8,0:0:0:0:
256,192,202237,1,8,0:0:0:0:
256,192,202621,1,4,0:0:0:0:
256,192,203006,1,8,0:0:0:0:
256,192,203199,1,8,0:0:0:0:
256,192,203390,1,0,0:0:0:0:
256,192,203583,1,8,0:0:0:0:
256,192,203775,1,0,0:0:0:0:
256,192,203968,1,0,0:0:0:0:
256,192,204160,1,8,0:0:0:0:
256,192,204352,1,0,0:0:0:0:
256,192,204545,1,0,0:0:0:0:
256,192,204737,1,0,0:0:0:0:
256,192,204929,1,8,0:0:0:0:
256,192,205122,1,0,0:0:0:0:
256,192,205314,1,8,0:0:0:0:
256,192,205506,1,8,0:0:0:0:
256,192,205699,1,0,0:0:0:0:
256,192,206083,1,8,0:0:0:0:
256,192,206467,1,0,0:0:0:0:
256,192,206852,1,8,0:0:0:0:
256,192,207044,1,0,0:0:0:0:
256,192,207237,1,8,0:0:0:0:
256,192,207429,1,0,0:0:0:0:
256,192,207525,1,0,0:0:0:0:
256,192,207622,1,0,0:0:0:0:
256,192,207813,1,0,0:0:0:0:
256,192,208006,1,8,0:0:0:0:
256,192,208199,1,0,0:0:0:0:
256,192,208391,1,8,0:0:0:0:
256,192,208775,1,4,0:0:0:0:
256,192,209160,1,8,0:0:0:0:
256,192,209353,1,0,0:0:0:0:
256,192,209544,1,0,0:0:0:0:
256,192,209737,1,0,0:0:0:0:
256,192,209929,1,8,0:0:0:0:
256,192,210122,1,8,0:0:0:0:
256,192,210314,1,0,0:0:0:0:
256,192,210506,1,0,0:0:0:0:
256,192,210699,1,8,0:0:0:0:
256,192,210891,1,0,0:0:0:0:
256,192,211083,1,8,0:0:0:0:
256,192,211276,1,8,0:0:0:0:
256,192,211468,1,0,0:0:0:0:
256,192,211660,1,8,0:0:0:0:
256,192,211853,1,0,0:0:0:0:
256,192,212237,1,8,0:0:0:0:
256,192,212621,1,0,0:0:0:0:
256,192,213006,1,8,0:0:0:0:
256,192,213391,1,0,0:0:0:0:
256,192,213583,1,0,0:0:0:0:
256,192,213776,1,8,0:0:0:0:
256,192,213871,1,8,0:0:0:0:
256,192,213968,1,8,0:0:0:0:
256,192,214160,1,8,0:0:0:0:
256,192,214353,1,0,0:0:0:0:
256,192,214545,1,8,0:0:0:0:
256,192,214929,1,4,0:0:0:0:
256,192,215313,1,0,0:0:0:0:
256,192,215506,1,0,0:0:0:0:
256,192,215698,1,8,0:0:0:0:
256,192,216082,1,8,0:0:0:0:
256,192,216274,1,8,0:0:0:0:
256,192,216467,1,0,0:0:0:0:
256,192,216852,1,0,0:0:0:0:
256,192,217236,1,12,0:0:0:0:
256,192,218005,1,4,0:0:0:0:
256,192,218390,1,0,0:0:0:0:
256,192,218583,1,0,0:0:0:0:
256,192,218774,1,8,0:0:0:0:
256,192,219159,1,8,0:0:0:0:
256,192,219352,1,8,0:0:0:0:
256,192,219544,1,0,0:0:0:0:
256,192,219640,1,0,0:0:0:0:
256,192,219736,1,0,0:0:0:0:
256,192,219928,1,8,0:0:0:0:
256,192,220313,1,12,0:0:0:0:
256,192,221083,1,4,0:0:0:0:
256,192,221467,1,0,0:0:0:0:
256,192,221660,1,0,0:0:0:0:
256,192,221852,1,8,0:0:0:0:
256,192,222237,1,0,0:0:0:0:
256,192,222429,1,8,0:0:0:0:
256,192,222621,1,0,0:0:0:0:
256,192,223006,1,0,0:0:0:0:
256,192,223390,1,12,0:0:0:0:
256,192,223775,1,8,0:0:0:0:
256,192,224160,1,4,0:0:0:0:
256,192,224929,1,8,0:0:0:0:
256,192,225121,1,0,0:0:0:0:
256,192,225313,1,0,0:0:0:0:
256,192,225506,1,0,0:0:0:0:
256,192,225698,1,0,0:0:0:0:
256,192,226083,1,0,0:0:0:0:
256,192,226467,1,12,0:0:0:0:
256,192,227236,12,0,233390,0:0:0:0:
