osu file format v14

[General]
AudioFilename: audio.mp3
AudioLeadIn: 0
PreviewTime: 98893
Countdown: 1
SampleSet: Soft
StackLeniency: 0.7
Mode: 0
LetterboxInBreaks: 1
WidescreenStoryboard: 1

[Editor]
DistanceSpacing: 1
BeatDivisor: 6
GridSize: 16
TimelineZoom: 1

[Metadata]
Title:Sparkle
TitleUnicode:Sparkle
Artist:RADWIMPS
ArtistUnicode:RADWIMPS
Creator:CABERMAN
Version:Hard
Source:君の名は。
Tags:
BeatmapID:1449012
BeatmapSetID:675432

[Difficulty]
HPDrainRate:5
CircleSize:4
OverallDifficulty:6
ApproachRate:7
SliderMultiplier:1.4
SliderTickRate:3

[Events]
//Background and Video events
0,0,"BACKGROUND FOR MAP.png",0,0
//Break Periods
2,52641,67025
//Storyboard Layer 0 (Background)
//Storyboard Layer 1 (Fail)
//Storyboard Layer 2 (Pass)
//Storyboard Layer 3 (Foreground)
//Storyboard Sound Samples

[TimingPoints]
2119,483.870967741935,4,2,0,59,1,0
21960,-133.333333333333,4,2,0,59,0,0
67925,-66.6666666666667,4,2,0,59,0,0
98893,-50,4,2,0,59,0,1
114377,-50,4,2,0,59,0,0
121635,-55.5555555555556,4,2,0,59,0,0
137602,-100,4,2,0,59,0,0
156877,-55.5555555555556,4,2,0,59,0,0

[HitObjects]
345,237,2119,5,0,0:0:0:0:
255,242,2280,1,0,0:0:0:0:
169,243,2441,1,0,0:0:0:0:
309,152,2602,5,0,0:0:0:0:
236,151,2764,1,0,0:0:0:0:
164,150,2925,1,0,0:0:0:0:
87,151,3086,5,0,0:0:0:0:
89,58,3248,1,0,0:0:0:0:
187,56,3409,1,0,0:0:0:0:
258,77,3570,5,0,0:0:0:0:
324,110,3731,1,0,0:0:0:0:
391,141,3893,1,0,0:0:0:0:
398,224,4054,6,0,P|399:280|400:288,2,46.6666666666667
391,141,4538,5,0,0:0:0:0:
298,142,4699,1,0,0:0:0:0:
296,62,4860,1,0,0:0:0:0:
226,63,5022,5,0,0:0:0:0:
221,144,5183,1,0,0:0:0:0:
132,145,5344,1,0,0:0:0:0:
129,218,5506,5,0,0:0:0:0:
186,272,5667,1,0,0:0:0:0:
281,272,5828,1,0,0:0:0:0:
389,269,5989,6,0,P|424:216|390:145,1,140
306,93,6635,1,0,0:0:0:0:
307,181,6796,1,0,0:0:0:0:
209,187,6957,1,0,0:0:0:0:
112,185,7118,2,0,P|111:241|111:251,4,46.6666666666667
119,80,7925,6,0,P|237:80|368:80,1,233.333333333333
350,188,8893,2,0,P|279:189|102:189,1,233.333333333333
134,310,9860,2,0,P|252:310|386:310,1,233.333333333333
306,46,10828,6,0,P|306:162|308:280,1,233.333333333333
170,167,11796,6,0,B|177:109|177:109|266:94,1,140
384,82,12441,1,0,0:0:0:0:
388,156,12602,1,0,0:0:0:0:
384,231,12764,2,0,B|311:303|311:303|261:306,1,140
151,303,13409,5,0,0:0:0:0:
96,224,13570,1,0,0:0:0:0:
103,136,13731,2,0,B|212:90|212:90|245:89,1,140
367,103,14377,5,0,0:0:0:0:
365,216,14538,1,0,0:0:0:0:
280,270,14699,2,0,B|155:271|155:271|136:254,1,140
75,170,15344,5,0,0:0:0:0:
76,92,15506,1,0,0:0:0:0:
154,67,15667,2,0,B|286:55|286:55|303:68,1,140
340,153,16312,1,0,0:0:0:0:
276,216,16473,1,0,0:0:0:0:
207,231,16635,6,0,B|115:210|115:210|113:152,1,140
155,65,17280,5,0,0:0:0:0:
57,64,17441,1,0,0:0:0:0:
53,146,17602,2,0,B|70:252|70:252|109:268,1,140
256,192,18489,12,0,21473,0:0:0:0:
293,108,21957,5,0,0:0:0:0:
293,108,22118,1,0,0:0:0:0:
293,108,22280,1,0,0:0:0:0:
293,108,22441,1,0,0:0:0:0:
160,130,22764,2,0,L|161:180,1,35.0000013351441
174,281,23086,5,0,0:0:0:0:
174,281,23248,1,0,0:0:0:0:
301,282,23409,2,0,B|256:215|256:215|325:97,1,210.000008010865
400,123,24538,6,0,L|378:162,1,35.0000013351441
431,192,24860,2,0,L|413:228,1,35.0000013351441
468,266,25183,2,0,L|448:301,1,35.0000013351441
351,329,25506,1,0,0:0:0:0:
247,331,25667,1,0,0:0:0:0:
163,300,25828,6,0,B|121:249|121:249|124:208,1,105.000004005432
115,125,26473,1,0,0:0:0:0:
118,44,26635,1,0,0:0:0:0:
115,125,26796,1,0,0:0:0:0:
125,206,26957,1,0,0:0:0:0:
125,206,27118,6,0,B|196:233|196:233|325:156,1,210.000008010865
310,62,28248,2,0,P|208:62|204:62,1,105.000004005432
106,229,29215,5,0,0:0:0:0:
416,157,29699,5,0,0:0:0:0:
362,119,29860,1,0,0:0:0:0:
307,88,30022,1,0,0:0:0:0:
248,52,30183,1,0,0:0:0:0:
245,115,30344,1,0,0:0:0:0:
249,181,30506,1,0,0:0:0:0:
182,185,30667,1,0,0:0:0:0:
115,185,30828,1,0,0:0:0:0:
48,184,30989,1,0,0:0:0:0:
48,258,31151,2,0,L|197:259,1,140.000005340576
277,261,32118,6,0,L|278:107,1,140.000005340576
277,126,33086,5,0,0:0:0:0:
277,126,33570,5,0,0:0:0:0:
208,76,33812,2,0,P|175:88|150:101,1,52.5000020027161
273,164,34377,2,0,L|237:193,1,35.0000013351441
168,183,34860,2,0,L|142:209,1,35.0000013351441
83,292,35506,2,0,P|77:220|75:177,2,105.000004005432
191,329,36957,6,0,P|255:306|266:274,1,105.000004005432
325,161,37602,1,0,0:0:0:0:
325,161,37764,1,0,0:0:0:0:
325,161,37925,1,0,0:0:0:0:
219,82,38248,1,0,0:0:0:0:
219,82,38409,1,0,0:0:0:0:
114,121,38731,2,0,P|106:159|104:166,1,35.0000013351441
344,199,39860,6,0,P|212:162|167:214,1,210.000008010865
255,104,41312,6,0,L|257:146,3,35.0000013351441
256,227,42038,2,0,L|256:289,1,52.5000020027161
330,302,42602,2,0,L|331:256,1,35.0000013351441
332,163,43248,6,0,P|308:124|257:106,1,87.5000033378602
105,111,43812,1,0,0:0:0:0:
344,122,44215,1,0,0:0:0:0:
385,299,45183,6,0,L|383:254,1,35.0000013351441
382,186,45506,2,0,L|381:139,1,35.0000013351441
197,84,45989,2,0,L|155:82,1,35.0000013351441
55,206,46393,1,0,0:0:0:0:
154,293,46635,2,0,L|271:293,3,105.000004005432
405,298,49054,5,0,0:0:0:0:
404,214,49215,1,0,0:0:0:0:
401,132,49377,1,0,0:0:0:0:
400,45,49538,1,0,0:0:0:0:
259,78,49780,1,0,0:0:0:0:
259,78,50022,1,0,0:0:0:0:
252,173,50264,5,0,0:0:0:0:
293,243,50506,2,0,B|327:216|350:149|357:67|245:3|105:83|175:228|223:246,1,420.000016021729
75,42,67925,6,0,L|76:266,1,210.000008010865
159,305,68570,1,0,0:0:0:0:
235,305,68731,1,0,0:0:0:0:
327,305,68892,1,0,0:0:0:0:
439,297,69296,5,0,0:0:0:0:
439,213,69457,1,0,0:0:0:0:
425,83,69699,5,0,0:0:0:0:
305,88,69860,2,0,P|162:95|111:164,1,210.000008010865
92,302,70828,2,0,L|316:299,2,210.000008010865
149,194,72280,5,0,0:0:0:0:
264,193,72522,1,0,0:0:0:0:
376,193,72764,1,0,0:0:0:0:
381,313,73086,2,0,L|291:315,1,70.0000026702882
128,308,73570,1,0,0:0:0:0:
128,308,73731,1,0,0:0:0:0:
103,194,74215,6,0,P|121:130|261:54,1,210.000008010865
433,62,75183,1,0,0:0:0:0:
307,67,76151,5,0,0:0:0:0:
313,152,76312,1,0,0:0:0:0:
223,154,76473,1,0,0:0:0:0:
221,235,76635,1,0,0:0:0:0:
315,234,76796,1,0,0:0:0:0:
321,313,76957,1,0,0:0:0:0:
225,313,77118,1,0,0:0:0:0:
105,308,77441,1,0,0:0:0:0:
105,308,77602,1,0,0:0:0:0:
108,193,78570,5,0,0:0:0:0:
370,197,79538,1,0,0:0:0:0:
277,200,80022,6,0,L|125:204,1,140.000005340576
97,200,80506,1,0,0:0:0:0:
76,114,80828,2,0,L|172:115,1,70.0000026702882
232,116,81312,1,0,0:0:0:0:
232,116,81473,1,0,0:0:0:0:
98,211,81957,6,0,L|320:212,3,210.000008010865
253,85,83893,5,0,0:0:0:0:
253,85,84377,1,0,0:0:0:0:
260,178,84618,1,0,0:0:0:0:
260,178,84780,1,0,0:0:0:0:
255,243,85183,1,0,0:0:0:0:
257,313,85344,1,0,0:0:0:0:
272,329,86312,6,0,B|310:159|187:49|169:49|140:57|125:83|121:121|141:161|161:171|189:175|213:168|209:162,1,420.000016021729
367,60,87764,5,0,0:0:0:0:
279,123,87925,1,0,0:0:0:0:
367,209,88086,1,0,0:0:0:0:
286,281,88248,1,0,0:0:0:0:
367,209,88409,1,0,0:0:0:0:
279,123,88570,1,0,0:0:0:0:
279,123,88731,1,0,0:0:0:0:
149,128,89054,5,0,0:0:0:0:
75,140,89215,2,0,P|79:231|195:293,1,210.000008010865
326,273,90022,5,0,0:0:0:0:
369,151,90183,2,0,L|138:157,1,210.000008010865
146,108,91635,5,0,0:0:0:0:
145,192,91796,1,0,0:0:0:0:
225,197,91957,1,0,0:0:0:0:
223,101,92118,1,0,0:0:0:0:
412,106,92360,1,0,0:0:0:0:
411,203,92602,1,0,0:0:0:0:
256,192,93006,12,0,95022,0:0:0:0:
383,71,95506,5,0,0:0:0:0:
315,126,95667,1,0,0:0:0:0:
399,165,95828,1,0,0:0:0:0:
308,211,95989,1,0,0:0:0:0:
387,254,96151,1,0,0:0:0:0:
282,293,96312,1,0,0:0:0:0:
352,342,96473,1,0,0:0:0:0:
217,253,96635,1,0,0:0:0:0:
256,192,96957,12,0,98570,0:0:0:0:
53,57,98893,5,0,0:0:0:0:
125,59,99054,1,0,0:0:0:0:
207,57,99215,1,0,0:0:0:0:
296,56,99377,1,0,0:0:0:0:
401,47,99699,6,0,L|403:156,1,93.3333333333333
329,133,100183,2,0,L|210:133,1,93.3333333333333
92,140,100667,2,0,L|93:263,1,93.3333333333333
134,329,101151,2,0,L|253:330,1,93.3333333333333
376,319,101635,5,0,0:0:0:0:
283,210,101796,1,0,0:0:0:0:
282,135,101958,1,0,0:0:0:0:
281,66,102118,1,0,0:0:0:0:
214,65,102280,1,0,0:0:0:0:
83,107,102764,5,0,0:0:0:0:
134,185,102925,1,0,0:0:0:0:
68,243,103086,1,0,0:0:0:0:
138,309,103248,1,0,0:0:0:0:
251,308,103570,2,0,L|377:308,1,93.3333333333333
361,220,104054,2,0,L|231:219,1,93.3333333333333
266,129,104538,2,0,L|403:128,4,93.3333333333333
140,148,105344,5,0,0:0:0:0:
70,149,105506,1,0,0:0:0:0:
68,80,105667,1,0,0:0:0:0:
85,73,106635,6,0,L|79:251,1,140
192,209,107118,2,0,L|485:209,1,280
425,99,107925,1,0,0:0:0:0:
261,98,108086,1,0,0:0:0:0:
386,152,110506,5,0,0:0:0:0:
384,230,110748,1,0,0:0:0:0:
288,236,110989,1,0,0:0:0:0:
293,342,111312,1,0,0:0:0:0:
49,264,111957,6,0,P|103:193|197:180,1,180
300,181,112683,2,0,L|481:180,2,180
190,184,113409,1,0,0:0:0:0:
112,178,113570,1,0,0:0:0:0:
102,97,113731,1,0,0:0:0:0:
177,86,113893,1,0,0:0:0:0:
284,98,114054,1,0,0:0:0:0:
256,192,114377,12,0,117280,0:0:0:0:
256,192,117764,12,0,121151,0:0:0:0:
190,80,121635,6,0,P|306:91|409:275,1,323.999990112305
253,251,122844,2,0,L|79:251,1,161.999995056153
76,149,123570,1,0,0:0:0:0:
185,76,123812,1,0,0:0:0:0:
332,64,124054,1,0,0:0:0:0:
443,68,124780,2,0,L|443:241,1,161.999995056153
312,306,125667,6,0,L|94:306,1,215.999993408203
98,218,126634,1,0,0:0:0:0:
99,139,126796,1,0,0:0:0:0:
100,52,126957,1,0,0:0:0:0:
258,66,127522,5,0,0:0:0:0:
258,66,127683,1,0,0:0:0:0:
258,66,127844,2,0,L|258:367,2,269.999991760254
257,64,128893,1,0,0:0:0:0:
176,102,129699,5,0,0:0:0:0:
174,292,129860,1,0,0:0:0:0:
330,295,130506,1,0,0:0:0:0:
330,89,130828,1,0,0:0:0:0:
211,77,131312,6,0,P|99:152|99:340,1,323.999990112305
192,327,132118,2,0,P|311:303|368:111,1,323.999990112305
224,128,132764,1,0,0:0:0:0:
108,186,133570,6,0,L|244:186,1,107.999996704102
357,201,134376,1,0,0:0:0:0:
357,119,134537,1,0,0:0:0:0:
279,118,134699,1,0,0:0:0:0:
152,114,135344,1,0,0:0:0:0:
75,120,135506,1,0,0:0:0:0:
77,199,135667,1,0,0:0:0:0:
203,271,136312,6,0,L|341:271,2,107.999996704102
99,274,136796,1,0,0:0:0:0:
102,196,136957,1,0,0:0:0:0:
106,116,137118,1,0,0:0:0:0:
185,117,137280,1,0,0:0:0:0:
260,121,137441,1,0,0:0:0:0:
365,120,137602,6,0,B|421:149|443:169|456:195|453:225|445:244|375:290|266:286|266:286|280:229|285:215|277:205|265:200|241:213|241:214|240:213|238:214|238:214|128:219,1,540
53,213,139377,1,0,0:0:0:0:
57,118,139538,2,0,P|168:82|414:97,1,360
180,214,141231,6,0,L|97:213,1,60
117,144,141554,1,0,0:0:0:0:
192,142,141715,2,0,P|325:142|483:142,1,270
403,275,143167,5,0,0:0:0:0:
323,264,143328,1,0,0:0:0:0:
239,254,143489,2,0,B|141:206|130:93|306:104,1,270
425,104,144377,1,0,0:0:0:0:
428,209,145344,6,0,P|388:260|259:280,1,180
148,253,146151,1,0,0:0:0:0:
70,202,146312,1,0,0:0:0:0:
81,93,146635,6,0,P|117:70|165:66,1,90
306,66,147199,1,0,0:0:0:0:
401,84,147360,2,0,P|392:172|194:299,1,330
106,286,148731,6,0,P|92:233|150:120,1,180
259,73,150022,1,0,0:0:0:0:
344,72,150183,1,0,0:0:0:0:
346,153,150667,6,0,L|346:345,1,180
348,330,151877,1,0,0:0:0:0:
348,330,152118,1,0,0:0:0:0:
256,192,153006,12,0,156877,0:0:0:0:
