osu file format v14

[General]
AudioFilename: audio.mp3
AudioLeadIn: 0
PreviewTime: 267443
Countdown: 0
SampleSet: Soft
StackLeniency: 0.3
Mode: 0
LetterboxInBreaks: 0
WidescreenStoryboard: 1

[Editor]
Bookmarks: 406897
DistanceSpacing: 3.4
BeatDivisor: 6
GridSize: 8
TimelineZoom: 1.900001

[Metadata]
Title:Sparkle [original ver.]
TitleUnicode:スパークル [original ver.]
Artist:RADWIMPS
ArtistUnicode:RADWIMPS
Creator:Emiru Ikuno 11
Version:Itomori
Source:君の名は。
Tags:Your Name Movie Japanese jp Anime Taki Mitsuha Kimi no na wa J-rock pop Yojiro Noda Comix Wave Films Makoto Shinkai Grindle
BeatmapID:2497897
BeatmapSetID:1159567

[Difficulty]
HPDrainRate:5
CircleSize:4
OverallDifficulty:8
ApproachRate:8.5
SliderMultiplier:3.47999990463257
SliderTickRate:1

[Events]
//Background and Video events
0,0,"Itomori.png",0,0
//Break Periods
2,263715,266763
//Storyboard Layer 0 (Background)
//Storyboard Layer 1 (Fail)
//Storyboard Layer 2 (Pass)
//Storyboard Layer 3 (Foreground)
//Storyboard Layer 4 (Overlay)
//Storyboard Sound Samples

[TimingPoints]
4216,483.870967741935,4,2,1,45,1,0
20183,-666.666666666667,4,2,1,45,0,0
24054,-625,4,2,1,45,0,0
26474,-625,4,2,1,50,0,0
27925,-588.235294117647,4,2,1,45,0,0
29377,472.44094488189,4,2,1,45,1,0
30321,500,4,2,1,45,1,0
31321,461.538461538462,4,2,1,45,1,0
31782,-555.555555555556,4,2,1,45,0,0
32264,495.867768595041,4,2,1,45,1,0
32264,-555.555555555556,4,2,1,45,0,0
33732,483.870967741935,4,2,1,50,1,0
34699,476.190476190476,4,2,1,45,1,0
35175,472.44094488189,4,2,1,50,1,0
35647,-526.315789473684,4,2,1,45,0,0
36609,476.190476190476,4,2,1,45,1,0
36609,-526.315789473684,4,2,1,45,0,0
37112,480,4,2,1,45,1,0
39512,-500,4,2,1,45,0,0
39980,491.803278688525,4,2,1,45,1,0
39980,-500,4,2,1,45,0,0
40990,491.803278688525,4,2,1,45,1,0
40990,-500,4,2,1,45,0,0
41973,483.870967741935,4,2,1,50,1,0
41973,-500,4,2,1,50,0,0
42456,-500,4,2,1,45,0,0
42940,476.190476190476,4,2,1,50,1,0
43416,483.870967741935,4,2,1,45,1,0
43416,-476.190476190476,4,2,1,45,0,0
44383,480,4,2,1,45,1,0
44383,-476.190476190476,4,2,1,45,0,0
47263,-454.545454545455,4,2,1,45,0,0
47743,472.44094488189,4,2,1,45,1,0
47743,-454.545454545455,4,2,1,45,0,0
48236,468.75,4,2,1,45,1,0
48236,-454.545454545455,4,2,1,45,0,0
50653,491.803278688525,4,2,1,50,1,0
50653,-454.545454545455,4,2,1,50,0,0
50734,-454.545454545455,4,2,1,25,0,0
52421,491.803278688525,4,2,1,25,1,0
52421,-454.545454545455,4,2,1,25,0,0
53076,483.870967741935,4,2,1,25,1,0
53559,504.201680672269,4,2,1,45,1,0
53895,461.538461538462,4,2,1,45,1,0
53895,-333.333333333333,4,2,1,45,0,0
55510,465.116279069767,4,2,1,20,1,0
55510,-454.545454545455,4,2,1,20,0,0
56440,487.80487804878,4,2,1,20,1,0
57415,483.870967741935,4,2,1,45,1,0
58382,487.80487804878,4,2,1,45,1,0
59369,480,4,2,1,25,1,0
59369,-454.545454545455,4,2,1,25,0,0
60329,483.870967741935,4,2,1,25,1,0
61296,487.80487804878,4,2,1,45,1,0
61296,-454.545454545455,4,2,1,45,0,0
61946,476.190476190476,4,2,1,45,1,0
62263,487.80487804878,4,2,1,45,1,0
63238,-454.545454545455,4,2,1,25,0,0
64985,441.176470588235,4,2,1,50,1,0
64985,-153.846153846153,4,2,1,50,0,0
65224,468.75,4,2,1,50,1,0
66134,487.80487804878,4,2,1,60,1,0
66621,-200,4,2,1,60,0,0
67109,491.803278688525,4,2,1,60,1,0
67109,-200,4,2,1,60,0,0
67600,480,4,2,1,60,1,0
67600,-200,4,2,1,60,0,0
69040,491.803278688525,4,2,1,60,1,0
69859,441.176470588235,4,2,1,60,1,0
70006,491.803278688525,4,2,1,60,1,0
70989,-200,4,2,1,60,0,0
71481,468.75,4,2,1,60,1,0
71481,-200,4,2,1,60,0,0
71949,476.190476190476,4,2,1,60,1,0
71949,-200,4,2,1,60,0,0
73377,487.80487804878,4,2,1,60,1,0
73377,-200,4,2,1,60,0,0
73879,483.870967741935,4,2,1,60,1,0
74362,-200,4,2,1,60,0,0
75330,476.190476190476,4,2,1,60,1,0
75330,-200,4,2,1,60,0,0
75806,476.190476190476,4,2,1,60,1,0
77591,517.241379310345,4,2,1,60,1,0
78252,476.190476190476,4,2,1,60,1,0
78252,-200,4,2,1,60,0,0
79680,480,4,2,1,60,1,0
81630,476.190476190476,4,2,1,65,1,0
82106,-166.666666666667,4,2,1,65,0,0
83058,508.474576271186,4,2,1,60,1,0
83058,-200,4,2,1,60,0,0
84342,517.241379310345,4,2,2,65,1,0
84342,-166.666666666667,4,2,2,65,0,0
84514,-166.666666666667,4,2,1,65,0,0
84853,476.190476190476,4,2,2,65,1,0
84853,-166.666666666667,4,2,2,65,0,0
85487,-166.666666666667,4,2,1,65,0,0
85979,480,4,2,1,60,1,0
85979,-200,4,2,1,60,0,0
86779,495.867768595041,4,2,1,60,1,0
86944,-200,4,2,1,60,0,0
87440,476.190476190476,4,2,1,60,1,0
87440,-200,4,2,1,60,0,0
87916,-166.666666666667,4,2,2,65,0,0
88392,-166.666666666667,4,2,1,65,0,0
88868,495.867768595041,4,2,2,65,1,0
88868,-166.666666666667,4,2,2,65,0,0
89363,476.190476190476,4,2,1,65,1,0
89839,-333.333333333333,4,2,1,65,0,0
90315,491.803278688525,4,2,1,65,1,0
90315,-166.666666666667,4,2,1,65,0,0
90806,-200,4,2,1,65,0,0
91314,476.190476190476,4,2,1,65,1,0
92266,491.803278688525,4,2,1,65,1,0
93249,476.190476190476,4,2,1,65,1,0
93725,487.80487804878,4,2,1,65,1,0
93725,-200,4,2,1,65,0,0
96145,476.190476190476,4,2,1,65,1,0
96145,-200,4,2,1,65,0,0
96621,500,4,2,1,65,1,0
96621,-200,4,2,1,65,0,0
97120,465.116279069767,4,2,1,75,1,0
97585,-166.666666666667,4,2,1,75,0,0
98057,468.75,4,2,1,65,1,0
98057,-200,4,2,1,65,0,0
98526,487.80487804878,4,2,1,65,1,0
99042,461.538461538462,4,2,1,65,1,0
99042,-200,4,2,1,65,0,0
99997,472.44094488189,4,2,1,65,1,0
100469,-200,4,2,1,65,0,0
100952,472.44094488189,4,2,1,65,1,0
101435,480,4,2,1,65,1,0
101435,-200,4,2,1,65,0,0
102419,480,4,2,1,65,1,0
102911,480,4,2,1,65,1,0
102911,-166.666666666667,4,2,1,65,0,0
103886,476.190476190476,4,2,1,65,1,0
104362,-153.846153846154,4,2,1,65,0,0
104679,-153.846153846154,4,2,1,75,0,0
104856,476.190476190476,4,2,1,65,1,0
104856,-200,4,2,1,65,0,0
106292,476.190476190476,4,2,1,65,1,0
106292,-200,4,2,1,65,0,0
107739,483.870967741935,4,2,1,65,1,0
108222,-200,4,2,1,65,0,0
108706,483.870967741935,4,2,1,65,1,0
108706,-200,4,2,1,65,0,0
112576,-333.333333333334,4,2,1,70,0,0
113060,-333.333333333334,4,2,2,70,0,0
113545,512.820512820513,4,2,1,70,1,0
113886,-333.333333333334,4,2,1,70,0,0
114057,468.75,4,2,1,65,1,0
114213,-312.5,4,2,1,70,0,0
114525,476.190476190476,4,2,1,70,1,0
114525,-294.117647058824,4,2,1,70,0,0
114842,491.803278688525,4,2,1,70,1,0
114842,-277.777777777778,4,2,1,70,0,0
115005,-277.777777777778,4,2,2,70,0,0
115169,-263.157894736842,4,2,2,70,0,0
115332,-263.157894736842,4,2,1,70,0,0
115989,468.75,4,2,2,70,1,0
116457,-208.333333333333,4,2,1,75,0,0
116770,508.474576271186,4,2,1,75,1,0
116770,-200,4,2,1,75,0,0
116939,-200,4,2,2,75,0,0
117108,-192.307692307692,4,2,1,75,0,0
117436,483.870967741935,4,2,1,75,1,0
117436,-185.185185185185,4,2,1,75,0,0
117758,468.75,4,2,1,75,1,0
117758,-178.571428571429,4,2,1,75,0,0
118070,-172.413793103448,4,2,1,75,0,0
118383,508.474576271186,4,2,1,70,1,0
118891,444.444444444444,4,2,1,65,1,0
119187,400,4,2,1,65,1,0
119860,476.190476190476,4,2,1,70,1,0
119860,-166.666666666667,4,2,1,70,0,0
120336,468.75,4,2,1,70,1,1
120336,-133.333333333333,4,2,1,70,0,1
121273,491.803278688525,4,2,1,70,1,1
121273,-166.666666666667,4,2,1,70,0,1
122256,472.44094488189,4,2,1,70,1,1
122256,-133.333333333333,4,2,1,70,0,1
123223,472.44094488189,4,2,1,70,1,1
123223,-166.666666666667,4,2,1,70,0,1
124189,487.80487804878,4,2,1,70,1,1
124189,-133.333333333333,4,2,1,70,0,1
125164,-111.111111111111,4,2,1,70,0,1
126140,468.75,4,2,1,70,1,1
126140,-133.333333333333,4,2,1,70,0,1
127099,480,4,2,1,70,1,1
127099,-166.666666666667,4,2,1,70,0,1
128068,465.116279069767,4,2,1,70,1,1
128068,-222.222222222222,4,2,1,70,0,1
129028,480,4,2,1,70,1,1
129028,-333.333333333333,4,2,1,70,0,1
130011,458.015267175573,4,2,1,70,1,1
130011,-666.666666666667,4,2,1,70,0,1
130966,468.75,4,2,1,70,1,1
130966,-222.222222222222,4,2,1,70,0,1
131950,468.75,4,2,1,70,1,1
131950,-166.666666666667,4,2,1,70,0,1
132583,483.870967741935,4,2,1,70,1,1
132905,-133.333333333333,4,2,1,70,0,1
133873,-111.111111111111,4,2,1,70,0,1
134841,468.75,4,2,1,75,1,1
134841,-86.9565217391304,4,2,1,75,0,1
135778,476.190476190476,4,2,1,70,1,1
135778,-133.333333333333,4,2,1,70,0,1
136730,508.474576271186,4,2,1,70,1,1
136730,-166.666666666667,4,2,1,70,0,1
137238,517.241379310345,4,2,1,70,1,1
137238,-166.666666666667,4,2,1,70,0,1
137755,487.80487804878,4,2,1,70,1,1
137755,-133.333333333333,4,2,1,70,0,1
138242,419.58041958042,4,2,1,70,1,1
138711,458.015267175573,4,2,1,70,1,1
138711,-111.111111111111,4,2,1,70,0,1
139676,468.75,4,2,1,70,1,1
139676,-166.666666666666,4,2,1,70,0,1
140002,483.870967741935,4,2,1,70,1,1
140002,-166.666666666667,4,2,1,70,0,1
140667,483.870967741935,4,2,1,70,1,1
140667,-133.333333333333,4,2,1,70,0,1
141312,468.75,4,2,1,70,1,1
141624,468.75,4,2,1,70,1,1
141624,-166.666666666667,4,2,1,70,0,1
142575,483.870967741935,4,2,1,70,1,1
142575,-222.222222222222,4,2,1,70,0,1
145007,487.80487804878,4,2,1,70,1,1
145007,-222.222222222222,4,2,1,70,0,1
145494,-166.666666666667,4,2,1,70,0,1
146170,468.75,4,2,1,70,1,1
146469,483.870967741935,4,2,1,70,1,1
146469,-133.333333333333,4,2,1,70,0,1
146952,-111.111111111111,4,2,1,75,0,1
147436,-133.333333333333,4,2,1,70,0,1
148394,483.870967741935,4,2,1,70,1,1
148394,-166.666666666667,4,2,1,70,0,1
148892,472.44094488189,4,2,1,75,1,1
148892,-200,4,2,1,75,0,1
149364,487.80487804878,4,2,1,70,1,1
149364,-133.333333333333,4,2,1,70,0,1
150339,472.44094488189,4,2,1,70,1,1
150339,-166.666666666667,4,2,1,70,0,1
151283,495.867768595041,4,2,1,70,1,1
151283,-166.666666666667,4,2,1,70,0,1
151944,-200,4,2,1,70,0,1
152274,472.44094488189,4,2,2,70,1,1
152274,-200,4,2,2,70,0,1
152588,-166.666666666667,4,2,1,70,0,1
153019,472.44094488189,4,2,1,70,1,1
153244,468.75,4,2,1,70,1,1
153244,-153.846153846154,4,2,1,70,0,1
153712,491.803278688525,4,2,1,70,1,1
154039,-200,4,2,1,70,0,1
154367,476.190476190476,4,2,1,70,1,1
154367,-200,4,2,1,70,0,1
154984,594.059405940594,4,2,1,70,1,1
155182,476.190476190476,4,2,1,60,1,0
155182,-1000,4,2,1,60,0,0
155669,-1000,4,2,1,50,0,0
156152,-1000,4,2,1,40,0,0
156636,-1000,4,2,1,30,0,0
159020,483.870967741935,4,2,1,45,1,0
159503,-333.333333333333,4,2,1,45,0,0
161923,487.80487804878,4,2,1,45,1,0
162898,483.870967741935,4,2,1,45,1,0
163381,-400,4,2,1,45,0,0
163865,-400,4,2,1,45,0,0
164349,517.241379310345,4,2,1,45,1,0
164349,-400,4,2,1,45,0,0
164866,461.538461538462,4,2,1,45,1,0
164866,-333.333333333333,4,2,1,45,0,0
165327,487.80487804878,4,2,1,45,1,0
165814,480,4,2,1,45,1,0
165814,-285.714285714286,4,2,1,45,0,0
166774,480,4,2,1,45,1,0
167254,-400,4,2,1,45,0,0
167734,-333.333333333333,4,2,1,45,0,0
168694,491.803278688525,4,2,1,45,1,0
169677,487.80487804878,4,2,1,45,1,0
170652,487.80487804878,4,2,1,45,1,0
171139,-400,4,2,1,45,0,0
171627,-400,4,2,1,45,0,0
172116,500,4,2,1,45,1,0
172116,-400,4,2,1,45,0,0
173360,491.803278688525,4,2,2,45,1,0
173523,-222.222222222222,4,2,1,45,0,0
173851,-222.222222222222,4,2,1,55,0,0
174179,468.75,4,2,1,55,1,0
174335,-100,4,2,1,45,0,0
174489,483.870967741935,4,2,1,55,1,0
174489,-222.222222222222,4,2,1,55,0,0
174811,-222.222222222222,4,2,3,55,0,0
175456,500,4,2,1,55,1,0
175456,-222.222222222222,4,2,1,55,0,0
176122,483.870967741935,4,2,1,55,1,0
176122,-222.222222222222,4,2,1,55,0,0
176928,487.80487804878,4,2,1,55,1,0
176928,-222.222222222222,4,2,1,45,0,0
178391,483.870967741935,4,2,1,55,1,0
178391,-222.222222222222,4,2,1,55,0,0
182261,504.201680672269,4,2,1,55,1,0
182261,-222.222222222222,4,2,1,55,0,0
182765,476.190476190476,4,2,1,55,1,0
182765,-222.222222222222,4,2,1,55,0,0
184682,483.870967741935,4,2,1,55,1,0
184682,-222.222222222222,4,2,1,55,0,0
186133,483.870967741935,4,2,1,55,1,0
186133,-222.222222222222,4,2,1,55,0,0
190023,480,4,2,1,65,1,0
190503,-200,4,2,1,65,0,0
191463,-200,4,2,2,65,0,0
191783,-200,4,2,1,65,0,0
192743,-200,4,2,2,65,0,0
192903,-200,4,2,1,65,0,0
193223,-200,4,2,2,65,0,0
193863,-200,4,2,1,65,0,0
194343,-196.078431372549,4,2,1,65,0,0
196263,535.714285714286,4,2,1,65,1,0
196263,-196.078431372549,4,2,1,65,0,0
196798,468.75,4,2,1,65,1,0
196798,-196.078431372549,4,2,1,65,0,0
197266,500,4,2,3,65,1,0
197765,468.75,4,2,3,65,1,0
198233,-192.307692307692,4,2,3,65,0,0
198702,480,4,2,3,65,1,0
198702,-192.307692307692,4,2,3,65,0,0
199182,-192.307692307692,4,2,2,65,0,0
199502,-192.307692307692,4,2,1,65,0,0
200542,-192.307692307692,4,2,2,65,0,0
200622,495.867768595041,4,2,2,65,1,0
200704,-100,4,2,1,65,0,0
201613,476.190476190476,4,2,1,65,1,0
202089,-188.679245283019,4,2,1,65,0,0
203517,504.201680672269,4,2,1,65,1,0
203517,-188.679245283019,4,2,1,65,0,0
204021,495.867768595041,4,2,2,65,1,0
204516,487.80487804878,4,2,1,65,1,0
205003,480,4,2,2,55,1,0
205003,-188.679245283019,4,2,2,55,0,0
205483,-188.679245283019,4,2,1,75,0,0
205963,-166.666666666667,4,2,1,75,0,0
206443,500,4,2,1,65,1,0
206443,-166.666666666667,4,2,1,65,0,0
206776,-166.666666666667,4,2,1,75,0,0
207443,468.75,4,2,1,65,1,0
208380,487.80487804878,4,2,1,65,1,0
209355,487.80487804878,4,2,1,75,1,0
209842,-161.290322580645,4,2,1,75,0,0
211794,461.538461538462,4,2,1,75,1,0
211794,-161.290322580645,4,2,1,75,0,0
212717,512.820512820513,4,2,1,75,1,0
212717,-161.290322580645,4,2,1,75,0,0
213229,476.190476190476,4,2,1,80,1,0
213705,-156.25,4,2,1,80,0,0
214657,508.474576271186,4,2,1,80,1,0
214657,-156.25,4,2,1,80,0,0
215165,480,4,2,1,65,1,0
215165,-156.25,4,2,1,65,0,0
217085,-156.25,4,2,1,80,0,0
217565,-151.515151515152,4,2,1,80,0,0
218546,495.867768595041,4,2,1,65,1,0
218546,-151.515151515152,4,2,1,65,0,0
218876,-151.515151515152,4,2,1,80,0,0
219041,483.870967741935,4,2,1,85,1,0
219847,-147.058823529412,4,2,1,85,0,0
220976,-147.058823529412,4,2,1,75,0,0
221460,-133.333333333333,4,2,4,75,0,0
231944,-133.333333333333,4,2,1,75,0,0
232105,-133.333333333333,4,2,4,75,0,0
232428,-133.333333333333,4,2,1,75,0,0
233073,-133.333333333333,4,2,4,75,0,0
236460,-133.333333333333,4,2,4,70,0,0
236943,-133.333333333333,4,2,2,70,0,0
237105,-133.333333333333,4,2,1,70,0,0
237911,-133.333333333333,4,2,2,70,0,0
238234,-133.333333333333,4,2,1,70,0,0
238879,-133.333333333333,4,2,2,70,0,0
239202,-133.333333333333,4,2,1,70,0,0
240331,-125,4,2,1,75,0,0
242266,-100,4,2,1,80,0,0
242911,521.739130434783,4,2,1,65,1,0
243258,468.75,4,2,1,80,1,0
243258,-333.333333333334,4,2,1,80,0,0
243726,483.870967741935,4,2,1,80,1,0
243726,-166.666666666667,4,2,1,80,0,0
244209,483.870967741935,4,2,1,70,1,1
244209,-133.333333333333,4,2,1,70,0,1
245176,-166.666666666667,4,2,1,70,0,1
246144,458.015267175573,4,2,1,70,1,1
246144,-133.333333333333,4,2,1,70,0,1
247112,483.870967741935,4,2,1,70,1,1
247112,-166.666666666667,4,2,1,70,0,1
248079,483.870967741935,4,2,1,70,1,1
248079,-133.333333333333,4,2,1,70,0,1
248774,444.444444444444,4,2,1,70,1,1
248922,-100,4,2,1,65,0,1
249056,476.190476190476,4,2,1,65,1,1
249056,-133.333333333333,4,2,1,65,0,1
250008,-133.333333333333,4,2,1,70,0,1
250960,487.80487804878,4,2,1,70,1,1
250960,-166.666666666667,4,2,1,70,0,1
251935,-222.222222222222,4,2,1,70,0,1
252911,483.870967741935,4,2,1,65,1,1
252911,-200,4,2,1,65,0,1
253878,483.870967741935,4,2,1,70,1,1
253878,-166.666666666667,4,2,1,70,0,1
254845,491.803278688525,4,2,1,65,1,1
254845,-153.846153846154,4,2,1,65,0,1
255828,483.870967741935,4,2,1,70,1,1
256795,472.44094488189,4,2,1,70,1,1
256795,-166.666666666667,4,2,1,70,0,1
257751,500,4,2,1,70,1,1
257751,-192.307692307692,4,2,1,70,0,1
258251,487.80487804878,4,2,1,65,1,1
258738,480,4,2,1,70,1,1
258738,-222.222222222222,4,2,1,70,0,1
259218,-222.222222222222,4,2,1,65,0,1
259698,495.867768595041,4,2,1,70,1,1
260689,465.116279069767,4,2,1,70,1,1
260689,-192.307692307692,4,2,1,70,0,1
261154,-192.307692307692,4,2,1,65,0,1
261619,483.870967741935,4,2,1,70,1,1
261619,-222.222222222222,4,2,1,70,0,1
262586,-333.333333333333,4,2,1,70,0,1
262909,-500,4,2,1,65,0,1
263231,-1000,4,2,1,60,0,1
263554,-1000,4,2,1,60,0,0
267438,495.867768595041,4,2,1,65,1,0
268429,476.190476190476,4,2,1,65,1,0
269381,483.870967741935,4,2,1,65,1,0
271316,487.80487804878,4,2,1,65,1,0
272291,480,4,2,1,65,1,0
273251,483.870967741935,4,2,1,65,1,0
275186,487.80487804878,4,2,1,65,1,0
277137,480,4,2,1,65,1,0
280977,487.80487804878,4,2,1,65,1,0
283903,483.870967741935,4,2,1,65,1,0
284870,476.190476190476,4,2,1,65,1,0
286774,491.803278688525,4,2,1,65,1,0
287757,483.870967741935,4,2,1,65,1,0
290660,487.80487804878,4,2,1,65,1,0
293586,468.75,4,2,1,65,1,0
294523,483.870967741935,4,2,1,65,1,0
298393,491.803278688525,4,2,1,65,1,0
299376,-100,4,2,1,40,0,0
300360,480,4,2,1,45,1,0
300360,-500,4,2,1,45,0,0
302280,-500,4,2,3,60,0,0
304040,454.545454545455,4,2,3,65,1,0
304191,495.867768595041,4,2,3,60,1,0
305480,437.956204379562,4,2,3,65,1,0
305625,480,4,2,3,65,1,0
306105,483.870967741935,4,2,1,80,1,0
306105,-133.333333333333,4,2,1,80,0,0
308040,491.803278688525,4,2,1,80,1,0
308531,-100,4,2,1,65,0,0
310007,483.870967741935,4,2,1,85,1,0
310007,-117.647058823529,4,2,1,85,0,0
311942,-111.111111111111,4,2,1,85,0,0
312265,-108.695652173913,4,2,1,80,0,0
312587,-106.382978723404,4,2,1,75,0,0
312910,-104.166666666667,4,2,1,85,0,0
313232,-102.040816326531,4,2,1,90,0,0
313555,500,4,2,1,95,1,0
313888,476.190476190476,4,2,1,90,1,0
313888,-105.263157894737,4,2,1,90,0,0
314840,-100,4,2,1,90,0,0
315634,-100,4,2,3,90,0,0
315792,483.870967741935,4,2,1,90,1,0
315792,-95.2380952380952,4,2,1,90,0,0
316759,487.80487804878,4,2,1,90,1,0
316759,-90.9090909090909,4,2,1,90,0,0
317409,-181.818181818181,4,2,1,90,0,0
317734,-181.818181818181,4,2,1,95,0,0
317897,-117.647058823529,4,2,1,95,0,0
318222,472.44094488189,4,2,1,95,1,0
318379,-133.333333333333,4,2,1,95,0,0
319639,508.474576271186,4,2,1,100,1,0
319639,-222.222222222222,4,2,1,100,0,0
320655,483.870967741935,4,2,1,90,1,0
320655,-285.714285714284,4,2,1,90,0,0
321138,495.867768595041,4,2,3,100,1,0
321138,-200,4,2,3,100,0,0
321634,483.870967741935,4,2,1,75,1,1
321634,-133.333333333333,4,2,1,75,0,1
322601,-121.951219512195,4,2,1,75,0,1
323569,-133.333333333333,4,2,3,75,0,1
324537,476.190476190476,4,2,3,75,1,1
324537,-121.951219512195,4,2,3,75,0,1
325489,472.44094488189,4,2,3,75,1,1
325489,-166.666666666667,4,2,3,75,0,1
326197,419.58041958042,4,2,3,75,1,1
326336,-100,4,2,3,70,0,1
326478,476.190476190476,4,2,1,70,1,1
326478,-133.333333333333,4,2,1,70,0,1
327430,483.870967741935,4,2,1,75,1,1
327430,-166.666666666667,4,2,1,75,0,1
328397,-222.222222222222,4,2,1,75,0,1
329365,-166.666666666667,4,2,1,75,0,1
330333,-222.222222222222,4,2,1,75,0,1
330817,480,4,2,1,70,1,1
330817,-222.222222222222,4,2,1,70,0,1
331297,-192.307692307692,4,2,1,75,0,1
331617,491.803278688525,4,2,1,75,1,1
332272,480,4,2,1,75,1,1
332272,-166.666666666667,4,2,1,75,0,1
333232,480,4,2,1,75,1,1
333232,-133.333333333333,4,2,1,75,0,1
334192,487.80487804878,4,2,1,75,1,1
334192,-121.951219512195,4,2,1,75,0,1
335167,483.870967741935,4,2,3,75,1,1
335167,-111.111111111111,4,2,3,75,0,1
336134,476.190476190476,4,2,3,80,1,1
336134,-86.9565217391304,4,2,3,80,0,1
336610,-86.9565217391304,4,2,1,80,0,1
337086,480,4,2,1,75,1,1
337086,-133.333333333333,4,2,1,75,0,1
338046,491.803278688525,4,2,1,75,1,1
338046,-111.111111111111,4,2,1,75,0,1
339029,476.190476190476,4,2,1,75,1,1
339029,-133.333333333333,4,2,1,75,0,1
339981,487.80487804878,4,2,1,75,1,1
339981,-111.111111111111,4,2,1,75,0,1
340956,-166.666666666667,4,2,1,75,0,1
341281,495.867768595041,4,2,1,70,1,1
341281,-222.222222222222,4,2,1,70,0,1
341942,480,4,2,1,75,1,1
341942,-133.333333333333,4,2,1,75,0,1
342902,483.870967741935,4,2,1,75,1,1
342902,-166.666666666667,4,2,1,75,0,1
343869,504.201680672269,4,2,1,75,1,1
343869,-222.222222222222,4,2,1,75,0,1
344373,476.190476190476,4,2,1,70,1,1
344373,-222.222222222222,4,2,1,70,0,1
344849,-166.666666666667,4,2,1,75,0,1
345801,-149.253731343284,4,2,2,75,0,1
345959,-149.253731343284,4,2,1,75,0,1
346277,491.803278688525,4,2,2,75,1,1
346277,-149.253731343284,4,2,2,75,0,1
346440,-149.253731343284,4,2,1,75,0,1
346768,487.80487804878,4,2,1,75,1,1
346768,-133.333333333333,4,2,1,75,0,1
347743,-166.666666666667,4,2,1,75,0,1
348231,476.190476190476,4,2,1,80,1,1
348231,-133.333333333333,4,2,1,80,0,1
348707,487.80487804878,4,2,1,75,1,1
348707,-222.222222222221,4,2,1,75,0,1
349682,-166.666666666667,4,2,1,75,0,1
350170,-133.333333333333,4,2,1,80,0,1
350658,480,4,2,1,75,1,1
350658,-222.222222222221,4,2,1,75,0,1
351618,483.870967741935,4,2,1,75,1,1
351618,-166.666666666667,4,2,1,75,0,1
352585,495.867768595041,4,2,1,75,1,1
352585,-133.333333333333,4,2,1,75,0,1
354237,419.58041958042,4,2,1,75,1,1
354376,-100,4,2,1,70,0,1
354516,483.870967741935,4,2,1,80,1,1
354516,-149.253731343284,4,2,1,80,0,1
356451,-166.666666666667,4,2,1,85,0,0
366612,-333.333333333334,4,2,1,85,0,0
367096,-222.222222222222,4,2,1,85,0,0
368064,491.803278688525,4,2,1,85,1,0
368555,-133.333333333333,4,2,1,85,0,0
369047,468.75,4,2,1,70,1,0
369515,-133.333333333333,4,2,1,70,0,0
369828,487.80487804878,4,2,1,85,1,0
370478,-125,4,2,1,85,0,0
370966,468.75,4,2,1,70,1,0
370966,-125,4,2,1,70,0,0
371278,-125,4,2,1,85,0,0
371903,495.867768595041,4,2,1,90,1,0
371903,-166.666666666667,4,2,1,90,0,0
373886,476.190476190476,4,2,1,70,1,0
373886,-166.666666666667,4,2,1,70,0,0
374362,483.870967741935,4,2,1,90,1,0
374362,-166.666666666667,4,2,1,90,0,0
374845,480,4,2,1,90,1,0
375805,483.870967741935,4,2,1,70,1,0
375805,-166.666666666667,4,2,1,70,0,0
376127,-166.666666666667,4,2,1,90,0,0
377740,476.190476190476,4,2,1,70,1,0
378216,468.75,4,2,1,70,1,0
378216,-166.666666666667,4,2,1,70,0,0
378714,468.75,4,2,1,70,1,0
378714,-166.666666666667,4,2,1,70,0,0
379026,491.803278688525,4,2,1,90,1,0
379681,-166.666666666667,4,2,1,85,0,0
380665,468.75,4,2,1,70,1,0
380665,-166.666666666667,4,2,1,70,0,0
381133,-166.666666666667,4,2,1,85,0,0
381758,483.870967741935,4,2,1,70,1,0
382578,483.870967741935,4,2,1,70,1,0
383545,-166.666666666667,4,2,1,70,0,0
384029,491.803278688525,4,2,1,85,1,0
384029,-166.666666666667,4,2,1,85,0,0
385504,480,4,2,1,70,1,0
385504,-166.666666666667,4,2,1,70,0,0
385984,-166.666666666667,4,2,1,85,0,0
387424,483.870967741935,4,2,1,90,1,0
387424,-166.666666666667,4,2,1,90,0,0
389359,-166.666666666667,4,2,1,95,0,0
390327,-166.666666666667,4,2,1,60,0,0
390448,-166.666666666667,4,2,1,65,0,0
390569,-166.666666666667,4,2,1,70,0,0
390690,-166.666666666667,4,2,1,75,0,0
390811,-166.666666666667,4,2,1,80,0,0
390932,-166.666666666667,4,2,1,85,0,0
391053,-166.666666666667,4,2,1,90,0,0
391294,476.190476190476,4,2,3,50,1,0
391294,-333.333333333333,4,2,3,50,0,0
393198,480,4,2,3,50,1,0
393198,-400,4,2,3,50,0,0
394158,483.870967741935,4,2,3,50,1,0
394158,-400,4,2,3,50,0,0
395125,-500,4,2,3,50,0,0
396093,491.803278688525,4,2,3,50,1,0
396093,-500,4,2,3,50,0,0
397076,-666.666666666667,4,2,3,50,0,0
398060,461.538461538462,4,2,3,50,1,0
398060,-666.666666666667,4,2,3,50,0,0
398521,389.61038961039,4,2,3,70,1,0
398715,-100,4,2,3,50,0,0

[Colours]
Combo1 : 39,153,190
Combo2 : 5,129,135
Combo3 : 169,146,190
Combo4 : 70,152,251

[HitObjects]
401,311,19699,5,2,2:0:0:0:
401,311,20183,2,0,L|397:332,2,17.3999995231628,2|0|0,2:0|2:0|2:0,0:0:0:0:
376,238,20667,2,0,B|374:200,1,34.7999990463257,2|0,2:0|2:0,0:0:0:0:
448,200,21151,2,0,L|448:235,1,34.7999990463257,2|0,2:0|2:0,0:0:0:0:
479,302,21635,5,2,2:0:0:0:
479,302,22603,1,2,2:0:0:0:
290,294,23570,5,2,2:0:0:0:
290,294,24054,2,0,L|312:288,2,18.5599994913737,2|0|0,2:0|2:0|2:0,0:0:0:0:
222,324,24538,2,0,L|180:328,1,37.1199989827474,2|0,2:0|2:0,0:0:0:0:
146,262,25022,2,0,L|109:258,1,37.1199989827474,2|0,2:0|2:0,0:0:0:0:
43,220,25506,6,0,P|44:189|56:164,1,55.6799984741211,2|2,2:0|2:0,0:0:0:0:
108,113,26312,1,0,0:0:0:0:
108,113,26474,2,0,L|102:56,1,55.6799984741211,2|2,2:0|2:0,0:0:0:0:
102,57,27441,1,0,2:0:0:0:
102,57,27925,6,0,L|126:55,2,19.7199994595846,2|0|0,2:0|2:0|2:0,0:0:0:0:
106,136,28409,2,0,L|147:132,1,39.4399989191691,2|0,2:0|2:0,0:0:0:0:
183,195,28893,2,0,L|244:188,1,59.2822627364871,2|2,2:0|2:0,0:0:0:0:
276,305,30321,1,2,2:0:0:0:
473,325,31321,5,2,2:0:0:0:
473,325,31782,2,0,L|427:326,1,41.7599988555908,2|0,2:0|2:0,0:0:0:0:
357,331,32264,2,0,P|351:311|351:288,1,41.7599988555908,2|0,2:0|2:0,0:0:0:0:
418,250,32759,2,0,P|424:218|417:184,1,62.6399982833862,2|2,2:0|2:0,0:0:0:0:
411,175,33732,5,2,2:0:0:0:
390,160,34215,1,2,2:0:0:0:
350,148,34699,1,2,2:0:0:0:
302,163,35175,5,2,2:0:0:0:
159,92,35647,2,0,L|156:65,2,22.0399993960063,2|0|0,2:0|2:0|2:0,0:0:0:0:
198,158,36119,2,0,P|178:167|156:170,1,44.0799987920126,2|0,2:0|2:0,0:0:0:0:
115,235,36609,2,0,P|134:244|156:247,1,44.0799987920126,2|0,2:0|2:0,0:0:0:0:
232,230,37112,5,2,2:0:0:0:
232,230,38072,1,2,2:0:0:0:
303,327,39032,5,2,2:0:0:0:
303,327,39512,2,0,L|299:354,2,23.1999993642171,2|0|0,2:0|2:0|2:0,0:0:0:0:
360,272,39980,2,0,P|388:266|406:264,1,46.3999987284343,2|0,2:0|2:0,0:0:0:0:
416,185,40471,2,0,P|387:187|369:191,1,46.3999987284343,2|0,2:0|2:0,0:0:0:0:
484,300,40990,6,0,L|477:248,1,46.3999987284343,2|0,2:0|2:0,0:0:0:0:
507,180,41481,2,0,L|509:127,1,46.3999987284343,2|0,2:0|2:0,0:0:0:0:
502,55,41973,2,0,P|463:71|444:93,1,69.5999980926514,2|2,2:0|2:0,0:0:0:0:
445,91,42940,1,0,2:0:0:0:
254,27,43416,6,0,L|281:20,2,24.359999332428,2|0|0,2:0|2:0|2:0,0:0:0:0:
265,109,43899,2,0,P|227:105|208:98,1,48.719998664856,2|0,2:0|2:0,0:0:0:0:
103,51,44383,2,0,P|132:42|152:42,1,48.719998664856,2|0,2:0|2:0,0:0:0:0:
217,101,44863,1,2,2:0:0:0:
185,172,45343,1,0,2:0:0:0:
136,112,45823,1,2,2:0:0:0:
234,232,46303,1,0,2:0:0:0:
234,232,46783,5,2,2:0:0:0:
234,232,47263,2,0,L|228:198,2,25.5199993006388,2|0|0,2:0|2:0|2:0,0:0:0:0:
247,313,47743,2,0,P|281:324|306:322,1,51.0399986012776,2|0,2:0|2:0,0:0:0:0:
349,272,48236,2,0,P|374:266|400:267,1,51.0399986012776,2|0,2:0|2:0,0:0:0:0:
381,342,48704,5,2,2:0:0:0:
381,342,49642,1,2,2:0:0:0:
381,342,50653,2,0,L|381:353,20,6.38000001986186,10|0|0|0|0|0|0|0|0|0|0|0|0|0|0|0|0|0|0|0|0,2:0|3:0|3:0|3:0|3:0|3:0|3:0|3:0|3:0|3:0|3:0|3:0|3:0|3:0|3:0|3:0|3:0|3:0|3:0|3:0|3:0,0:0:0:0:
449,376,51636,1,10,2:0:0:0:
188,170,52421,2,0,L|188:151,2,12.7599996503194,0|0|10,3:0|3:0|2:0,0:0:0:0:
90,80,53559,1,10,2:0:0:0:
90,80,53895,2,0,P|103:95|125:109,3,34.7999990463257,8|2|0|0,2:0|3:2|3:0|3:0,0:0:0:0:
188,170,54510,5,2,2:3:0:0:
188,170,55510,2,0,L|183:180,20,6.38000001986186,10|0|0|0|0|0|0|0|0|0|0|0|0|0|0|0|0|0|0|0|0,2:0|3:0|3:0|3:0|3:0|3:0|3:0|3:0|3:0|3:0|3:0|3:0|3:0|3:0|3:0|3:0|3:0|3:0|3:0|3:0|3:0,0:0:0:0:
254,130,56440,1,10,2:0:0:0:
188,170,57415,1,2,2:0:0:0:
384,170,58382,5,2,3:2:0:0:
384,170,59369,2,0,L|386:161,20,6.38000001986186,10|0|0|0|0|0|0|0|0|0|0|0|0|0|0|0|0|0|0|0|0,2:0|3:0|3:0|3:0|3:0|3:0|3:0|3:0|3:0|3:0|3:0|3:0|3:0|3:0|3:0|3:0|3:0|3:0|3:0|2:0|2:0,0:0:0:0:
312,208,60329,1,10,2:0:0:0:
427,48,61296,2,0,P|424:77|436:106,2,51.0400001588949,10|0|0,2:0|3:0|3:0,0:0:0:0:
256,41,62263,5,2,3:0:0:0:
256,41,63238,2,0,L|256:29,20,6.3799998251597,10|0|0|0|0|0|0|0|0|0|0|0|0|0|0|0|0|0|0|0|0,2:0|2:0|2:0|2:0|2:0|2:0|2:0|2:0|2:0|2:0|2:0|2:0|2:0|2:0|2:0|2:0|2:0|2:0|2:0|2:0|2:0,0:0:0:0:
256,113,64214,1,10,2:0:0:0:
256,41,64985,5,2,2:0:0:0:
256,41,65058,1,0,0:0:0:0:
256,113,65224,1,2,2:0:0:0:
367,364,66134,5,2,1:2:0:0:
367,364,66621,2,0,B|373:304|426:298|426:298|436:320,1,115.999996821086,2|0,2:0|2:0,0:0:0:0:
461,147,67109,2,0,B|455:207|400:217|400:217|381:181,1,115.999996821086,2|0,2:0|2:0,0:0:0:0:
309,196,67600,2,0,P|338:147|391:125,1,115.999996821086,2|0,2:0|2:0,0:0:0:0:
495,236,68080,1,2,2:3:0:0:
495,236,69040,1,8,2:0:0:0:
302,138,69859,1,0,1:0:0:0:
302,138,70006,5,0,1:0:0:0:
138,218,70497,1,2,2:0:0:0:
138,218,70661,1,2,2:0:0:0:
153,334,70989,2,0,L|136:196,1,115.999996821086,2|0,2:0|2:0,0:0:0:0:
207,170,71481,2,0,P|237:219|227:275,1,115.999996821086,2|0,2:0|2:0,0:0:0:0:
11,135,71949,6,0,B|49:159|49:159|126:145,1,115.999996821086,2|0,2:0|2:0,0:0:0:0:
227,274,72425,2,0,P|284:276|331:244,1,115.999996821086,2|0,2:0|2:0,0:0:0:0:
260,189,72901,2,0,B|227:217|227:217|146:209,1,115.999996821086,2|0,2:0|2:0,0:0:0:0:
113,343,73377,2,0,P|57:347|10:315,1,115.999996821086,2|0,2:0|2:0,0:0:0:0:
81,260,73879,5,2,1:2:0:0:
352,315,74362,2,0,P|373:333|400:342,2,57.9999984105428,2|0|0,2:0|2:0|2:0,0:0:0:0:
490,247,74846,2,0,P|463:256|441:275,2,57.9999984105428,2|0|0,2:0|2:0|2:0,0:0:0:0:
385,154,75330,2,0,B|407:199|373:241|373:241|357:228|337:225,1,115.999996821086,2|0,2:0|2:0,0:0:0:0:
277,242,75806,5,2,2:3:0:0:
277,242,76758,1,10,2:0:0:0:
259,51,77591,5,0,1:0:0:0:
259,51,77763,1,0,1:0:0:0:
6,188,78252,2,0,B|26:102|26:102|51:129,1,115.999996821086,2|0,2:0|2:0,0:0:0:0:
202,220,78728,2,0,P|156:254|100:248,1,115.999996821086,2|0,2:0|2:0,0:0:0:0:
118,92,79204,2,0,B|136:182|136:182|157:157,1,115.999996821086,2|0,2:0|2:0,0:0:0:0:
196,103,79680,1,2,2:3:0:0:
5,188,80160,1,2,2:0:0:0:
8,176,80640,1,2,2:0:0:0:
12,163,81120,1,2,2:0:0:0:
15,151,81630,5,2,1:2:0:0:
319,217,82106,2,0,P|351:270|323:354,1,139.199996185303,2|0,2:0|2:0,0:0:0:0:
177,341,82582,2,0,P|159:276|193:217,1,139.199996185303,2|0,2:0|2:0,0:0:0:0:
319,217,83058,2,0,B|416:241|416:241|461:225,1,115.999996821086,2|0,2:0|2:0,0:0:0:0:
412,159,83566,5,2,2:3:0:0:
69,319,84342,2,0,L|57:367,2,34.7999990463256,0|0|10,2:0|2:0|2:0,0:0:0:0:
141,277,84853,2,0,L|158:348,3,69.5999980926513,0|0|0|0,2:0|2:0|2:0|1:0,0:0:0:0:
69,235,85487,5,2,1:2:0:0:
352,370,85979,2,0,P|358:331|395:291,2,57.9999984105428,2|0|0,2:0|2:0|2:0,0:0:0:0:
417,234,86459,2,0,P|444:257|457:288,1,57.9999984105428,2|0,2:0|2:0,0:0:0:0:
333,234,86779,1,2,2:0:0:0:
333,234,86944,2,0,P|359:175|450:159,1,115.999996821086,2|0,2:0|2:0,0:0:0:0:
254,299,87440,6,0,P|243:232|188:193,1,115.999996821086,2|0,2:0|2:0,0:0:0:0:
100,260,87916,2,0,L|168:273,1,69.5999980926513,2|0,2:0|2:0,0:0:0:0:
44,194,88233,1,2,2:0:0:0:
44,194,88392,6,0,P|15:255|37:320,1,139.199996185303,2|0,2:0|2:0,0:0:0:0:
122,303,88868,2,0,P|120:349|96:393,2,69.5999980926513,2|0|0,2:0|2:0|2:0,0:0:0:0:
122,222,89363,5,2,1:2:0:0:
122,222,89839,2,0,L|112:170,2,34.7999990463257,2|0|2,2:0|2:0|2:0,0:0:0:0:
204,204,90315,2,0,L|218:276,1,69.5999980926513,2|0,2:0|2:0,0:0:0:0:
233,345,90642,1,0,2:0:0:0:
285,185,90806,2,0,L|314:331,1,115.999996821086,2|0,2:0|2:0,0:0:0:0:
312,321,91314,5,2,2:3:0:0:
417,302,92266,1,10,2:0:0:0:
512,278,93085,1,2,1:2:0:0:
512,278,93249,5,0,1:0:0:0:
222,291,93725,2,0,L|302:281,2,57.9999984105428,2|0|0,2:0|2:0|2:0,0:0:0:0:
168,358,94212,2,0,L|95:367,2,57.9999984105428,2|0|0,2:0|2:0|2:0,0:0:0:0:
247,227,94700,2,0,L|222:292,1,57.9999984105428,2|0,2:0|2:0,0:0:0:0:
222,291,95025,1,2,2:0:0:0:
176,197,95188,5,2,2:0:0:0:
404,238,95676,2,0,L|329:218,2,57.9999984105428,2|2|2,2:3|2:0|2:0,0:0:0:0:
421,151,96145,2,0,L|496:171,2,57.9999984105428,2|2|2,2:3|2:0|2:0,0:0:0:0:
343,141,96621,2,0,P|296:91|209:99,1,115.999996821086,2|0,2:3|2:0,0:0:0:0:
150,249,97120,5,4,1:0:0:0:
231,271,97275,1,2,2:0:0:0:
172,169,97430,1,2,2:0:0:0:
49,308,97585,2,0,P|80:343|131:351,1,69.5999980926513,2|0,1:2|2:0,0:0:0:0:
253,191,97895,1,2,2:0:0:0:
253,191,98057,2,0,P|250:151|235:113,2,57.9999984105428,2|0|2,1:2|2:0|2:0,0:0:0:0:
231,271,98526,1,10,2:0:0:0:
150,249,98688,1,0,3:0:0:0:
253,191,98851,1,2,3:2:0:0:
231,271,99042,6,0,L|271:345,1,57.9999984105428,2|0,1:2|2:0,0:0:0:0:
412,204,99349,1,2,2:0:0:0:
422,288,99503,2,0,L|382:362,1,57.9999984105428,2|0,1:2|2:0,0:0:0:0:
92,351,99811,1,2,2:0:0:0:
70,271,99997,1,10,2:0:0:0:
150,249,100154,1,0,3:0:0:0:
172,330,100311,1,2,3:2:0:0:
70,271,100469,2,0,L|49:195,1,57.9999984105428,2|0,1:0|2:0,0:0:0:0:
331,65,100952,5,2,1:2:0:0:
353,146,101109,1,2,2:0:0:0:
433,124,101266,1,2,2:0:0:0:
331,65,101435,2,0,L|263:83,1,57.9999984105428,2|0,1:2|2:0,0:0:0:0:
375,227,101755,1,2,2:0:0:0:
433,124,101915,2,0,L|414:57,2,57.9999984105428,2|0|2,1:2|2:0|2:0,0:0:0:0:
126,223,102419,1,10,2:0:0:0:
147,143,102579,1,0,3:0:0:0:
228,165,102739,1,2,3:2:0:0:
250,346,102911,6,0,P|161:325|132:202,1,208.799994277954,2|0,1:2|1:0,0:0:0:0:
308,186,103551,1,2,2:0:0:0:
308,186,103711,1,2,2:0:0:0:
287,266,103886,1,10,2:0:0:0:
207,244,104044,1,0,3:0:0:0:
185,325,104203,1,0,3:0:0:0:
308,186,104362,2,0,L|338:70,1,113.099996900558,2|0,1:0|2:0,0:0:0:0:
348,37,104679,1,2,2:3:0:0:
256,62,104856,6,0,P|225:76|191:79,1,57.9999984105428,4|0,1:0|2:0,0:0:0:0:
107,20,105173,1,2,2:0:0:0:
151,182,105332,2,0,P|175:219|206:236,1,57.9999984105428,2|0,1:2|2:0,0:0:0:0:
360,178,105649,2,0,P|299:143|231:154,1,115.999996821086,2|0,2:0|2:0,0:0:0:0:
444,279,106125,1,2,2:0:0:0:
485,206,106292,2,0,L|464:129,1,57.9999984105428,10|0,2:0|3:0,0:0:0:0:
284,235,106609,6,0,B|243:294|243:294|243:355,1,115.999996821086,2|0,3:2|2:0,0:0:0:0:
196,232,107085,1,2,2:0:0:0:
360,178,107244,2,0,L|339:101,1,57.9999984105428,2|0,1:2|2:0,0:0:0:0:
174,152,107561,1,2,2:0:0:0:
174,152,107739,1,8,2:0:0:0:
255,130,107900,1,0,3:0:0:0:
233,50,108061,1,2,3:1:0:0:
196,232,108222,2,0,L|214:299,1,57.9999984105428,2|0,1:3|2:0,0:0:0:0:
255,130,108545,1,2,2:1:0:0:
233,50,108706,6,0,P|298:8|369:15,1,115.999996821086,2|0,1:2|2:0,0:0:0:0:
432,125,109189,2,0,P|400:110|377:84,1,57.9999984105428,2|0,1:2|2:0,0:0:0:0:
508,80,109512,1,2,2:0:0:0:
440,255,109673,2,0,L|366:266,1,57.9999984105428,0|0,1:0|2:0,0:0:0:0:
174,152,109996,1,2,2:0:0:0:
196,232,110157,2,0,L|270:243,1,57.9999984105428,10|0,2:0|3:0,0:0:0:0:
233,50,110480,6,0,P|165:25|87:69,1,115.999996821086,2|0,3:2|2:0,0:0:0:0:
311,18,110964,1,2,2:0:0:0:
174,152,111125,2,0,L|188:219,1,57.9999984105428,2|0,1:2|2:0,0:0:0:0:
410,206,111447,1,2,2:0:0:0:
410,206,111609,1,10,2:0:0:0:
432,125,111770,1,0,3:0:0:0:
349,103,111931,1,2,3:2:0:0:
391,273,112093,2,0,L|416:184,1,57.9999984105428,2|0,1:0|2:0,0:0:0:0:
306,333,112415,1,2,2:0:0:0:
306,333,112576,6,0,P|248:329|205:356,2,104.615753947029,4|0|8,1:0|2:0|2:0,0:0:0:0:
148,307,113886,2,0,P|131:342|128:353,1,35.003577978735,0|0,3:0|2:0,0:0:0:0:
59,314,114213,2,0,P|56:352|57:364,1,37.1199989827474,0|0,3:0|1:0,0:0:0:0:
215,248,114525,6,0,P|231:283|235:294,1,39.4399989191691,2|0,1:3|2:0,0:0:0:0:
246,175,114842,2,0,P|274:201|281:210,1,41.7599988555908,0|0,3:0|2:0,0:0:0:0:
241,95,115169,2,0,P|279:101|290:105,1,44.0799987920126,0|0,3:0|1:0,0:0:0:0:
334,156,115497,1,8,2:0:0:0:
334,156,115989,1,2,2:0:0:0:
265,237,116457,6,0,P|253:195|255:165,1,55.6799984741212,4|0,1:2|2:0,0:0:0:0:
336,294,116770,1,2,2:0:0:0:
336,294,116939,2,0,P|340:250|353:223,1,57.9999984105428,0|2,2:0|2:0,0:0:0:0:
392,367,117278,1,8,2:0:0:0:
392,367,117436,2,0,P|401:336|419:309,1,62.6399998126831,2|0,3:0|2:0,0:0:0:0:
505,169,117758,1,8,2:3:0:0:
487,131,117914,1,8,2:3:0:0:
462,112,118070,1,0,1:0:0:0:
443,105,118226,1,4,2:3:0:0:
431,103,118383,5,4,1:0:0:0:
356,116,118891,1,2,2:0:0:0:
314,180,119187,1,2,2:0:0:0:
314,180,119253,1,2,2:0:0:0:
314,180,119320,1,6,2:0:0:0:
73,172,119860,6,0,P|143:125|225:154,1,173.999995231628,2|0,2:0|2:0,0:0:0:0:
231,250,120336,6,0,B|363:188|364:299|502:241,1,260.999992847443,6|0,1:2|2:0,0:0:0:0:
219,334,121117,1,2,2:0:0:0:
157,201,121273,2,0,B|128:192|128:192|114:253|155:321,1,139.199996185302,2|0,2:0|2:0,0:0:0:0:
388,334,121764,2,0,P|407:305|412:271,1,69.5999980926513,2|0,2:3|2:0,0:0:0:0:
322,273,122092,1,2,1:2:0:0:
482,187,122256,6,0,B|350:134|354:227|209:181,1,260.999992847443,2|0,1:2|2:0,0:0:0:0:
150,105,123043,1,2,2:0:0:0:
92,349,123223,2,0,P|187:358|205:264,1,208.799994277954,10|0,2:0|2:0,0:0:0:0:
421,237,123852,1,2,2:0:0:0:
354,181,124010,1,2,2:0:0:0:
331,261,124189,6,0,B|200:210|205:308|74:256,1,260.999992847443,2|0,1:2|2:0,0:0:0:0:
107,121,124839,1,2,2:0:0:0:
174,177,125002,1,2,2:0:0:0:
192,96,125164,6,0,B|365:28|327:182|516:108,1,313.199991416932,2|0,3:0|2:0,0:0:0:0:
422,23,125815,1,2,2:0:0:0:
491,116,125977,1,2,1:2:0:0:
467,240,126140,2,0,P|326:274|268:183,1,260.999992847443,2|0,1:2|2:0,0:0:0:0:
267,325,126921,1,2,2:0:0:0:
105,160,127099,2,0,P|194:123|271:217,1,208.799994277954,10|0,2:0|2:0,0:0:0:0:
0,266,127899,1,2,2:0:0:0:
18,186,128068,6,0,B|62:177|62:177|174:224,1,156.599995708466,6|0,1:2|2:0,0:0:0:0:
268,192,128843,1,2,2:0:0:0:
325,307,129028,2,0,P|401:310|432:290,1,104.399993952942,2|2,2:0|2:0,0:0:0:0:
335,70,129828,1,0,1:0:0:0:
335,70,130011,6,0,P|337:95|349:125,1,52.1999985694885,2|2,1:2|2:0,0:0:0:0:
378,316,130774,1,2,2:0:0:0:
436,241,130966,2,0,P|360:228|296:269,1,156.599995708466,10|0,2:0|2:0,0:0:0:0:
39,191,131747,1,2,2:0:0:0:
61,274,131950,6,0,P|123:341|248:299,1,208.799994277954,2|0,1:2|2:0,0:0:0:0:
408,135,132583,1,2,2:0:0:0:
391,216,132744,1,2,2:0:0:0:
327,154,132905,2,0,B|201:88|193:188|54:121,1,260.999992847443,2|0,3:0|2:0,0:0:0:0:
28,202,133550,1,2,2:0:0:0:
145,60,133712,1,2,1:2:0:0:
258,215,133873,6,0,P|338:244|366:71,1,313.199991416932,2|0,1:2|2:0,0:0:0:0:
512,245,134518,1,2,2:0:0:0:
412,71,134679,1,8,2:3:0:0:
308,340,134841,2,0,P|230:357|169:204,1,266.799992688497,6|0,2:3|1:0,0:0:0:0:
384,263,135309,2,0,P|373:327|283:371,1,133.399998888652,10|8,2:3|2:3,0:0:0:0:
334,98,135622,1,2,1:2:0:0:
334,98,135778,6,0,B|254:57|182:157|304:259,1,261.000002803803,6|0,1:2|2:0,0:0:0:0:
461,179,136571,1,2,2:0:0:0:
413,296,136730,2,0,P|343:322|277:286,1,139.199996185303,2|2,2:3|2:0,0:0:0:0:
207,170,137238,2,0,P|182:145|121:140,1,69.5999959686281,2|0,1:2|2:0,0:0:0:0:
75,161,137582,1,2,2:0:0:0:
216,35,137755,6,0,P|306:9|362:155,1,261.000002803803,2|0,1:3|2:0,0:0:0:0:
274,320,138521,1,2,2:0:0:0:
274,320,138711,2,0,B|151:365|76:335|76:335|79:314|92:296|111:286|111:286|130:277|152:277|171:287,1,313.199991416932,10|0,2:0|2:0,0:0:0:0:
391,355,139474,1,2,2:0:0:0:
430,284,139676,6,0,P|446:220|445:189,1,69.5999980926517,2|2,1:2|2:0,0:0:0:0:
324,138,140002,2,0,P|336:72|408:36,1,139.199996185303,2|0,2:0|2:0,0:0:0:0:
406,119,140485,1,2,2:0:0:0:
325,224,140667,2,0,P|193:163|264:92,1,260.999992847443,2|0,2:3|2:0,0:0:0:0:
325,139,141312,1,2,2:0:0:0:
325,224,141468,1,2,2:0:0:0:
316,313,141624,6,0,P|218:312|131:231,1,208.799994277954,2|0,1:2|2:0,0:0:0:0:
93,36,142405,1,2,2:0:0:0:
80,127,142575,2,0,B|64:177|61:236|61:236|38:178,1,156.599995708466,10|0,2:0|2:0,0:0:0:0:
265,340,143542,6,0,P|319:287|394:298,1,156.599995708466,6|0,1:2|2:0,0:0:0:0:
402,181,144349,1,2,2:0:0:0:
402,181,144510,2,0,P|353:186|334:192,1,52.1999985694886,2|0,2:0|2:0,0:0:0:0:
253,258,144833,1,2,2:0:0:0:
253,258,145007,2,0,P|204:253|185:247,1,52.1999985694886,2|0,2:0|2:0,0:0:0:0:
50,157,145332,1,0,1:0:0:0:
134,155,145494,6,0,P|193:128|175:-2,1,208.799994277954,2|0,1:2|2:0,0:0:0:0:
125,258,146170,1,2,2:0:0:0:
189,311,146326,1,2,2:0:0:0:
253,258,146469,2,0,P|301:204|422:241,1,173.999995231629,10|0,2:0|2:0,0:0:0:0:
512,88,146952,2,0,P|486:161|361:155,1,208.799994277954,2|0,2:3|2:0,0:0:0:0:
275,78,147436,6,0,P|196:56|136:198,1,260.999992847443,6|0,1:2|2:0,0:0:0:0:
245,349,148162,1,2,2:0:0:0:
288,268,148394,2,0,P|371:229|428:252,1,139.199996185303,2|0,3:2|2:0,0:0:0:0:
475,145,148892,2,0,P|407:134|350:171,1,115.999996821086,2|0,1:2|2:0,0:0:0:0:
288,268,149364,6,0,P|188:326|98:222,1,260.999992847443,2|0,1:3|2:0,0:0:0:0:
118,25,150095,1,2,2:0:0:0:
151,111,150339,2,0,P|260:185|331:162,1,208.799994277954,10|0,2:0|2:0,0:0:0:0:
469,147,151126,1,2,2:0:0:0:
425,302,151283,6,0,P|329:351|276:344,1,139.199996185302,6|0,1:2|2:0,0:0:0:0:
171,242,151944,2,0,P|140:229|105:228,1,57.9999984105428,2|0,2:0|2:0,0:0:0:0:
56,292,152274,2,0,P|88:306|123:307,1,57.9999984105428,2|0,2:0|2:0,0:0:0:0:
255,249,152588,2,0,P|282:228|300:198,1,69.5999980926513,2|0,2:0|2:0,0:0:0:0:
281,121,152903,1,2,2:0:0:0:
223,175,153019,1,2,1:2:0:0:
352,170,153244,6,0,P|356:71|248:37,1,226.199983446504,2|0,1:3|1:0,0:0:0:0:
183,81,153875,1,0,1:0:0:0:
183,81,154039,2,0,P|154:100|120:108,1,57.9999984105428,0|6,1:0|2:3,0:0:0:0:
60,54,154367,2,0,P|89:34|123:27,1,57.9999984105428,0|0,1:0|1:0,0:0:0:0:
53,279,154684,2,0,P|50:244|60:211,1,57.9999984105428,0|8,1:0|2:3,0:0:0:0:
137,186,154984,1,4,2:3:0:0:
182,254,155182,6,0,P|249:276|314:260,1,139.199996185303,2|0,2:0|2:0,0:0:0:0:
136,168,159020,5,2,2:0:0:0:
136,168,159503,2,0,L|123:123,2,34.7999990463257,2|0|0,2:0|2:0|2:0,0:0:0:0:
204,127,159987,2,0,P|244:107|276:107,1,69.5999980926515,2|0,2:0|2:0,0:0:0:0:
321,165,160471,2,0,P|355:172|388:160,1,69.5999980926515,2|0,2:0|2:0,0:0:0:0:
422,85,160955,5,2,2:0:0:0:
422,85,161923,1,2,2:0:0:0:
203,354,162898,5,2,2:0:0:0:
271,289,163381,2,0,L|271:328,2,28.9999992052714,2|0|0,2:0|2:0|2:0,0:0:0:0:
349,317,163865,2,0,P|386:342|425:338,1,57.9999984105428,2|0,2:0|2:0,0:0:0:0:
479,296,164349,2,0,L|482:226,1,57.9999984105428,2|0,2:0|2:0,0:0:0:0:
393,160,164866,6,0,L|400:265,1,104.399993952942,2|0,2:0|2:0,0:0:0:0:
270,62,165652,1,2,2:0:0:0:
326,116,165814,2,0,P|381:119|426:74,2,121.926867941622,2|2|2,2:0|2:0|2:0,0:0:0:0:
78,206,167254,6,0,L|90:129,1,57.9999984105428,2|0,2:0|2:0,0:0:0:0:
155,187,167734,2,0,P|196:169|227:169,1,69.5999980926515,2|0,2:0|2:0,0:0:0:0:
261,229,168214,2,0,P|301:235|339:257,1,69.5999980926515,2|0,2:0|2:0,0:0:0:0:
356,314,168694,5,2,2:0:0:0:
356,314,169677,1,2,2:0:0:0:
211,84,170652,5,2,2:0:0:0:
282,46,171139,2,0,L|285:15,2,28.9999992052714,2|0|0,2:0|2:0|2:0,0:0:0:0:
300,153,171627,2,0,P|302:91|295:71,1,57.9999984105428,2|0,2:0|2:0,0:0:0:0:
211,84,172116,2,0,P|205:118|212:153,1,57.9999984105428,2|0,2:0|2:0,0:0:0:0:
256,224,172616,5,2,2:0:0:0:
186,328,173360,1,0,2:0:0:0:
186,328,173441,1,0,2:0:0:0:
186,328,173523,2,0,L|134:310,1,52.1999985694886,2|0,2:1|2:0,0:0:0:0:
104,298,173851,1,8,2:0:0:0:
84,246,174015,1,8,2:3:0:0:
88,202,174179,1,8,2:3:0:0:
100,169,174335,1,4,2:3:0:0:
114,156,174489,6,0,P|146:161|166:170,2,52.1999985694886,6|0|0,1:2|2:0|3:0,0:0:0:0:
214,112,174972,2,0,P|233:138|240:159,2,52.1999985694886,2|0|0,2:0|2:0|2:0,0:0:0:0:
316,151,175456,2,0,P|308:217|283:258,1,104.399997138977,2|0,3:2|2:0,0:0:0:0:
134,326,175956,1,8,2:0:0:0:
200,289,176122,2,0,P|229:297|251:310,1,52.1999985694886,2|0,3:2|2:0,0:0:0:0:
326,314,176444,6,0,P|335:357|336:378,2,52.1999985694886,2|0|0,1:2|2:0|3:0,0:0:0:0:
378,256,176928,2,0,P|409:287|422:304,2,52.1999985694886,2|0|0,2:0|2:0|2:0,0:0:0:0:
395,180,177415,2,0,P|452:184|499:155,1,104.399997138977,2|0,3:2|2:0,0:0:0:0:
512,12,177903,1,8,2:0:0:0:
446,51,178066,2,0,P|433:74|427:100,1,52.1999985694886,2|0,3:2|2:0,0:0:0:0:
190,137,178391,6,0,P|216:136|241:129,2,52.1999985694886,2|0|0,1:2|2:0|3:0,0:0:0:0:
135,245,178874,2,0,P|157:231|175:213,2,52.1999985694886,2|0|0,2:0|2:0|2:0,0:0:0:0:
130,363,179358,2,0,P|168:311|224:299,1,104.399997138977,2|0,3:2|2:0,0:0:0:0:
375,345,179842,1,8,2:0:0:0:
332,281,180003,2,0,P|306:277|281:282,1,52.1999985694886,2|0,3:2|2:0,0:0:0:0:
179,131,180326,6,0,P|138:149|129:158,2,52.1999985694886,2|0|0,1:2|2:0|3:0,0:0:0:0:
161,279,180810,2,0,P|158:253|164:228,2,52.1999985694886,2|0|0,2:0|2:0|2:0,0:0:0:0:
347,155,181294,2,0,P|353:97|334:50,1,104.399997138977,2|2,3:1|2:1,0:0:0:0:
358,232,181778,1,8,2:0:0:0:
284,211,181939,2,0,P|269:190|264:165,1,52.1999985694886,2|0,3:1|2:0,0:0:0:0:
474,117,182261,6,0,P|445:138|417:146,2,52.1999985694886,6|0|0,1:2|2:0|3:0,0:0:0:0:
485,216,182765,2,0,P|450:222|421:218,2,52.1999985694886,2|0|0,2:0|2:0|2:0,0:0:0:0:
352,313,183241,2,0,P|402:301|453:310,1,104.399997138977,2|0,3:2|2:0,0:0:0:0:
299,378,183717,1,8,2:0:0:0:
230,342,183876,2,0,B|205:315|198:282,1,52.1999985694886,2|0,3:2|2:0,0:0:0:0:
182,133,184193,6,0,P|174:173|181:208,2,52.1999985694886,2|0|0,1:2|2:0|3:0,0:0:0:0:
331,163,184682,2,0,P|343:186|347:212,2,52.1999985694886,2|0|0,2:0|2:0|2:0,0:0:0:0:
182,133,185165,2,0,P|224:181|277:198,1,104.399997138977,2|0,3:2|2:0,0:0:0:0:
393,93,185649,1,8,2:0:0:0:
321,73,185811,2,0,P|281:89|260:114,1,52.1999985694886,2|0,3:2|2:0,0:0:0:0:
424,248,186133,6,0,P|429:207|418:178,2,52.1999985694886,2|0|0,1:3|2:0|3:0,0:0:0:0:
321,73,186616,2,0,P|354:99|387:105,2,52.1999985694886,2|0|0,2:0|2:0|2:0,0:0:0:0:
206,241,187100,2,0,P|139:210|108:178,1,104.399997138977,2|0,3:2|2:0,0:0:0:0:
156,58,187584,1,8,2:0:0:0:
96,107,187745,2,0,P|59:120|35:120,1,52.1999985694886,2|0,3:2|2:0,0:0:0:0:
230,26,188068,6,0,P|259:51|272:71,2,52.1999985694886,2|0|0,1:2|2:0|3:0,0:0:0:0:
419,42,188552,2,0,P|412:80|400:101,2,52.1999985694886,2|0|0,2:0|2:0|2:0,0:0:0:0:
320,147,189036,2,0,P|348:197|355:248,1,104.399997138977,2|2,3:2|2:1,0:0:0:0:
335,332,189520,2,0,P|316:352|292:364,2,52.1999985694886,8|2|2,2:0|3:1|2:0,0:0:0:0:
273,292,190023,5,0,1:0:0:0:
123,145,190503,2,0,P|94:119|55:106,2,57.9999984105428,2|0|0,2:0|2:0|2:0,0:0:0:0:
61,187,190983,2,0,P|78:214|97:231,2,57.9999984105428,2|0|0,2:0|2:0|2:0,0:0:0:0:
172,206,191463,2,0,P|201:153|183:95,1,115.999996821086,2|0,2:0|1:0,0:0:0:0:
130,54,191943,5,2,1:2:0:0:
396,188,192743,1,0,2:0:0:0:
396,188,192823,1,0,2:0:0:0:
396,188,192903,1,10,2:0:0:0:
266,305,193223,2,0,B|255:333|255:333|259:368,3,57.9999984105428,0|0|0|2,2:0|2:0|2:0|2:0,0:0:0:0:
276,286,193863,5,0,1:0:0:0:
79,268,194343,2,0,L|72:332,2,59.1599983787537,2|0|0,2:0|2:0|2:0,0:0:0:0:
142,224,194823,2,0,P|124:174|165:104,1,118.319996757507,2|0,2:0|2:0,0:0:0:0:
200,173,195303,2,0,L|59:166,1,118.319996757507,2|0,2:0|1:0,0:0:0:0:
49,97,195783,6,0,L|167:91,1,118.319996757507,2|0,1:2|2:0,0:0:0:0:
232,49,196263,2,0,P|206:89|209:131,1,88.7399975681305,2|0,2:0|2:0,0:0:0:0:
228,161,196620,1,2,2:0:0:0:
280,223,196798,2,0,P|343:243|406:216,1,118.319996757507,2|0,2:0|2:0,0:0:0:0:
443,174,197266,1,2,2:3:0:0:
443,174,197765,5,2,1:2:0:0:
255,350,198233,2,0,P|267:307|300:277,1,90.479997520447,2|0,2:0|2:0,0:0:0:0:
340,270,198546,1,2,2:0:0:0:
456,357,198702,2,0,L|347:350,1,90.479997520447,2|0,2:0|2:0,0:0:0:0:
336,350,199022,1,2,2:0:0:0:
430,264,199182,2,0,L|340:270,1,90.4799975204469,2|0,2:0|2:0,0:0:0:0:
300,274,199502,1,2,1:2:0:0:
259,341,199662,5,2,1:2:0:0:
74,255,200462,1,0,2:0:0:0:
81,284,200542,1,0,2:0:0:0:
87,313,200622,1,12,2:0:0:0:
87,313,201613,5,2,1:2:0:0:
64,129,202089,2,0,L|74:210,2,61.4799983151754,2|0|0,2:0|2:0|2:0,0:0:0:0:
48,43,202565,2,0,P|110:54|145:97,1,92.219997472763,2|0,2:0|2:0,0:0:0:0:
150,111,202882,1,2,2:0:0:0:
260,72,203041,2,0,P|297:45|340:42,2,61.4799983151754,2|0|0,2:0|2:0|1:0,0:0:0:0:
327,129,203517,6,0,L|505:104,1,153.699995787938,2|0,1:2|2:0,0:0:0:0:
509,103,204021,1,2,2:0:0:0:
349,213,204351,1,0,2:0:0:0:
327,129,204516,1,2,2:0:0:0:
269,189,204841,5,0,2:0:0:0:
247,273,205003,2,0,P|323:317|408:291,1,153.699995787938,2|0,2:0|2:0,0:0:0:0:
409,287,205483,5,6,1:2:0:0:
107,248,205963,2,0,P|142:253|176:248,2,69.5999980926512,2|0|0,2:0|2:0|2:0,0:0:0:0:
74,141,206443,2,0,P|159:173|197:156,1,104.399997138977,10|0,2:0|2:0,0:0:0:0:
200,156,206776,1,2,2:0:0:0:
387,105,206943,2,0,P|345:76|294:76,1,104.399997138977,2|0,2:0|2:0,0:0:0:0:
262,92,207276,1,2,2:0:0:0:
319,152,207443,5,2,1:2:0:0:
459,359,207911,1,8,2:3:0:0:
459,275,208068,1,8,2:3:0:0:
386,317,208224,1,8,2:3:0:0:
459,359,208380,1,10,2:0:0:0:
459,108,208867,1,4,2:3:0:0:
459,24,209030,1,4,2:3:0:0:
386,66,209193,1,4,2:3:0:0:
459,108,209355,5,2,1:2:0:0:
303,341,209842,2,0,L|292:209,1,107.87999704361,2|0,2:0|2:0,0:0:0:0:
291,197,210168,1,2,2:0:0:0:
79,257,210330,2,0,P|148:243|206:278,1,107.87999704361,10|0,2:0|2:0,0:0:0:0:
208,279,210655,1,2,2:0:0:0:
86,336,210818,2,0,P|21:312|0:249,1,107.87999704361,2|0,2:0|2:0,0:0:0:0:
0,245,211143,1,2,2:0:0:0:
96,78,211306,6,0,L|79:257,1,179.799995072683,2|0,1:2|2:0,0:0:0:0:
94,249,211794,2,0,L|105:130,1,107.87999704361,2|0,2:0|2:0,0:0:0:0:
107,105,212101,1,2,2:0:0:0:
203,251,212255,2,0,L|188:99,1,143.839996058146,10|0,2:0|2:0,0:0:0:0:
354,280,212717,2,0,P|285:226|202:250,1,179.799995072683,2|0,2:0|2:0,0:0:0:0:
178,292,213229,5,6,1:2:0:0:
428,251,213705,2,0,L|424:171,2,74.2399979654948,2|0|0,2:0|2:0|2:0,0:0:0:0:
451,382,214181,2,0,P|468:312|432:255,1,111.359996948242,10|0,2:0|2:0,0:0:0:0:
428,251,214498,1,2,2:0:0:0:
246,94,214657,2,0,P|229:164|265:221,1,111.359996948242,2|0,2:0|2:0,0:0:0:0:
268,225,214995,1,2,2:0:0:0:
470,148,215165,6,0,L|322:150,1,148.47999593099,2|0,1:2|2:0,0:0:0:0:
246,94,215645,1,8,2:3:0:0:
196,23,215805,1,8,2:3:0:0:
161,101,215965,1,8,2:3:0:0:
246,94,216125,1,10,2:0:0:0:
94,249,216605,1,4,2:3:0:0:
59,327,216765,1,4,2:3:0:0:
9,256,216925,1,4,2:3:0:0:
94,249,217085,5,2,1:2:0:0:
67,122,217565,2,0,P|45:166|101:251,1,153.119995803833,2|0,2:0|2:0,0:0:0:0:
273,23,218045,2,0,L|144:27,1,114.839996852874,10|0,2:0|2:0,0:0:0:0:
119,28,218365,1,2,2:0:0:0:
272,220,218546,2,0,P|293:149|247:96,1,114.839996852874,2|0,2:0|2:0,0:0:0:0:
245,93,218876,1,2,2:0:0:0:
197,257,219041,1,2,1:2:0:0:
367,176,219363,5,12,2:0:0:0:
415,340,219524,1,0,1:0:0:0:
439,248,219686,1,2,2:0:0:0:
506,315,219847,2,0,L|417:338,1,78.8799978383381,8|0,2:3|1:0,0:0:0:0:
326,255,220170,5,8,2:0:0:0:
326,255,220250,1,8,2:0:0:0:
326,255,220331,1,10,2:0:0:0:
281,174,220492,1,8,2:3:0:0:
214,241,220653,2,0,P|255:264|318:257,1,78.8799978383381,4|4,2:3|2:3,0:0:0:0:
391,137,220976,5,4,1:0:0:0:
467,94,221137,1,2,2:0:0:0:
391,50,221299,1,2,2:0:0:0:
316,95,221460,2,0,P|256:131|170:91,1,130.499996423722,14|0,2:0|2:0,0:0:0:0:
167,91,221782,1,2,2:0:0:0:
95,278,221944,2,0,P|59:218|99:132,1,130.499996423722,2|0,1:2|2:0,0:0:0:0:
99,129,222266,1,2,2:0:0:0:
204,266,222428,1,14,2:0:0:0:
141,204,222589,1,0,3:0:0:0:
226,181,222750,1,2,3:2:0:0:
290,243,222911,6,0,P|284:306|237:349,1,130.499996423722,2|0,1:2|2:0,0:0:0:0:
203,357,223234,1,2,2:0:0:0:
378,356,223395,2,0,P|307:313|300:233,1,130.499996423722,14|0,2:0|2:0,0:0:0:0:
289,242,223718,1,2,2:0:0:0:
226,181,223879,1,10,2:0:0:0:
204,266,224041,1,0,3:0:0:0:
289,242,224202,1,2,3:2:0:0:
281,120,224363,2,0,P|197:103|144:178,1,173.999995231629,14|0,2:0|2:0,0:0:0:0:
374,266,224847,5,2,1:2:0:0:
437,204,225008,1,2,2:0:0:0:
352,181,225170,1,2,2:0:0:0:
470,350,225331,2,0,P|490:269|437:207,1,130.499996423722,14|0,2:0|2:0,0:0:0:0:
437,204,225653,1,2,2:0:0:0:
252,96,225815,2,0,P|232:156|256:215,1,130.499996423722,2|0,1:2|2:0,0:0:0:0:
289,240,226137,1,2,2:0:0:0:
410,174,226299,1,14,2:0:0:0:
387,90,226460,1,0,3:0:0:0:
326,152,226621,1,2,3:2:0:0:
361,294,226782,6,0,P|285:331|213:290,1,173.999995231629,2|0,1:2|2:0,0:0:0:0:
106,102,227266,2,0,P|168:65|248:92,1,130.499996423722,14|0,2:0|2:0,0:0:0:0:
252,96,227589,1,2,2:0:0:0:
252,96,227750,1,10,2:0:0:0:
180,155,227911,1,0,3:0:0:0:
298,264,228073,1,0,3:0:0:0:
427,176,228234,2,0,P|347:142|265:190,1,173.999995231629,14|2,2:0|2:3,0:0:0:0:
205,250,228718,6,0,P|165:290|125:302,1,86.9999976158145,4|0,1:0|2:0,0:0:0:0:
112,176,229041,1,2,2:0:0:0:
274,179,229202,2,0,L|300:268,1,86.9999976158145,14|0,2:0|2:0,0:0:0:0:
360,132,229524,2,0,P|276:81|196:120,1,173.999995231629,2|0,2:0|2:0,0:0:0:0:
253,377,230008,1,2,2:0:0:0:
220,296,230170,2,0,P|265:266|316:262,1,86.9999976158145,14|0,2:0|3:0,0:0:0:0:
445,281,230492,6,0,P|366:309|297:262,1,173.999995231629,2|0,3:2|2:0,0:0:0:0:
112,176,230976,1,2,2:0:0:0:
220,296,231137,2,0,P|202:249|160:223,1,86.9999976158145,14|0,2:0|2:0,0:0:0:0:
112,176,231460,1,2,2:0:0:0:
187,132,231621,1,8,2:0:0:0:
143,57,231782,1,0,3:0:0:0:
68,100,231944,1,2,3:1:0:0:
187,132,232105,2,0,L|334:108,1,130.499996423722,14|0,2:0|2:0,0:0:0:0:
358,104,232428,1,2,2:1:0:0:
443,267,232589,6,0,P|412:212|446:119,1,130.499996423722,2|0,1:2|2:0,0:0:0:0:
450,115,232911,1,2,2:0:0:0:
371,294,233073,2,0,P|346:244|341:177,1,86.9999976158145,14|0,2:0|2:0,0:0:0:0:
285,132,233395,6,0,P|269:210|292:302,1,174.000001869202,2|0,2:0|2:0,0:0:0:0:
331,360,233879,1,2,2:0:0:0:
143,297,234040,2,0,L|153:388,1,86.9999976158145,14|0,2:0|3:0,0:0:0:0:
126,216,234363,6,0,P|208:245|221:327,1,174.000001869202,2|0,3:2|2:0,0:0:0:0:
43,224,234847,1,2,2:0:0:0:
77,144,235008,2,0,P|126:133|168:140,1,86.9999976158145,14|0,2:0|2:0,0:0:0:0:
315,177,235331,1,2,2:0:0:0:
358,102,235492,1,10,2:0:0:0:
283,58,235653,1,0,3:0:0:0:
240,134,235815,1,2,3:2:0:0:
492,35,235976,2,0,P|408:34|357:102,1,173.999995231629,14|2,2:0|2:0,0:0:0:0:
403,176,236460,5,4,1:0:0:0:
403,176,236621,1,0,2:0:0:0:
403,176,236782,2,0,L|415:268,1,86.9999976158145,2|0,2:0|2:0,0:0:0:0:
252,369,237105,2,0,L|240:277,1,86.9999976158145,2|0,2:0|2:0,0:0:0:0:
466,330,237428,2,0,L|379:341,1,86.9999976158145,10|0,2:0|2:0,0:0:0:0:
154,294,237750,1,2,3:2:0:0:
188,214,237911,2,0,L|274:202,1,86.9999976158145,2|0,2:0|3:0,0:0:0:0:
239,282,238234,1,0,1:0:0:0:
102,225,238395,6,0,P|109:179|137:139,1,86.9999976158145,2|0,1:3|2:0,0:0:0:0:
250,53,238718,1,0,3:0:0:0:
217,132,238879,1,2,2:0:0:0:
303,122,239040,1,0,3:0:0:0:
269,202,239202,1,0,1:0:0:0:
442,179,239363,6,0,P|398:177|358:193,1,86.9999976158145,12|0,2:0|2:0,0:0:0:0:
303,121,239686,1,0,1:0:0:0:
408,259,239847,1,14,2:0:0:0:
269,202,240008,1,2,2:3:0:0:
374,339,240170,1,2,2:0:0:0:
154,294,240331,6,0,P|198:277|243:281,1,92.7999974568685,6|0,1:2|2:0,0:0:0:0:
209,357,240653,1,8,2:0:0:0:
46,154,240815,2,0,P|82:184|101:225,1,92.7999974568685,10|0,2:0|1:0,0:0:0:0:
16,232,241137,1,0,1:0:0:0:
129,0,241299,2,0,P|121:47|94:84,1,92.7999974568685,10|0,2:0|2:0,0:0:0:0:
175,206,241621,2,0,P|182:160|208:122,1,92.7999974568685,8|2,2:3|1:2,0:0:0:0:
358,192,241944,2,0,P|350:237|324:275,1,92.7999974568685,4|4,2:3|2:3,0:0:0:0:
63,329,242266,6,0,P|21:284|17:222,1,115.999996821086,6|0,1:2|2:0,0:0:0:0:
176,119,242589,1,8,2:0:0:0:
175,206,242750,1,8,2:0:0:0:
100,249,242911,1,8,2:0:0:0:
100,75,243084,1,8,2:3:0:0:
269,202,243258,2,0,L|325:279,1,86.9999976158141,8|0,2:3|2:0,0:0:0:0:
495,267,243726,6,0,P|412:249|349:304,1,173.999995231628,14|0,2:0|2:0,0:0:0:0:
278,304,244209,6,0,P|372:190|507:195,1,260.999992847443,6|0,1:2|2:0,0:0:0:0:
302,380,245015,1,2,2:0:0:0:
278,304,245176,2,0,P|215:246|131:251,1,173.999995231628,2|0,2:0|2:0,0:0:0:0:
67,208,245660,2,0,P|151:172|216:174,1,139.199996185303,2|0,2:3|1:0,0:0:0:0:
372,84,246144,6,0,P|403:157|256:161,1,260.999992847443,2|0,1:2|2:0,0:0:0:0:
194,66,246907,1,2,2:0:0:0:
458,80,247112,6,0,P|467:190|384:280,1,208.799994277954,10|0,2:0|2:0,0:0:0:0:
126,251,247757,1,2,2:0:0:0:
205,227,247918,1,2,2:0:0:0:
184,306,248079,6,0,P|68:306|75:189,1,260.999992847443,2|0,1:2|2:0,0:0:0:0:
252,8,248774,1,2,2:0:0:0:
178,58,248922,1,2,2:0:0:0:
257,90,249056,2,0,B|404:60|394:145|541:116,1,260.999992847443,2|0,3:0|2:0,0:0:0:0:
216,267,249690,1,2,2:0:0:0:
186,184,249849,1,2,1:2:0:0:
126,251,250008,6,0,P|160:340|299:221,1,347.999990463258,2|0,1:2|2:0,0:0:0:0:
464,282,250802,1,2,2:0:0:0:
419,361,250960,2,0,P|333:360|266:297,1,173.999995231628,10|0,2:0|2:0,0:0:0:0:
237,300,251447,2,0,P|200:256|134:248,1,104.399997138977,2|0,2:0|2:0,0:0:0:0:
125,262,251773,1,2,2:0:0:0:
132,369,251935,6,0,P|164:300|130:231,1,156.599995708466,6|0,1:2|2:0,0:0:0:0:
71,169,252667,1,2,2:0:0:0:
138,129,252911,2,0,P|189:124|234:148,1,115.999996821086,2|0,2:0|2:0,0:0:0:0:
376,233,253394,2,0,P|329:255|303:299,1,115.999996821086,2|0,2:0|1:0,0:0:0:0:
462,373,253878,2,0,L|454:257,1,104.399997138977,2|0,1:2|2:0,0:0:0:0:
452,239,254200,1,2,2:0:0:0:
294,274,254603,1,2,2:0:0:0:
218,61,254845,2,0,B|234:223|234:223|204:285,1,226.199993801117,10|0,2:0|2:0,0:0:0:0:
24,267,255500,5,2,1:2:0:0:
45,354,255664,1,2,2:0:0:0:
110,285,255828,1,6,1:2:0:0:
282,182,256795,2,0,P|185:207|114:137,1,208.799994277954,2|0,2:3|2:0,0:0:0:0:
32,183,257582,1,0,1:0:0:0:
32,183,257751,2,0,P|105:230|186:197,1,181.321913926483,2|2,1:2|2:0,0:0:0:0:
212,108,258738,2,0,L|215:274,1,156.599995708466,10|0,2:0|2:0,0:0:0:0:
224,350,259378,5,2,2:0:0:0:
290,302,259538,1,2,2:0:0:0:
214,264,259698,1,6,1:2:0:0:
157,202,260689,6,0,P|143:290|52:314,1,180.959995040894,2|0,2:3|2:0,0:0:0:0:
79,234,261309,2,0,P|111:237|142:259,1,60.3199983469646,2|2,2:0|2:0,0:0:0:0:
238,212,261619,2,0,P|262:192|276:170,2,52.1999985694886,2|0|0,1:2|2:0|1:0,0:0:0:0:
426,160,262102,2,0,L|420:283,1,104.399997138977,12|0,2:0|2:0,0:0:0:0:
305,370,262586,6,0,P|329:357|347:357,1,34.7999990463257,10|8,2:0|2:0,0:0:0:0:
193,282,262909,2,0,P|205:286|217:295,1,23.1999993642171,8|8,2:3|2:3,0:0:0:0:
124,375,263231,2,0,P|129:371|135:369,1,11.5999996821086,4|4,2:3|2:3,0:0:0:0:
52,345,267438,5,2,2:0:0:0:
52,258,268429,1,2,2:0:0:0:
127,301,269381,1,2,2:0:0:0:
202,345,271316,5,2,2:0:0:0:
202,258,272291,1,2,2:0:0:0:
127,301,273251,1,2,2:0:0:0:
52,345,275186,5,2,2:0:0:0:
52,258,276161,1,2,2:0:0:0:
127,301,277137,1,2,2:0:0:0:
202,345,279057,5,2,2:0:0:0:
202,258,280017,1,2,2:0:0:0:
127,301,280977,1,2,2:0:0:0:
374,141,282928,5,2,2:0:0:0:
374,54,283903,1,2,2:0:0:0:
449,97,284870,1,2,2:0:0:0:
374,228,286774,5,2,2:0:0:0:
374,141,287757,1,2,2:0:0:0:
449,184,288724,1,2,2:0:0:0:
169,190,290660,5,2,2:0:0:0:
84,167,291635,1,2,2:0:0:0:
62,83,292611,1,2,2:0:0:0:
123,21,293586,1,2,2:0:0:0:
169,190,294523,5,2,2:0:0:0:
230,128,295490,1,2,2:0:0:0:
208,44,296458,1,2,2:0:0:0:
276,297,298393,5,2,2:0:0:0:
192,274,299376,1,2,2:0:0:0:
169,190,300360,2,0,P|228:93|350:149,1,266.799992688497,2|0,2:0|2:0,0:0:0:0:
356,175,302280,5,2,1:3:0:0:
394,285,304040,5,8,2:0:0:0:
394,285,304115,1,8,2:0:0:0:
394,285,304191,1,8,2:0:0:0:
299,296,304356,1,8,2:0:0:0:
210,308,304521,1,8,2:0:0:0:
118,99,305480,5,8,2:0:0:0:
118,99,305552,1,8,2:0:0:0:
118,99,305625,1,8,2:0:0:0:
213,88,305785,1,8,2:0:0:0:
302,76,305945,1,8,2:0:0:0:
415,222,306105,6,0,P|326:229|277:302,1,173.999995231629,4|8,1:0|2:0,0:0:0:0:
278,292,306508,1,8,2:0:0:0:
278,292,306588,1,10,2:0:0:0:
377,319,306750,1,8,2:0:0:0:
206,227,306911,2,0,B|117:194|119:257|24:236,1,173.999995231629,10|0,2:0|2:0,0:0:0:0:
54,145,307395,1,8,2:0:0:0:
54,145,307475,1,8,2:0:0:0:
54,145,307556,5,10,2:0:0:0:
121,65,307717,1,8,3:0:0:0:
213,88,307879,1,8,3:0:0:0:
213,88,308531,1,10,2:0:0:0:
146,168,308859,1,8,2:0:0:0:
146,168,308941,1,8,2:0:0:0:
146,168,309023,1,10,2:0:0:0:
397,297,309351,5,8,2:0:0:0:
306,323,309515,1,10,2:0:0:0:
238,255,309679,1,8,2:0:0:0:
421,204,309843,1,8,2:0:0:0:
266,164,310007,6,0,P|322:208|330:276,1,98.5999972979232,4|0,1:0|2:0,0:0:0:0:
216,348,310329,1,8,2:0:0:0:
126,373,310490,1,10,2:0:0:0:
58,305,310652,1,8,2:0:0:0:
141,70,310813,2,0,B|242:99|127:205|250:237,1,197.199994595846,10|0,2:0|2:0,0:0:0:0:
57,124,311297,5,8,2:0:0:0:
57,124,311377,1,8,2:0:0:0:
57,124,311458,1,10,2:0:0:0:
65,30,311619,1,8,2:0:0:0:
141,70,311781,1,8,2:0:0:0:
271,159,311942,6,0,B|336:165|336:165|340:161|340:161|339:169|339:169|344:165|344:165|416:172,1,156.599995708466,10|0,2:0|2:0,0:0:0:0:
471,115,312265,2,0,P|488:201|405:249,1,160.079995613098,10|0,2:0|2:0,0:0:0:0:
288,304,312587,2,0,P|243:237|261:161,1,163.559995517731,10|0,2:0|2:0,0:0:0:0:
271,18,312910,6,0,B|308:54|308:54|259:165,1,167.039995422363,4|0,2:0|2:0,0:0:0:0:
179,271,313232,2,0,B|154:225|154:225|212:91,1,170.519995326995,4|0,2:0|2:0,0:0:0:0:
66,58,313555,2,0,P|169:62|202:134,1,173.999995231628,4|0,2:0|2:0,0:0:0:0:
337,174,313888,6,0,P|384:81|488:88,1,220.399993960062,4|8,1:0|2:0,0:0:0:0:
440,336,314364,1,8,2:0:0:0:
510,253,314522,1,8,2:0:0:0:
440,168,314681,1,8,2:0:0:0:
255,185,314840,6,0,B|309:169|382:242|282:357,1,231.999993642171,6|8,1:2|2:0,0:0:0:0:
294,100,315316,1,8,2:0:0:0:
183,80,315475,1,8,2:0:0:0:
163,190,315634,1,2,1:3:0:0:
339,186,315792,6,0,B|474:190|393:53|523:44,1,243.59999332428,4|8,1:0|2:0,0:0:0:0:
215,85,316275,1,10,2:0:0:0:
255,185,316437,1,8,2:0:0:0:
335,109,316598,1,8,2:0:0:0:
287,28,316759,6,0,B|283:11|253:0|232:4|232:4|107:37,1,191.399994754791,6|0,1:2|2:0,0:0:0:0:
72,53,317084,1,8,2:0:0:0:
137,180,317246,1,8,2:3:0:0:
215,85,317409,2,0,L|144:104,1,63.7999982515974,4|0,2:3|2:0,0:0:0:0:
418,229,317734,5,10,1:2:0:0:
418,229,317815,1,8,2:0:0:0:
418,229,317897,2,0,P|369:262|323:265,1,98.5999972979232,8|8,2:0|2:0,0:0:0:0:
252,40,318222,5,10,1:2:0:0:
252,40,318300,1,8,2:0:0:0:
252,40,318379,2,0,P|267:94|315:127,1,86.9999976158145,8|8,2:0|2:0,0:0:0:0:
430,155,318694,5,6,1:2:0:0:
429,81,318851,1,8,2:0:0:0:
365,121,319009,1,8,2:0:0:0:
303,368,319166,5,8,2:3:0:0:
233,294,319324,1,4,2:3:0:0:
331,266,319481,1,4,2:3:0:0:
72,205,319639,6,0,P|101:374|24:381,1,287.099992132187,6|0,1:0|2:0,0:0:0:0:
72,205,320655,2,0,L|57:290,1,81.1999977747604,4|0,1:2|2:0,0:0:0:0:
311,253,321138,6,0,P|380:235|435:188,1,144.999996026357,6|0,1:2|2:0,0:0:0:0:
417,193,321634,6,0,P|341:235|187:58,1,347.999990463258,4|0,1:0|2:0,0:0:0:0:
63,39,322440,1,2,2:0:0:0:
285,138,322601,2,0,P|269:220|130:231,1,237.799993483226,2|0,2:0|2:0,0:0:0:0:
112,215,323085,1,2,2:3:0:0:
197,166,323408,1,2,1:2:0:0:
379,341,323569,6,0,P|440:361|510:214,1,260.999992847443,2|0,1:3|2:0,0:0:0:0:
365,132,324375,1,2,2:0:0:0:
220,368,324537,2,0,P|201:268|352:216,1,285.359992179871,10|0,2:0|2:0,0:0:0:0:
444,162,325171,1,2,2:0:0:0:
425,254,325330,1,2,2:0:0:0:
316,68,325489,6,0,P|201:48|110:82,1,208.799994277954,2|0,1:2|2:0,0:0:0:0:
141,310,326197,1,2,2:0:0:0:
54,249,326336,1,2,2:0:0:0:
225,370,326478,2,0,P|285:383|352:228,1,260.999992847443,2|0,3:0|2:0,0:0:0:0:
192,146,327112,1,2,2:0:0:0:
156,221,327271,1,2,1:2:0:0:
286,27,327430,6,0,P|272:128|378:147,1,208.799994277954,2|0,1:2|2:0,0:0:0:0:
485,107,328236,1,2,2:0:0:0:
512,300,328397,2,0,P|484:228|399:211,1,156.599995708466,10|0,2:0|2:0,0:0:0:0:
80,345,329204,1,2,2:0:0:0:
125,270,329365,6,0,P|165:245|310:305,1,208.799994277954,6|0,1:2|2:0,0:0:0:0:
400,384,330171,1,2,2:0:0:0:
304,295,330333,2,0,P|278:251|277:188,1,104.399997138977,2|0,2:0|2:0,0:0:0:0:
455,109,330817,2,0,P|412:135|348:143,1,104.399997138977,2|0,2:0|1:0,0:0:0:0:
189,201,331297,2,0,P|197:162|233:125,1,90.4799975204469,2|0,1:2|2:0,0:0:0:0:
267,115,331617,1,2,2:0:0:0:
462,27,332108,1,2,2:0:0:0:
331,141,332272,2,0,P|239:137|186:40,1,208.799994277954,10|0,2:0|2:0,0:0:0:0:
289,46,333072,1,2,2:0:0:0:
254,222,333232,6,0,B|117:265|124:165|-7:200,1,260.999992847443,2|0,1:2|2:0,0:0:0:0:
187,317,333872,1,2,2:0:0:0:
260,346,334032,1,2,2:0:0:0:
315,291,334192,2,0,P|361:253|265:92,1,285.359992179871,2|0,3:0|2:0,0:0:0:0:
58,259,334842,1,2,2:0:0:0:
198,124,335005,1,2,1:2:0:0:
260,346,335167,6,0,P|374:368|447:202,1,313.199991416932,2|0,1:3|2:0,0:0:0:0:
277,19,335812,1,2,2:0:0:0:
337,252,335973,1,2,1:2:0:0:
110,92,336134,2,0,P|236:42|286:157,1,266.799992688497,14|8,2:0|2:3,0:0:0:0:
164,205,336610,2,0,P|123:154|124:89,1,133.399998888652,6|8,2:3|2:3,0:0:0:0:
392,0,336927,1,2,1:2:0:0:
309,118,337086,6,0,P|295:210|367:366,1,260.999992847443,6|0,1:2|2:0,0:0:0:0:
424,160,337886,1,2,2:0:0:0:
254,357,338046,2,0,P|169:364|150:243,1,208.799994277954,2|0,2:3|2:0,0:0:0:0:
94,55,338537,1,2,1:2:0:0:
208,294,338865,1,2,2:0:0:0:
264,219,339029,6,0,P|291:164|137:44,1,260.999992847443,2|0,1:3|2:0,0:0:0:0:
0,213,339822,1,2,2:0:0:0:
208,294,339981,2,0,B|363:331|365:225|521:266,1,313.199991416932,10|0,2:0|2:0,0:0:0:0:
282,204,340794,1,0,2:0:0:0:
338,125,340956,6,0,P|387:108|433:109,1,69.5999980926513,2|2,1:2|2:0,0:0:0:0:
281,204,341281,2,0,P|231:196|197:158,1,104.399997138977,2|0,2:0|2:0,0:0:0:0:
168,55,341776,1,2,2:0:0:0:
130,177,341942,2,0,P|217:266|357:243,1,260.999992847443,2|0,2:3|2:0,0:0:0:0:
447,167,342582,1,2,2:0:0:0:
512,71,342742,1,2,2:0:0:0:
447,167,342902,6,0,P|417:237|459:371,1,208.799994277954,2|0,1:2|2:0,0:0:0:0:
386,122,343708,1,2,2:0:0:0:
344,252,343869,2,0,P|350:317|372:372,1,104.399997138977,10|0,2:0|2:0,0:0:0:0:
255,305,344373,2,0,P|270:255|273:203,1,104.399997138977,2|0,2:3|2:0,0:0:0:0:
259,108,344849,6,0,P|226:46|95:79,1,208.799994277954,6|0,1:2|2:0,0:0:0:0:
15,316,345642,1,2,2:0:0:0:
117,279,345801,2,0,P|173:341|183:361,1,77.7199978701272,2|0,2:0|2:0,0:0:0:0:
271,384,346119,1,2,2:0:0:0:
329,251,346277,2,0,P|295:270|265:310,1,77.7199978701272,2|0,2:0|2:0,0:0:0:0:
200,226,346604,1,0,1:0:0:0:
380,185,346768,6,0,P|435:186|456:364,1,260.999992847443,2|0,1:2|2:0,0:0:0:0:
311,324,347418,1,2,2:0:0:0:
364,258,347581,1,2,2:0:0:0:
399,335,347743,2,0,P|396:244|387:197,1,139.199996185303,10|0,2:0|2:0,0:0:0:0:
102,65,348231,2,0,L|117:256,1,173.999995231629,2|0,2:3|2:0,0:0:0:0:
95,329,348707,6,0,P|172:313|207:227,1,156.599995708467,6|0,1:2|2:0,0:0:0:0:
185,175,349520,1,2,2:0:0:0:
266,307,349682,2,0,P|312:370|383:383,1,139.199996185303,2|0,3:2|2:0,0:0:0:0:
380,77,350170,2,0,L|358:264,1,173.999995231629,2|0,1:2|2:0,0:0:0:0:
512,384,350658,6,0,P|493:303|430:263,1,156.599995708467,2|0,1:3|2:0,0:0:0:0:
227,235,351458,1,2,2:0:0:0:
166,309,351618,2,0,P|131:245|206:142,1,208.799994277954,10|0,2:0|2:0,0:0:0:0:
359,249,352424,1,2,2:0:0:0:
510,83,352585,6,0,B|291:58|291:58|221:65|183:150|250:204,1,391.499989271165,6|0,1:2|2:0,0:0:0:0:
400,175,353576,2,0,B|305:116|215:196|285:292|138:345|83:282,1,348.000003738404,2|2,2:3|2:0,0:0:0:0:
101,125,354376,5,8,2:0:0:0:
101,125,354446,1,8,2:0:0:0:
101,125,354516,2,0,P|162:128|239:205,1,155.439995740254,6|8,1:2|2:0,0:0:0:0:
355,259,354919,1,8,2:0:0:0:
355,259,354999,2,0,P|433:233|472:170,1,155.439995740254,2|8,1:3|2:3,0:0:0:0:
231,187,355483,5,12,2:0:0:0:
276,248,355645,1,8,2:0:0:0:
243,321,355806,1,8,2:0:0:0:
304,369,355967,2,0,L|391:353,1,77.7199978701272,8|8,2:3|2:3,0:0:0:0:
470,173,356290,1,2,2:0:0:0:
326,69,356451,6,0,P|263:103|228:180,1,139.199996185303,4|0,1:0|2:0,0:0:0:0:
133,341,356935,2,0,L|155:175,1,139.199996185303,2|0,2:0|2:0,0:0:0:0:
164,127,357419,1,2,2:3:0:0:
355,370,357903,1,2,1:2:0:0:
345,365,358386,6,0,P|326:297|340:231,1,139.199996185303,2|0,1:3|2:0,0:0:0:0:
452,133,358870,2,0,P|465:66|447:0,1,139.199996185303,2|0,2:0|2:0,0:0:0:0:
399,184,359354,1,10,2:0:0:0:
0,148,359838,1,2,2:0:0:0:
8,159,360322,6,0,P|50:150|131:197,1,139.199996185303,2|0,1:3|2:0,0:0:0:0:
130,275,360806,1,2,2:3:0:0:
190,334,360967,1,2,2:0:0:0:
270,312,361128,1,2,2:0:0:0:
234,138,361290,2,0,P|199:180|204:249,1,104.399997138977,2|0,2:3|2:0,0:0:0:0:
210,254,361612,1,2,2:0:0:0:
270,312,361774,2,0,P|338:360|404:353,1,139.199996185303,2|0,2:3|1:0,0:0:0:0:
314,151,362257,5,2,1:3:0:0:
284,78,362419,1,2,2:0:0:0:
234,138,362580,1,2,2:0:0:0:
292,231,362741,2,0,P|381:200|394:129,1,173.999995231628,2|0,2:3|2:0,0:0:0:0:
382,102,363225,1,10,2:0:0:0:
331,376,363386,2,0,P|308:297|230:273,1,139.199991937256,2|0,2:0|2:0,0:0:0:0:
202,319,363870,1,2,2:0:0:0:
314,151,364032,1,2,2:0:0:0:
127,59,364193,6,0,L|149:278,1,208.799994277954,4|2,1:0|2:0,0:0:0:0:
256,19,365161,2,0,L|248:232,1,208.799994277954,2|2,2:3|2:0,0:0:0:0:
352,29,366128,1,2,1:3:0:0:
415,89,366290,1,2,2:0:0:0:
331,114,366451,1,2,2:0:0:0:
457,196,366612,2,0,P|428:178|394:173,1,69.5999980926512,2|0,2:3|2:0,0:0:0:0:
412,359,367096,2,0,L|400:241,1,104.399997138977,10|0,2:0|2:0,0:0:0:0:
324,225,367580,2,0,L|334:348,1,104.399997138977,2|0,2:3|2:0,0:0:0:0:
45,282,368064,5,4,1:0:0:0:
113,325,368227,1,2,2:0:0:0:
118,246,368391,1,2,2:0:0:0:
54,124,368555,2,0,P|54:197|120:247,1,130.499996423722,2|0,2:3|2:0,0:0:0:0:
118,246,368883,5,2,2:0:0:0:
207,112,369047,1,2,2:3:0:0:
132,78,369203,1,2,2:0:0:0:
137,160,369359,1,2,2:0:0:0:
212,346,369515,2,0,P|285:357|336:319,1,130.499996423722,2|0,2:3|2:0,0:0:0:0:
348,292,369828,5,0,1:0:0:0:
271,195,369990,1,2,1:3:0:0:
193,218,370153,1,2,2:0:0:0:
259,274,370315,1,2,2:0:0:0:
399,130,370478,2,0,P|341:66|232:75,1,185.599994913737,2|0,2:3|1:0,0:0:0:0:
427,232,370966,6,0,P|439:154|393:95,1,139.199996185303,12|0,2:0|2:0,0:0:0:0:
382,86,371278,1,0,1:0:0:0:
279,260,371434,1,10,2:0:0:0:
352,179,371591,1,8,2:0:0:0:
238,163,371747,1,8,2:0:0:0:
157,330,371903,6,0,L|157:147,1,173.999995231628,4|0,1:0|2:0,0:0:0:0:
177,21,372398,2,0,P|177:105|239:164,1,173.999995231628,2|0,2:0|2:0,0:0:0:0:
287,151,372894,1,2,2:3:0:0:
450,360,373390,1,2,1:0:0:0:
452,346,373886,6,0,P|432:268|331:216,1,173.999995231628,6|0,1:2|2:0,0:0:0:0:
273,187,374362,2,0,P|358:164|398:72,1,173.999995231628,2|0,2:0|2:0,0:0:0:0:
397,66,374845,1,10,2:0:0:0:
360,363,375325,1,2,2:3:0:0:
359,349,375805,6,0,L|350:218,1,104.399997138977,4|0,1:0|2:0,0:0:0:0:
349,210,376127,1,2,2:0:0:0:
451,17,376288,2,0,P|403:2|319:62,1,139.199996185303,2|2,2:3|2:0,0:0:0:0:
344,115,376772,2,0,P|392:130|464:92,1,104.399997138977,2|0,2:3|2:0,0:0:0:0:
466,89,377095,1,2,2:0:0:0:
255,124,377256,2,0,P|191:164|140:155,1,104.399997138977,2|0,2:3|2:0,0:0:0:0:
137,152,377579,1,2,2:0:0:0:
282,287,377740,5,2,1:3:0:0:
261,368,377898,1,2,2:0:0:0:
180,346,378057,1,2,2:0:0:0:
201,265,378216,2,0,L|229:160,1,104.399997138977,2|0,2:3|2:0,0:0:0:0:
237,130,378528,1,2,2:0:0:0:
361,311,378714,6,0,P|388:345|468:360,1,104.399997138977,14|0,2:0|2:0,0:0:0:0:
478,359,379026,1,2,2:0:0:0:
383,209,379189,1,2,2:3:0:0:
448,262,379353,1,2,2:0:0:0:
465,179,379517,1,2,2:1:0:0:
200,264,379681,6,0,P|140:295|72:273,1,139.199996185302,4|0,1:0|2:0,0:0:0:0:
205,164,380173,1,2,2:3:0:0:
163,91,380337,1,2,2:0:0:0:
90,133,380501,1,2,2:0:0:0:
275,214,380665,2,0,P|342:155|338:66,1,173.999995231628,2|0,2:3|2:0,0:0:0:0:
375,36,381133,2,0,P|403:112|384:181,1,139.199996185303,2|0,2:3|1:0,0:0:0:0:
205,164,381602,5,2,1:3:0:0:
132,205,381758,1,2,2:0:0:0:
174,277,381919,1,2,2:0:0:0:
246,235,382080,1,2,2:3:0:0:
287,164,382578,5,10,2:0:0:0:
360,205,382739,1,2,2:0:0:0:
318,277,382900,1,2,2:0:0:0:
246,235,383061,1,2,2:3:0:0:
72,49,383545,6,0,P|89:123|61:231,1,173.999995231628,4|0,1:0|2:0,0:0:0:0:
107,290,384029,2,0,P|126:205|190:133,1,173.999995231628,2|0,2:0|2:0,0:0:0:0:
208,119,384520,1,2,2:3:0:0:
445,39,385012,1,2,2:0:0:0:
440,49,385504,6,0,P|423:123|451:231,1,173.999995231628,2|0,1:0|2:0,0:0:0:0:
405,290,385984,2,0,P|386:205|322:133,1,173.999995231628,2|0,2:3|2:0,0:0:0:0:
304,119,386464,1,10,2:0:0:0:
211,262,386784,1,8,2:3:0:0:
172,195,386944,1,2,1:0:0:0:
62,308,387424,6,0,B|157:282|138:360|239:343,1,173.999995231628,4|0,1:0|2:0,0:0:0:0:
354,317,387907,2,0,P|304:260|211:261,1,173.999995231628,12|0,2:0|2:0,0:0:0:0:
133,264,388391,1,2,1:3:0:0:
82,208,388553,1,8,2:0:0:0:
73,144,388714,1,8,2:0:0:0:
98,103,388875,1,8,2:3:0:0:
127,92,389036,1,8,2:3:0:0:
153,102,389198,1,4,2:3:0:0:
225,220,389359,6,0,P|298:279|391:255,1,173.999995231628,4|0,1:0|2:0,0:0:0:0:
400,249,389843,1,4,2:3:0:0:
451,189,390004,1,2,1:3:0:0:
415,125,390166,1,8,2:3:0:0:
373,131,390327,1,8,2:3:0:0:
358,156,390488,1,8,2:3:0:0:
372,204,390649,1,8,2:3:0:0:
401,270,390811,5,4,2:3:0:0:
395,313,390972,1,4,2:3:0:0:
377,341,391133,1,4,2:3:0:0:
352,351,391294,6,0,P|266:315|177:333,1,173.999995231629,2|0,2:3|2:0,0:0:0:0:
123,364,392246,2,0,P|156:282|135:191,1,173.999995231629,2|0,2:0|2:0,0:0:0:0:
97,138,393198,2,0,P|73:67|96:-3,1,144.999996026357,2|0,2:0|2:0,0:0:0:0:
178,0,394158,2,0,P|202:71|179:141,1,144.999996026357,2|0,2:0|2:0,0:0:0:0:
141,204,395125,6,0,P|193:184|259:200,1,115.999996821086,2|0,2:0|2:0,0:0:0:0:
328,240,396093,2,0,P|357:256|445:248,1,115.999996821086,2|0,2:0|2:0,0:0:0:0:
488,183,397076,2,0,L|480:90,1,86.9999976158142,0|0,2:0|2:0,0:0:0:0:
468,13,398060,2,0,P|423:6|414:6,1,52.1999969764711,0|0,2:0|2:0,0:0:0:0:
355,49,398780,6,0,P|332:51|304:47,1,28.9999992052714
207,31,399040,5,2,2:0:0:0:
256,192,399105,12,0,403780,2:0:0:0:
