osu file format v14

[General]
AudioFilename: audio.mp3
AudioLeadIn: 0
PreviewTime: 221265
Countdown: 0
SampleSet: Soft
StackLeniency: 0.8
Mode: 0
LetterboxInBreaks: 0
WidescreenStoryboard: 0

[Editor]
Bookmarks: 35543,58400,78400,104114,155543,178400,189829,204114,221972,246972,272686,293400,324829,338400
DistanceSpacing: 1.9
BeatDivisor: 4
GridSize: 8
TimelineZoom: 1

[Metadata]
Title:Nandemo Nai ya (movie ver.)
TitleUnicode:なんでもないや (movie ver.)
Artist:RADWIMPS
ArtistUnicode:RADWIMPS
Creator:Lilyanna
Version:Your Song
Source:君の名は。
Tags:Kimi no na wa your name Yojiro Noda Ending Theme Love
BeatmapID:1092402
BeatmapSetID:514204

[Difficulty]
HPDrainRate:5
CircleSize:4.2
OverallDifficulty:6
ApproachRate:8
SliderMultiplier:2
SliderTickRate:1

[Events]
//Background and Video events
0,0,"1366x768.jpg",0,0
//Break Periods
2,247694,256230
//Storyboard Layer 0 (Background)
//Storyboard Layer 1 (Fail)
//Storyboard Layer 2 (Pass)
//Storyboard Layer 3 (Foreground)
//Storyboard Sound Samples

[TimingPoints]
24123,714.285714285714,4,2,1,30,1,0
84122,-100,4,2,1,35,0,0
104122,-133.333333333333,4,2,1,30,0,0
124837,-133.333333333333,4,2,1,20,0,0
125551,-133.333333333333,4,2,1,10,0,0
126980,-100,4,2,1,20,0,0
204122,-100,4,2,1,35,0,0
218408,-100,4,2,1,35,0,0
221265,-100,4,2,1,42,0,1
244122,-100,4,2,1,50,0,1
246980,-100,4,2,1,30,0,0
256980,-133.333333333333,4,2,1,30,0,0
269837,-100,4,2,1,30,0,0
272694,-100,4,2,1,30,0,0
291265,-100,4,2,1,20,0,0
291980,-100,4,2,1,10,0,0
293408,714.285714285714,4,2,1,50,1,1
293408,-100,4,2,1,50,0,1
324836,-133.333333333333,4,2,1,20,0,0
333408,-133.333333333333,4,2,1,5,0,0

[Colours]
Combo1 : 248,120,123
Combo2 : 14,147,218
Combo3 : 226,151,101
Combo4 : 158,194,248

[HitObjects]
207,111,24123,6,0,P|195:166|203:195,2,50,10|10|0,0:0|3:2|0:0,0:0:0:0:
281,155,24658,1,8,0:0:0:0:
263,239,24837,2,0,P|238:268|218:279,1,50,2|2,1:2|3:2,0:0:0:0:
146,249,25194,1,2,3:2:0:0:
88,88,25551,2,0,B|154:72|154:72|171:45,1,100,2|2,0:2|3:2,0:0:0:0:
341,45,26265,2,0,B|358:72|358:72|424:88,1,100,2|2,0:2|3:2,0:0:0:0:
273,167,26980,6,0,P|281:221|258:264,1,100,2|0,0:0|0:0,0:0:0:0:
200,206,27515,1,2,0:0:0:0:
185,289,27694,1,2,0:0:0:0:
347,337,28051,2,0,P|389:289|391:278,1,50,2|2,0:0|3:2,0:0:0:0:
423,228,28408,1,2,0:0:0:0:
333,83,28765,1,2,0:0:0:0:
254,231,29123,1,2,0:0:0:0:
211,304,29301,1,2,3:2:0:0:
168,230,29480,1,2,0:0:0:0:
58,99,29837,6,0,L|64:49,2,50,8|10|0,0:0|0:0|0:0,0:0:0:0:
27,179,30373,1,8,0:0:0:0:
52,259,30551,2,0,L|64:322,1,50,2|2,1:2|3:2,0:0:0:0:
136,347,30908,1,2,0:0:0:0:
298,296,31265,2,0,B|350:271|350:271|412:283,1,100,2|2,0:0|3:2,0:0:0:0:
390,108,31980,2,0,B|348:116|348:116|296:91,1,100,2|2,0:0|3:2,0:0:0:0:
127,33,32694,6,0,P|82:58|6:62,1,100,2|2,0:0|0:0,0:0:0:0:
25,150,33230,1,2,0:0:0:0:
34,234,33408,2,0,P|83:241|126:266,1,100,2|2,0:0|0:0,0:0:0:0:
167,100,34123,1,2,0:0:0:0:
294,213,34480,2,0,P|315:257|316:273,1,50,2|2,0:0|3:2,0:0:0:0:
398,238,34837,2,0,P|397:286|391:301,1,50,2|2,0:0|3:2,0:0:0:0:
332,343,35194,1,2,3:2:0:0:
276,182,35551,6,0,B|234:155|238:92,1,100,10|2,0:0|0:0,0:0:0:0:
178,34,36087,1,10,0:2:0:0:
121,97,36265,2,0,B|124:157|82:184,1,100,10|2,0:0|3:2,0:0:0:0:
30,251,36801,1,0,0:0:0:0:
113,276,36980,2,0,P|162:261|221:282,1,100,2|2,0:0|3:2,0:0:0:0:
256,344,37515,2,0,P|205:361|158:346,1,100,2|2,0:0|3:0,0:0:0:0:
207,272,38051,2,0,P|254:256|276:258,1,50,2|0,0:0|0:0,0:0:0:0:
337,239,38408,6,0,P|338:263|334:288,2,50,2|0|0,0:0|0:0|0:0,0:0:0:0:
297,163,38944,1,2,0:2:0:0:
358,104,39123,2,0,P|338:58|300:27,1,100,2|2,3:2|0:0,0:0:0:0:
214,29,39658,1,0,0:0:0:0:
129,41,39837,2,0,P|109:86|71:117,1,100,2|2,0:0|3:2,0:0:0:0:
36,284,40551,1,2,0:0:0:0:
36,199,40730,1,2,3:2:0:0:
106,246,40908,1,2,0:0:0:0:
234,358,41265,6,0,P|287:346|321:313,1,100,8|0,0:0|0:0,0:0:0:0:
318,230,41801,1,10,0:0:0:0:
238,259,41980,1,10,0:0:0:0:
311,105,42337,2,0,P|259:115|190:97,1,100,2|2,0:0|0:0,0:0:0:0:
122,251,43051,1,2,0:0:0:0:
39,224,43230,1,2,0:0:0:0:
35,138,43409,2,0,P|92:99|135:102,1,100,2|2,0:2|0:0,0:0:0:0:
203,121,43944,1,0,0:0:0:0:
255,52,44123,6,0,P|315:65|371:49,1,100,2|2,0:0|0:0,0:0:0:0:
431,27,44658,1,2,0:0:0:0:
413,110,44837,2,0,P|393:155|393:205,1,100,2|2,0:0|3:2,0:0:0:0:
478,205,45373,1,0,0:0:0:0:
430,279,45551,1,2,0:2:0:0:
430,279,45908,2,0,P|378:286|354:281,1,50,2|2,0:0|3:2,0:0:0:0:
349,365,46265,2,0,P|324:358|299:357,2,50,2|2|2,0:0|3:2|0:0,0:0:0:0:
351,195,46980,6,0,P|403:189|441:152,1,100,10|2,0:0|0:0,0:0:0:0:
369,114,47515,1,10,0:0:0:0:
351,195,47694,2,0,P|355:244|384:283,1,100,10|2,0:0|0:0,0:0:0:0:
434,214,48230,1,0,0:0:0:0:
351,195,48408,2,0,P|285:221|262:266,1,100,2|2,0:0|0:0,0:0:0:0:
210,304,48944,1,2,0:0:0:0:
133,341,49123,2,0,P|124:291|145:247,1,100,2|2,0:0|0:0,0:0:0:0:
27,124,49837,6,0,L|66:79,1,50,2|0,0:0|0:0,0:0:0:0:
109,155,50194,2,0,L|148:110,1,50,2|2,0:0|0:0,0:0:0:0:
213,162,50551,2,0,P|251:185|307:182,1,100,2|2,0:0|0:2,0:0:0:0:
276,103,51087,1,0,0:0:0:0:
341,43,51265,2,0,P|299:20|226:29,1,100,2|2,0:0|0:2,0:0:0:0:
167,47,51801,1,2,3:2:0:0:
88,79,51980,1,2,0:0:0:0:
123,155,52158,1,2,3:2:0:0:
203,127,52337,1,2,0:0:0:0:
248,290,52694,6,0,P|261:228|292:197,1,100,10|2,0:0|0:0,0:0:0:0:
332,275,53230,1,10,0:0:0:0:
415,292,53408,2,0,P|399:224|367:199,1,100,10|2,0:0|0:0,0:0:0:0:
329,136,53944,1,0,0:0:0:0:
273,71,54122,2,0,P|216:81|164:62,1,100,2|2,0:0|0:0,0:0:0:0:
97,37,54658,1,2,0:0:0:0:
94,124,54837,2,0,P|104:181|85:233,1,100,2|2,0:0|0:0,0:0:0:0:
49,294,55372,1,2,0:0:0:0:
134,296,55551,5,2,0:0:0:0:
292,223,55908,2,0,L|407:211,1,100,2|2,0:0|3:2,0:0:0:0:
374,43,56622,2,0,L|274:52,1,100,2|2,0:0|0:2,0:0:0:0:
108,45,57337,1,2,0:0:0:0:
108,45,57515,1,2,3:2:0:0:
47,105,57694,1,2,0:0:0:0:
88,179,57872,1,2,0:0:0:0:
46,255,58051,1,2,0:0:0:0:
46,255,58408,6,0,P|104:268|155:251,1,100,8|0,0:0|0:0,0:0:0:0:
208,204,58944,1,10,0:0:0:0:
275,255,59122,2,0,P|323:265|371:251,1,100,10|0,0:0|0:0,0:0:0:0:
488,125,59837,1,2,0:0:0:0:
342,36,60194,1,2,0:0:0:0:
415,78,60372,1,2,3:2:0:0:
488,125,60551,2,0,P|485:189|399:234,1,150,2|2,0:0|3:0,0:0:0:0:
410,152,61265,6,0,P|364:169|339:211,1,100,10|2,0:0|0:0,0:0:0:0:
339,296,61801,2,0,P|282:274|259:229,1,100,10|0,0:0|0:0,0:0:0:0:
234,162,62337,1,0,0:0:0:0:
234,162,62694,2,0,P|170:169|120:157,1,100,2|2,0:0|0:0,0:0:0:0:
61,119,63230,1,2,3:2:0:0:
135,162,63408,2,0,P|142:249|115:276,1,100,2|2,0:0|3:0,0:0:0:0:
84,323,63944,1,2,3:2:0:0:
45,244,64122,6,0,P|92:234|159:284,1,100,10|0,0:0|0:0,0:0:0:0:
198,313,64658,1,10,0:0:0:0:
263,257,64837,2,0,P|307:236|356:245,1,100,10|0,0:0|0:0,0:0:0:0:
465,120,65551,1,2,0:0:0:0:
465,120,65908,1,2,0:0:0:0:
444,202,66087,1,2,3:2:0:0:
427,286,66265,1,2,0:0:0:0:
465,120,66622,1,0,0:0:0:0:
465,120,66980,6,0,L|343:107,1,100,10|2,0:0|3:2,0:0:0:0:
183,140,67694,2,0,L|282:150,1,100,2|2,0:0|3:2,0:0:0:0:
455,217,68408,2,0,L|333:204,1,100,2|2,0:0|3:2,0:0:0:0:
191,160,69122,1,2,0:0:0:0:
361,129,69480,1,2,0:0:0:0:
361,129,69837,6,0,P|380:54|411:34,1,100,10|2,0:0|0:0,0:0:0:0:
440,111,70372,1,10,0:0:0:0:
413,191,70551,2,0,P|350:209|307:191,1,100,10|0,0:0|0:0,0:0:0:0:
214,64,71265,1,2,0:0:0:0:
148,196,71622,1,2,0:0:0:0:
109,272,71801,1,2,3:2:0:0:
59,200,71980,2,0,P|84:132|185:114,1,150,2|0,0:0|3:0,0:0:0:0:
169,22,72694,6,0,P|103:25|59:46,1,100,10|0,0:0|0:0,0:0:0:0:
4,101,73230,1,10,0:0:0:0:
67,165,73408,2,0,P|114:181|163:180,1,100,10|0,0:0|0:0,0:0:0:0:
308,81,74122,1,2,0:0:0:0:
406,219,74480,1,2,0:0:0:0:
357,150,74658,1,2,3:2:0:0:
307,81,74837,2,0,P|379:69|435:116,1,150,2|0,0:0|3:0,0:0:0:0:
357,150,75551,6,0,P|308:167|259:149,1,100,10|2,0:0|0:0,0:0:0:0:
214,83,76087,1,10,0:0:0:0:
161,149,76265,2,0,P|113:163|67:146,1,100,10|2,0:0|0:0,0:0:0:0:
117,76,76801,1,0,0:0:0:0:
67,146,76980,2,0,P|92:193|107:203,1,50,2|0,0:0|0:0,0:0:0:0:
23,245,77337,2,0,P|72:264|90:262,1,50,2|0,0:0|0:0,0:0:0:0:
66,349,77694,2,0,P|118:340|133:328,1,50,2|0,0:0|0:0,0:0:0:0:
192,375,78051,2,0,P|222:330|224:313,1,50,2|2,0:0|0:0,0:0:0:0:
219,249,78408,6,0,P|272:266|307:329,1,100,10|2,0:0|0:0,0:0:0:0:
360,358,78944,1,10,0:0:0:0:
420,298,79122,2,0,P|452:261|500:247,1,100,10|0,0:0|0:0,0:0:0:0:
482,164,79658,1,0,0:0:0:0:
417,108,79837,2,0,P|360:82|309:94,1,100,2|2,3:2|0:0,0:0:0:0:
355,167,80373,1,0,0:0:0:0:
282,211,80551,2,0,P|320:244|372:251,1,100,2|2,3:2|0:0,0:0:0:0:
410,325,81087,1,0,0:0:0:0:
324,339,81265,6,0,P|286:306|234:299,1,100,10|2,3:2|0:0,0:0:0:0:
179,237,81801,1,10,0:0:0:0:
133,165,81980,2,0,P|149:112|203:75,1,100,10|2,0:0|0:0,0:0:0:0:
96,228,82694,2,0,P|81:276|69:292,1,50,2|2,0:0|3:2,0:0:0:0:
166,297,83051,2,0,P|133:335|116:345,1,50,2|2,0:0|3:2,0:0:0:0:
49,350,83408,1,2,0:0:0:0:
24,366,83765,1,2,0:0:0:0:
118,174,84122,6,0,P|133:126|145:110,1,50,4|0,1:1|0:0,0:0:0:0:
47,95,84479,2,0,P|79:56|96:46,1,50
169,56,84837,2,0,P|208:105|207:146,1,100,2|0,0:0|0:0,0:0:0:0:
191,228,85372,1,0,0:0:0:0:
243,301,85551,2,0,P|263:284|278:265,1,50,2|0,0:0|0:0,0:0:0:0:
360,302,85908,2,0,P|365:251|362:231,1,50,2|0,0:0|0:0,0:0:0:0:
368,162,86265,1,10,2:3:0:0:
390,74,86444,1,0,0:0:0:0:
456,135,86622,1,2,0:0:0:0:
467,319,86980,5,10,0:0:0:0:
467,319,87337,2,0,L|473:255,1,50
384,291,87694,2,0,L|378:340,1,50,2|0,0:0|0:0,0:0:0:0:
289,359,88051,1,2,0:0:0:0:
304,270,88230,1,0,0:0:0:0:
221,304,88408,2,0,P|160:316|113:293,1,100,2|2,0:0|0:0,0:0:0:0:
9,165,89122,1,10,0:3:0:0:
28,81,89301,1,0,0:0:0:0:
92,134,89480,1,2,0:0:0:0:
253,54,89837,5,10,0:0:0:0:
253,54,90194,2,0,L|246:117,1,50
240,193,90551,2,0,P|294:180|324:145,1,100,2|0,0:0|0:0,0:0:0:0:
387,85,91087,1,0,0:0:0:0:
380,2,91265,1,2,0:0:0:0:
456,38,91444,1,0,0:0:0:0:
490,120,91622,2,0,L|480:224,1,100,2|10,0:0|0:3,0:0:0:0:
361,354,92337,1,2,0:0:0:0:
361,354,92694,6,0,L|254:365,1,100,10|2,0:0|3:2,0:0:0:0:
100,284,93408,2,0,L|199:273,1,100,2|2,3:2|0:0,0:0:0:0:
240,192,93944,1,0,0:0:0:0:
158,152,94122,2,0,B|94:139|94:139|36:155,1,100,2|2,0:0|0:0,0:0:0:0:
63,239,94658,1,2,0:0:0:0:
72,329,94837,1,6,0:0:0:0:
61,149,95194,1,2,0:0:0:0:
61,149,95551,6,0,P|73:90|59:44,1,100,4|2,1:0|0:0,0:0:0:0:
144,13,96087,1,0,0:0:0:0:
225,50,96265,2,0,P|295:59|349:41,1,100,2|2,0:0|0:0,0:0:0:0:
412,44,96801,1,0,0:0:0:0:
412,44,96980,1,2,0:0:0:0:
369,123,97158,1,2,0:0:0:0:
316,196,97337,1,2,0:0:0:0:
316,196,97694,2,0,P|294:254|288:263,1,50,10|0,0:3|0:0,0:0:0:0:
222,196,98051,2,0,P|175:236|165:242,1,50,2|0,0:0|0:0,0:0:0:0:
97,206,98408,6,0,P|99:264|129:301,1,100,10|2,0:0|0:0,0:0:0:0:
192,355,98944,1,0,0:0:0:0:
284,356,99122,1,2,0:0:0:0:
316,271,99301,1,0,0:0:0:0:
395,227,99480,2,0,P|358:191|298:183,1,100,2|2,0:0|0:0,0:0:0:0:
135,216,100194,1,0,0:0:0:0:
65,167,100372,1,2,0:0:0:0:
154,118,100551,2,0,P|204:91|258:95,1,100,10|0,0:3|0:0,0:0:0:0:
320,142,101087,1,0,0:0:0:0:
326,244,101265,5,10,0:0:0:0:
240,200,101444,1,0,0:0:0:0:
257,311,101622,2,0,P|301:338|361:333,1,100,2|2,0:0|3:2,0:0:0:0:
407,270,102158,1,0,0:0:0:0:
456,194,102337,1,2,0:0:0:0:
404,120,102515,1,0,0:0:0:0:
325,163,102694,2,0,P|318:97|343:52,1,100,2|2,0:0|0:0,0:0:0:0:
412,28,103230,1,0,0:0:0:0:
330,67,103408,2,0,P|248:72|207:54,1,100,10|0,0:3|0:0,0:0:0:0:
153,23,103944,1,0,0:0:0:0:
48,90,104122,6,0,B|46:135|17:175|17:175|43:230|139:197|139:197|86:241|116:285,1,300.000011444092,4|2,1:0|3:0,2:2:0:0:
212,327,105908,2,0,P|257:326|286:304,1,75.0000028610231,2|8,3:2|3:0,0:0:0:0:
318,188,106622,6,0,P|332:108|203:200,1,375.000014305115,2|2,3:2|3:0,0:0:0:0:
98,276,108765,2,0,P|116:318|169:345,1,75.0000028610231,2|8,3:2|3:0,0:0:0:0:
251,276,109480,6,0,B|371:283|426:354|426:354|395:273|415:208|483:226|502:265,1,375.000014305115,2|2,3:2|3:0,0:0:0:0:
457,121,111622,2,0,P|437:69|414:47,1,75.0000028610231,2|8,3:2|3:0,0:0:0:0:
310,112,112337,6,0,B|250:174|80:81|191:-26|345:-31|294:155|211:164,1,375.000014305115,2|2,3:2|3:2,0:0:0:0:
98,180,114480,1,2,0:0:0:0:
89,307,114837,1,2,3:2:0:0:
343,326,115551,6,0,B|418:276|428:150|428:150|382:168|352:232,1,300.000011444092,4|2,1:0|3:0,0:0:0:0:
252,287,117337,2,0,P|199:307|171:303,1,75.0000028610231,2|8,3:2|3:0,0:0:0:0:
132,187,118051,6,0,B|109:235|65:253|65:253|28:211|17:93|137:60|208:131,1,375.000014305115,2|2,3:2|3:0,0:0:0:0:
316,81,120194,2,0,P|368:71|403:78,1,75.0000028610231,2|8,3:2|3:0,0:0:0:0:
430,198,120908,6,0,B|451:256|399:293|399:293|360:239|360:239|290:288|238:225|238:225|305:208,1,375.000014305115,2|2,3:2|3:0,0:0:0:0:
200,126,123051,2,0,P|148:116|113:123,1,75.0000028610231,2|8,3:2|3:0,0:0:0:0:
155,272,123765,1,4,3:1:0:0:
256,192,123944,12,0,126266,3:0:0:0:
28,112,126980,6,0,B|56:84|61:45,2,50,4|2|0,1:2|0:0|0:0,0:0:0:0:
196,84,127694,2,0,P|217:127|282:155,1,100,2|2,0:0|0:0,0:0:0:0:
345,152,128230,2,0,P|313:217|275:236,1,100,8|0,3:0|0:0,0:0:0:0:
224,282,128765,1,2,0:0:0:0:
301,320,128944,2,0,P|352:342|444:315,1,150,2|2,0:0|0:0,0:0:0:0:
359,168,129837,6,0,L|368:240,2,50,2|2|2,1:2|0:0|0:0,0:0:0:0:
283,321,130551,2,0,L|271:221,1,100,2|8,0:0|0:3,0:0:0:0:
195,169,131087,1,2,0:0:0:0:
275,142,131265,2,0,P|330:93|345:58,1,100,2|2,3:2|3:2,0:0:0:0:
195,169,131980,2,0,P|160:147|119:146,1,50,8|2,3:0|3:2,0:0:0:0:
85,91,132337,1,2,3:2:0:0:
18,144,132515,1,2,0:0:0:0:
85,196,132694,6,0,P|94:234|60:307,1,100,2|2,1:2|0:0,0:0:0:0:
37,366,133230,1,0,0:0:0:0:
0,287,133408,2,0,P|-8:239|19:181,1,100,2|2,0:0|0:0,0:0:0:0:
62,125,133944,1,8,3:0:0:0:
141,95,134122,2,0,P|199:87|261:112,1,100,2|2,0:0|0:0,0:0:0:0:
317,128,134658,1,0,0:0:0:0:
317,128,134837,1,0,0:0:0:0:
316,298,135194,1,0,0:0:0:0:
379,357,135372,1,2,0:0:0:0:
403,274,135551,6,0,P|434:202|428:152,1,100,2|0,1:2|0:0,0:0:0:0:
363,133,136087,2,0,P|332:205|338:255,1,100
299,307,136622,1,8,3:0:0:0:
299,307,136801,1,0,0:0:0:0:
212,327,136980,2,0,L|166:305,1,50,2|2,0:0|0:0,0:0:0:0:
90,268,137337,1,2,0:0:0:0:
90,268,137694,2,0,L|76:130,1,100,10|2,3:0|0:0,0:0:0:0:
49,88,138230,1,2,0:0:0:0:
121,43,138408,6,0,P|186:58|240:41,1,100,2|2,1:2|0:0,0:0:0:0:
301,35,138944,1,0,0:0:0:0:
353,102,139122,2,0,P|401:112|453:91,1,100,2|2,0:0|0:0,0:0:0:0:
398,27,139658,1,8,3:0:0:0:
398,27,139837,1,2,3:0:0:0:
246,103,140194,1,2,0:0:0:0:
171,142,140372,2,0,P|162:181|164:214,1,50,2|8,0:0|3:0,0:0:0:0:
223,355,140908,1,2,0:0:0:0:
223,355,141265,6,0,P|272:346|327:356,1,100,2|2,1:2|0:0,0:0:0:0:
404,373,141801,1,0,0:0:0:0:
428,288,141980,2,0,L|438:182,1,100,2|2,0:0|0:0,0:0:0:0:
438,103,142515,1,2,0:0:0:0:
361,64,142694,2,0,P|294:52|250:75,1,100,2|2,0:0|0:0,0:0:0:0:
231,141,143230,2,0,L|175:173,1,50,2|8,0:0|0:0,0:0:0:0:
188,251,143587,2,0,L|231:226,1,50,2|2,0:0|0:0,0:0:0:0:
307,187,143944,1,2,0:0:0:0:
384,152,144122,5,2,1:2:0:0:
384,152,144480,2,0,B|394:201|363:249|363:249|395:256|441:186,1,200
500,248,145372,2,0,P|507:308|489:344,1,100,8|0,0:3|0:0,0:0:0:0:
406,356,145908,1,2,0:0:0:0:
406,356,146265,2,0,P|352:344|305:357,1,100,10|2,0:3|0:0,0:0:0:0:
225,369,146801,1,0,0:0:0:0:
194,289,146980,6,0,P|208:236|193:187,1,100,2|0,1:2|0:0,0:0:0:0:
112,197,147515,2,0,P|98:144|113:95,1,100,2|0,0:0|0:0,0:0:0:0:
167,39,148051,1,8,0:3:0:0:
232,98,148230,2,0,B|284:119|340:100|340:100|310:68,1,150
161,10,149122,1,8,3:0:0:0:
167,39,149480,1,4,0:0:0:0:
236,197,149837,6,0,P|240:246|239:255,1,50,4|2,0:0|0:0,0:0:0:0:
324,236,150194,2,0,P|308:282|304:290,1,50,2|2,0:0|0:0,0:0:0:0:
236,197,150551,2,0,P|232:148|233:139,1,50,2|2,0:0|0:0,0:0:0:0:
148,158,150908,2,0,P|163:111|167:103,1,50,2|2,0:0|0:0,0:0:0:0:
249,24,151265,2,0,P|253:73|252:82,1,50,2|2,0:0|0:0,0:0:0:0:
337,63,151622,2,0,P|321:109|317:117,1,50,2|2,0:0|0:0,0:0:0:0:
281,186,151980,1,2,0:0:0:0:
125,254,152337,2,0,L|84:254,2,25,2|2|2,0:0|0:0|0:0,0:0:0:0:
202,288,152694,6,0,P|238:321|243:328,1,50,2|2,0:0|0:0,0:0:0:0:
293,257,153051,2,0,P|313:301|315:310,1,50,2|2,0:0|0:0,0:0:0:0:
377,359,153408,2,0,L|395:393,2,25,2|2|2,0:0|0:0|0:0,0:0:0:0:
387,274,153765,2,0,P|391:225|390:216,1,50,2|2,3:0|0:0,0:0:0:0:
463,180,154122,2,0,P|427:147|326:168,1,150,2|0,0:0|0:0,0:0:0:0:
252,187,154837,1,10,0:3:0:0:
189,29,155194,1,4,0:0:0:0:
24,71,155551,6,0,L|33:201,1,100,4|2,0:0|0:0,0:0:0:0:
80,240,156087,1,2,0:0:0:0:
134,304,156265,2,0,P|160:224|146:186,1,100,2|2,0:0|0:0,0:0:0:0:
101,149,156801,2,0,P|75:190|80:240,1,100,8|2,0:3|0:0,0:0:0:0:
134,304,157337,1,2,0:0:0:0:
218,309,157515,2,0,P|234:256|232:233,1,50,2|8,0:0|0:0,0:0:0:0:
280,98,158051,1,2,0:0:0:0:
280,98,158408,6,0,P|277:128|281:149,2,50,2|2|0,1:2|0:0|0:0,0:0:0:0:
350,48,158944,1,2,0:0:0:0:
435,60,159122,2,0,P|446:108|437:157,1,100,2|8,0:0|0:3,0:0:0:0:
429,243,159658,2,0,P|417:291|426:340,1,100,2|2,0:0|0:0,0:0:0:0:
341,342,160194,2,0,P|325:304|325:284,1,50,2|2,0:0|0:0,0:0:0:0:
240,311,160551,2,0,P|240:269|247:251,1,50,8|2,0:3|0:0,0:0:0:0:
253,177,160908,1,2,0:0:0:0:
253,177,161265,6,0,P|176:180|145:204,1,100,2|2,1:2|0:0,0:0:0:0:
96,249,161801,1,2,0:0:0:0:
44,181,161980,2,0,P|34:121|54:76,1,100,2|2,0:0|0:0,0:0:0:0:
117,38,162515,2,0,P|131:85|120:133,1,100,8|2,0:3|0:0,0:0:0:0:
120,218,163051,1,2,0:0:0:0:
204,236,163230,2,0,P|206:211|216:189,1,50,2|8,0:0|0:0,0:0:0:0:
312,44,163765,1,0,0:0:0:0:
385,0,163944,1,2,0:0:0:0:
400,82,164122,6,0,L|434:191,1,100,2|2,1:2|0:0,0:0:0:0:
458,258,164658,1,2,0:0:0:0:
369,256,164837,2,0,P|314:245|249:264,1,100,2|8,0:0|3:0,0:0:0:0:
192,284,165372,1,2,0:0:0:0:
122,332,165551,2,0,P|106:294|106:274,1,50,2|0,0:0|0:0,0:0:0:0:
23,309,165908,2,0,P|23:267|30:249,1,50,2|0,0:0|0:0,0:0:0:0:
60,182,166265,1,2,0:0:0:0:
72,154,166622,1,2,0:0:0:0:
55,71,166801,1,0,0:0:0:0:
55,71,166980,6,0,P|118:61|175:78,1,100,2|2,1:2|0:0,0:0:0:0:
240,83,167515,1,2,0:0:0:0:
328,96,167694,2,0,P|377:103|425:93,2,100,2|2|2,0:0|0:0|0:0,0:0:0:0:
433,236,168765,1,2,0:0:0:0:
433,236,168944,2,0,P|356:234|323:249,1,100,2|2,0:0|0:0,0:0:0:0:
279,314,169480,1,2,0:0:0:0:
279,314,169837,6,0,P|267:265|275:240,1,50,2|0,1:2|0:0,0:0:0:0:
182,278,170194,2,0,P|190:228|207:208,1,50,2|2,0:0|0:0,0:0:0:0:
246,165,170551,2,0,P|189:145|132:164,1,100,2|8,0:0|0:3,0:0:0:0:
98,221,171087,1,2,0:0:0:0:
98,221,171265,2,0,P|83:182|84:162,1,50,2|0,0:0|0:0,0:0:0:0:
0,195,171622,2,0,P|1:153|10:135,1,50,2|0,0:0|0:0,0:0:0:0:
92,49,171980,2,0,P|76:87|76:107,1,50,8|0,3:0|0:0,0:0:0:0:
160,98,172337,2,2,P|160:139|167:157,1,50,2|0,0:0|0:0,0:0:0:0:
227,202,172694,6,0,P|243:161|246:140,1,50,2|2,1:2|0:0,0:0:0:0:
293,85,173051,2,0,P|328:138|320:192,1,100,2|2,0:0|0:0,0:0:0:0:
490,220,173765,1,2,0:0:0:0:
407,198,173944,2,0,P|412:257|450:298,1,100,8|0,3:0|0:0,0:0:0:0:
393,362,174480,1,2,0:0:0:0:
308,351,174658,2,0,P|261:361|194:346,1,100,2|0,0:0|0:0,0:0:0:0:
142,301,175194,2,2,P|126:339|122:368,1,50
39,349,175551,6,0,P|54:287|85:238,1,100,2|2,1:2|0:0,0:0:0:0:
134,198,176087,1,2,0:0:0:0:
191,135,176265,2,0,L|177:82,1,50,2|0,0:0|0:0,0:0:0:0:
150,6,176622,1,8,0:3:0:0:
150,6,176801,1,2,0:0:0:0:
231,29,176980,2,0,P|266:68|271:80,1,50,2|2,0:0|0:0,0:0:0:0:
340,26,177337,2,0,P|354:76|353:89,1,50,2|2,0:0|0:0,0:0:0:0:
439,69,177694,2,0,P|429:120|423:131,1,50,8|2,3:0|0:0,0:0:0:0:
393,201,178051,1,0,0:0:0:0:
393,201,178408,6,0,P|439:249|477:255,1,100,4|2,0:0|0:0,0:0:0:0:
472,169,178944,1,2,0:0:0:0:
393,201,179122,2,0,P|337:236|322:275,1,100,2|2,0:0|0:0,0:0:0:0:
323,265,179837,1,4,0:0:0:0:
185,165,180194,1,2,0:0:0:0:
257,215,180372,1,2,0:0:0:0:
328,268,180551,2,0,P|264:304|188:273,1,150,2|0,0:0|0:0,0:0:0:0:
257,215,181265,6,0,P|262:266|256:340,1,100,2|2,1:2|0:0,0:0:0:0:
185,353,181801,1,2,0:0:0:0:
107,316,181980,2,0,P|104:266|111:216,1,100,2|2,0:0|0:0,0:0:0:0:
227,97,182694,1,4,0:0:0:0:
397,96,183051,1,2,0:0:0:0:
312,96,183230,1,2,0:0:0:0:
227,97,183408,2,0,P|252:154|339:177,1,150,2|0,0:0|0:0,0:0:0:0:
312,96,184122,6,0,P|273:149|247:191,1,100,2|2,1:2|0:0,0:0:0:0:
283,258,184658,1,2,0:0:0:0:
368,263,184837,2,0,P|407:210|433:168,1,100,2|2,0:0|0:0,0:0:0:0:
495,27,185551,1,4,0:0:0:0:
325,31,185908,1,2,0:0:0:0:
410,30,186087,1,2,0:0:0:0:
495,28,186265,2,0,P|467:94|427:116,1,100,8|2,0:3|0:0,0:0:0:0:
366,140,186801,1,2,0:0:0:0:
286,109,186980,6,0,P|249:75|236:27,1,100,2|2,1:2|0:0,0:0:0:0:
151,31,187515,1,8,3:2:0:0:
102,104,187694,2,0,P|140:135|154:182,1,100,2|8,0:0|0:3,0:0:0:0:
68,182,188230,1,0,0:0:0:0:
111,254,188408,2,0,P|194:257|223:233,1,100,4|2,0:0|0:0,0:0:0:0:
255,180,188944,1,0,0:0:0:0:
248,95,189122,2,0,P|311:115|336:155,1,100,4|2,0:0|0:0,0:0:0:0:
382,306,189837,6,0,P|420:276|437:216,1,100,4|2,0:0|0:0,0:0:0:0:
484,158,190372,1,2,0:0:0:0:
432,90,190551,2,0,P|416:43|377:13,1,100,2|2,0:0|0:0,0:0:0:0:
212,56,191265,1,4,0:0:0:0:
55,122,191622,1,2,0:0:0:0:
134,90,191801,1,2,0:0:0:0:
212,56,191980,2,0,P|210:129|144:175,1,150,2|0,0:0|0:0,0:0:0:0:
135,90,192694,6,0,P|203:125|258:124,1,100,2|2,0:0|0:0,0:0:0:0:
296,63,193230,1,2,0:0:0:0:
367,129,193408,2,0,P|415:118|457:91,1,100,2|2,0:0|0:0,0:0:0:0:
457,90,194122,1,4,0:0:0:0:
467,262,194480,1,2,0:0:0:0:
464,176,194658,1,2,0:0:0:0:
457,90,194837,2,0,P|393:129|385:206,1,150,2|0,0:0|0:0,0:0:0:0:
464,176,195551,6,0,P|394:125|376:105,1,100,2|2,0:0|0:0,0:0:0:0:
332,47,196087,1,2,0:0:0:0:
276,110,196265,2,0,P|239:143|197:170,1,100,2|2,0:0|0:0,0:0:0:0:
149,99,196801,1,2,0:0:0:0:
65,81,196980,2,0,P|79:133|92:146,1,50,2|0,0:0|0:0,0:0:0:0:
12,185,197337,2,0,P|56:215|74:217,1,50,2|0,0:0|0:0,0:0:0:0:
24,295,197694,2,0,P|77:298|94:290,1,50,2|0,0:0|0:0,0:0:0:0:
112,375,198051,2,0,P|152:339|158:322,1,50,2|0,0:0|0:0,0:0:0:0:
230,315,198408,6,0,P|290:324|351:310,1,100,4|2,0:0|0:0,0:0:0:0:
388,257,198944,1,0,0:0:0:0:
471,274,199122,2,0,P|446:197|423:179,1,100,2|2,0:0|0:0,0:0:0:0:
348,171,199658,1,0,0:0:0:0:
294,104,199837,2,0,P|342:88|403:102,1,100,4|2,0:0|0:0,0:0:0:0:
348,171,200372,1,0,0:0:0:0:
262,176,200551,2,0,P|225:140|217:89,1,100,2|2,0:0|0:0,0:0:0:0:
294,104,201087,1,0,0:0:0:0:
348,171,201265,6,0,P|373:215|367:267,1,100,2|2,3:0|0:0,0:0:0:0:
325,335,201801,1,0,0:0:0:0:
251,291,201980,2,0,P|205:282|133:298,1,100,6|2,0:0|0:0,0:0:0:0:
68,299,202515,1,0,0:0:0:0:
37,216,202694,2,0,P|38:172|44:148,1,50,4|2,0:0|0:0,0:0:0:0:
45,81,203051,1,2,0:0:0:0:
124,38,203230,1,10,0:3:0:0:
118,131,203408,2,0,L|186:138,1,50,10|2,0:3|0:3,0:3:0:0:
173,32,203765,2,0,L|104:39,1,50,2|2,0:3|0:3,0:3:0:0:
250,136,204122,6,0,P|265:109|275:76,1,50,6|0,0:0|0:0,0:0:0:0:
361,108,204480,2,0,P|361:77|354:43,1,50,2|0,0:0|0:0,0:0:0:0:
439,18,204837,2,0,P|449:78|446:131,1,100,2|0,0:0|0:0,0:0:0:0:
383,179,205372,1,0,0:0:0:0:
297,208,205551,2,0,P|311:233|338:258,1,50,10|0,0:0|0:0,0:0:0:0:
266,317,205909,2,0,P|292:334|325:342,1,50,2|0,0:0|0:0,0:0:0:0:
400,337,206265,1,2,0:0:0:0:
463,278,206444,1,0,0:0:0:0:
393,229,206622,1,2,0:0:0:0:
259,107,206980,5,10,0:0:0:0:
259,107,207337,2,0,L|264:160,1,50
173,157,207694,2,0,P|153:109|98:78,1,100,2|0,0:0|0:0,0:0:0:0:
84,167,208230,1,0,0:0:0:0:
59,253,208408,2,0,P|117:254|141:242,1,50,10|0,0:0|0:0,0:0:0:0:
133,343,208765,2,0,P|182:312|195:289,1,50,2|2,0:0|0:0,0:0:0:0:
243,257,209122,1,2,0:0:0:0:
261,173,209301,1,0,0:0:0:0:
346,179,209479,1,2,0:0:0:0:
435,335,209837,5,10,0:0:0:0:
435,335,210194,2,0,L|439:273,1,50
434,194,210551,2,0,P|373:221|351:274,1,100,2|0,0:0|0:0,0:0:0:0:
342,336,211087,1,0,0:0:0:0:
312,188,211265,2,0,P|349:153|373:141,1,50,10|0,0:0|0:0,0:0:0:0:
433,124,211622,2,0,P|482:136|505:150,1,50,2|4,0:0|0:3,0:0:0:0:
503,47,211980,1,2,0:0:0:0:
323,31,212337,2,0,P|272:54|260:66,1,50,2|0,0:0|0:0,0:0:0:0:
112,76,212694,6,0,P|161:65|223:78,1,100,10|0,0:0|0:0,0:0:0:0:
201,163,213230,1,0,0:0:0:0:
253,236,213408,2,0,P|303:212|315:200,1,50,2|0,0:0|0:0,0:0:0:0:
389,210,213765,2,0,P|413:159|414:142,1,50,2|0,0:0|0:0,0:0:0:0:
441,67,214122,1,10,0:0:0:0:
272,131,214480,2,0,P|223:159|212:172,1,50,2|0,0:0|0:0,0:0:0:0:
161,93,214837,2,0,P|141:145|141:162,1,50,2|0,0:0|0:0,0:0:0:0:
134,229,215194,1,2,0:0:0:0:
50,272,215372,1,2,0:0:0:0:
48,156,215551,5,4,0:0:0:0:
256,192,215730,12,0,218051,0:0:0:0:
361,55,218408,6,0,P|400:111|406:164,1,100,10|10,0:0|3:0,0:0:0:0:
374,220,218944,1,0,0:0:0:0:
302,265,219122,2,0,L|345:299,1,50,2|8,0:0|3:0,0:0:0:0:
270,343,219480,2,0,L|223:306,1,50,2|8,0:0|3:0,0:0:0:0:
185,234,219837,2,0,P|182:212|188:176,1,50,10|2,3:0|0:0,0:0:0:0:
241,120,220194,2,0,P|244:98|238:62,1,50,10|10,0:0|3:0,0:0:0:0:
325,26,220551,1,10,3:0:0:0:
401,83,220730,1,10,3:0:0:0:
367,171,220908,1,10,3:0:0:0:
458,327,221265,5,4,1:1:0:0:
471,354,221622,1,2,3:2:0:0:
326,264,221980,2,0,P|283:270|264:284,1,50,10|0,0:0|0:0,0:0:0:0:
234,194,222337,2,0,P|202:224|195:246,1,50,2|0,0:0|0:0,0:0:0:0:
137,294,222694,2,0,P|109:229|121:189,1,100,10|0,0:0|0:0,0:0:0:0:
161,125,223230,1,0,0:0:0:0:
246,153,223408,2,0,P|270:176|276:195,1,50,10|2,0:0|0:0,0:0:0:0:
316,274,223765,2,0,P|334:305|353:314,1,50,2|2,1:2|0:0,0:0:0:0:
384,228,224122,6,0,P|400:165|384:115,1,100,10|2,1:2|3:2,0:0:0:0:
364,40,224658,1,8,0:1:0:0:
270,60,224837,2,0,P|272:95|277:113,1,50,10|2,0:0|0:0,0:0:0:0:
183,130,225194,2,0,P|199:161|210:176,1,50,2|2,1:2|0:0,0:0:0:0:
132,231,225551,2,0,P|159:253|240:261,1,100,8|2,0:1|0:0,0:0:0:0:
310,299,226087,1,8,0:1:0:0:
224,339,226265,2,0,P|140:324|107:304,1,100,0|2,0:0|1:2,0:0:0:0:
171,141,226980,5,4,1:2:0:0:
359,120,227337,1,2,0:0:0:0:
264,132,227515,1,8,0:1:0:0:
171,141,227694,2,0,P|184:108|194:92,1,50,10|2,0:2|0:0,0:0:0:0:
114,37,228051,2,0,P|145:13|168:5,1,50,2|2,1:2|0:0,0:0:0:0:
252,38,228408,2,0,P|268:69|261:139,1,100,8|2,0:1|3:2,0:0:0:0:
167,172,228944,1,8,0:1:0:0:
92,121,229122,2,0,P|71:150|64:166,1,50,10|2,0:0|0:0,0:0:0:0:
37,250,229479,2,0,P|48:283|57:299,1,50,2|2,1:2|0:0,0:0:0:0:
150,301,229836,6,0,P|207:287|256:307,1,100,10|2,0:0|0:0,0:0:0:0:
343,289,230372,1,8,0:1:0:0:
343,289,230551,2,0,P|330:241|323:231,1,50,10|2,0:0|0:0,0:0:0:0:
403,180,230908,2,0,P|368:144|358:139,1,50,2|2,1:2|0:0,0:0:0:0:
285,98,231265,2,0,P|228:85|172:107,1,100,12|2,3:2|0:0,0:0:0:0:
143,179,231801,1,8,0:1:0:0:
47,105,231980,2,0,L|52:154,2,50,8|8|8,0:1|0:1|1:2,0:0:0:0:
97,31,232515,1,0,0:0:0:0:
213,18,232694,6,0,P|236:39|254:108,1,100,4|0,1:2|0:0,0:0:0:0:
97,222,233408,2,0,P|139:210|152:198,1,50,10|2,0:0|0:0,0:0:0:0:
185,292,233765,2,0,P|214:260|219:243,1,50,2|2,1:2|0:0,0:0:0:0:
279,182,234122,2,0,P|310:237|305:289,1,100,8|2,0:1|3:2,0:0:0:0:
353,352,234658,1,8,0:1:0:0:
437,310,234837,2,0,P|424:259|409:245,1,50,10|2,0:0|0:0,0:0:0:0:
488,189,235194,2,0,P|453:148|434:142,1,50,2|2,1:2|0:0,0:0:0:0:
362,142,235551,6,0,P|378:94|432:58,1,100,2|0,1:2|0:0,0:0:0:0:
504,29,236087,1,8,0:1:0:0:
415,63,236265,2,0,L|358:38,1,50,10|2,0:0|0:0,0:0:0:0:
279,73,236622,2,0,L|222:48,1,50,2|2,1:2|0:0,0:0:0:0:
142,54,236980,2,0,L|132:153,1,100,12|2,0:1|0:0,0:0:0:0:
73,222,237515,1,8,0:1:0:0:
16,292,237694,2,0,P|49:309|135:288,1,100,2|0,0:0|1:0,0:0:0:0:
193,269,238230,1,2,3:2:0:0:
166,157,238408,6,0,L|176:58,1,100,4|2,1:0|3:2,0:0:0:0:
265,40,238944,1,8,0:1:0:0:
354,50,239122,2,0,L|360:110,1,50,10|2,0:0|0:0,0:0:0:0:
449,90,239480,2,0,L|455:150,1,50,2|2,1:2|0:0,0:0:0:0:
419,223,239837,2,0,P|359:221|319:246,1,100,8|2,0:1|3:2,0:0:0:0:
256,299,240372,1,8,0:1:0:0:
181,240,240551,2,0,P|153:217|139:190,1,50,10|2,0:0|0:0,0:0:0:0:
55,238,240908,2,0,P|58:182|68:165,1,50,2|2,1:2|0:0,0:0:0:0:
131,102,241265,5,4,1:1:0:0:
256,192,241444,12,0,243944,3:0:0:0:
256,192,244122,12,4,246980,3:1:0:0:
93,186,256980,5,10,0:0:0:0:
227,186,257337,1,2,0:0:0:0:
227,186,257515,1,8,0:0:0:0:
227,186,257694,2,0,P|239:239|230:278,1,75.0000028610231,2|0,0:0|0:0,0:0:0:0:
306,151,258408,6,0,B|329:109|329:4|329:4|368:101|416:135,1,300.000011444092,4|8,3:2|3:1,0:0:0:0:
367,252,260194,2,0,P|327:299|319:333,1,75.0000028610231,2|2,3:2|3:0,0:0:0:0:
277,189,260908,6,0,B|266:168|279:114|279:114|249:163|200:192|200:192|148:162|120:112|120:112|131:167|118:192,1,375.000014305115,2|8,3:2|3:1,0:0:0:0:
59,295,263051,2,0,P|96:323|109:356,1,75.0000028610231,2|2,3:2|3:0,0:0:0:0:
192,253,263765,1,2,0:0:0:0:
296,325,264122,6,0,B|324:261|426:294|426:294|411:177|459:152,1,300.000011444092,4|8,1:2|3:1,0:0:0:0:
390,44,265908,2,0,P|333:42|293:22,1,75.0000028610231,2|0,3:2|1:0,0:0:0:0:
189,41,266622,1,12,0:1:0:0:
256,192,266801,12,0,269480,0:0:0:0:
65,77,269837,5,10,0:0:0:0:
192,189,270194,1,10,0:3:0:0:
314,71,270551,2,0,P|354:106|411:119,1,100,2|0,0:0|0:0,0:0:0:0:
389,203,271087,1,0,0:0:0:0:
309,231,271265,2,0,L|302:305,2,50,2|0|2,0:0|0:0|0:0,0:0:0:0:
394,62,271980,1,8,0:3:0:0:
321,114,272158,1,8,0:3:0:0:
259,41,272337,1,8,0:3:0:0:
208,127,272515,1,8,0:3:0:0:
91,66,272694,6,0,P|75:114|75:130,1,50,2|0,0:0|0:0,0:0:0:0:
140,167,273051,2,0,P|134:191|124:213,1,50
41,235,273408,2,0,P|74:284|134:299,1,100,2|0,0:0|0:0,0:0:0:0:
193,319,273944,1,0,0:0:0:0:
260,267,274122,2,0,P|274:314|270:337,1,50,2|0,0:0|0:0,0:0:0:0:
354,344,274480,2,0,P|357:319|367:296,1,50
451,280,274837,2,0,P|449:304|442:328,2,50
434,110,275551,5,2,0:0:0:0:
434,110,275908,2,0,L|427:170,1,50
344,142,276265,2,0,P|281:129|232:151,1,100,2|0,0:0|0:0,0:0:0:0:
177,188,276801,1,0,0:0:0:0:
104,234,276980,2,0,P|105:285|114:308,1,50,2|0,0:0|0:0,0:0:0:0:
188,332,277337,2,0,P|191:307|189:283,1,50
106,356,277694,2,0,P|52:338|44:330,2,50
78,188,278408,5,2,0:0:0:0:
78,188,278765,2,0,L|87:249,1,50
158,194,279122,2,0,P|191:151|248:133,1,100,2|0,0:0|0:0,0:0:0:0:
243,218,279658,1,0,0:0:0:0:
304,108,279837,2,0,P|308:132|302:157,1,50,2|0,0:0|0:0,0:0:0:0:
253,39,280194,2,0,P|316:22|361:39,2,100
113,136,281265,5,2,0:0:0:0:
236,258,281622,1,0,0:0:0:0:
235,87,281980,1,0,0:0:0:0:
379,183,282337,2,0,L|384:238,1,50
469,227,282694,2,0,L|456:104,1,100,2|0,0:0|0:0,0:0:0:0:
450,41,283230,1,0,0:0:0:0:
352,92,283408,1,2,0:0:0:0:
170,61,283765,1,2,0:0:0:0:
85,208,284122,5,2,0:0:0:0:
85,208,284480,2,0,L|90:263,1,50,2|0,0:0|0:0,0:0:0:0:
175,254,284837,2,0,L|162:131,1,100,2|0,0:0|0:0,0:0:0:0:
149,71,285372,1,0,0:0:0:0:
233,61,285551,2,0,P|255:109|252:128,1,50,2|0,0:0|0:0,0:0:0:0:
334,73,285908,2,0,P|335:125|325:142,1,50
302,199,286265,2,0,P|366:202|395:184,1,100,2|2,0:0|0:0,0:0:0:0:
441,112,286801,1,0,0:0:0:0:
481,37,286980,5,2,0:0:0:0:
394,184,287337,1,0,0:0:0:0:
441,112,287515,1,0,0:0:0:0:
481,37,287694,2,0,P|430:28|379:55,2,100,2|0|0,0:0|0:0|0:0,0:0:0:0:
477,206,288765,1,0,0:0:0:0:
440,282,288944,1,0,0:0:0:0:
363,244,289122,2,0,P|309:228|253:243,1,100,2|0,0:0|0:0,0:0:0:0:
198,286,289658,1,0,0:0:0:0:
124,328,289837,6,0,P|68:329|25:295,2,100,2|0|0,0:0|0:0|0:0,0:0:0:0:
256,192,290730,12,0,292694,0:0:0:0:
362,68,293408,6,0,L|367:124,1,50,4|2,1:0|0:0,0:0:0:0:
272,101,293765,2,0,L|277:157,1,50,2|0,0:0|0:0,0:0:0:0:
190,192,294122,2,0,P|138:189|81:217,1,100,10|0,0:0|1:0,0:0:0:0:
34,280,294658,1,2,0:0:0:0:
126,307,294837,2,0,P|96:350|73:357,1,50,12|0,0:1|0:0,0:0:0:0:
7,320,295194,2,0,P|37:277|60:270,1,50,2|0,0:0|0:0,0:0:0:0:
94,206,295551,1,10,0:0:0:0:
147,125,295730,1,2,0:0:0:0:
70,68,295908,1,2,1:2:0:0:
262,27,296265,5,2,1:2:0:0:
262,27,296622,2,0,L|262:93,1,50,2|2,0:0|0:0,0:0:0:0:
347,119,296980,2,0,P|403:112|458:140,1,100,10|0,0:0|1:0,0:0:0:0:
389,203,297515,1,2,0:0:0:0:
301,240,297694,2,0,P|325:275|347:287,1,50,12|0,0:1|0:0,0:0:0:0:
266,348,298051,2,0,P|310:361|330:358,1,50,2|0,0:0|0:0,0:0:0:0:
404,334,298408,1,10,0:0:0:0:
449,250,298587,1,2,0:0:0:0:
487,336,298765,1,2,1:2:0:0:
484,146,299122,5,2,1:2:0:0:
323,44,299480,1,2,0:0:0:0:
257,113,299658,1,2,0:0:0:0:
197,39,299837,2,0,P|138:28|85:46,1,100,2|0,0:0|1:0,0:0:0:0:
25,101,300372,1,2,0:0:0:0:
97,165,300551,2,0,P|145:167|172:154,1,50,12|2,0:1|0:0,0:0:0:0:
242,165,300908,2,0,P|229:212|194:250,1,100,2|2,0:0|3:2,0:0:0:0:
386,217,301622,1,2,1:2:0:0:
386,217,301980,6,0,B|372:265|372:265|317:317,1,100,2|2,1:2|0:0,0:0:0:0:
152,349,302694,1,2,3:2:0:0:
152,349,303051,1,2,1:2:0:0:
44,192,303408,2,0,B|28:162|28:162|48:119|27:77,1,100,12|2,0:1|0:0,0:0:0:0:
217,44,304122,2,0,B|233:74|233:74|213:117|234:159,1,100,12|2,0:1|0:0,0:0:0:0:
207,332,304837,6,0,P|245:305|259:282,1,50,12|2,0:0|0:0,0:0:0:0:
322,359,305194,2,0,P|344:318|346:291,1,50,2|0,0:0|0:0,0:0:0:0:
388,230,305551,2,0,P|364:223|340:223,2,50,10|2|2,0:0|0:0|1:2,0:0:0:0:
457,303,306087,1,2,0:0:0:0:
457,303,306265,2,0,L|465:234,1,50,12|0,0:1|0:0,0:0:0:0:
433,162,306622,2,0,L|441:93,1,50,2|0,0:0|0:0,0:0:0:0:
343,123,306980,2,0,P|319:145|308:161,2,50,10|2|0,0:0|0:0|1:2,0:0:0:0:
396,44,307515,1,2,0:0:0:0:
303,20,307694,6,0,P|244:14|179:38,1,100,2|2,1:2|3:2,0:0:0:0:
103,184,308408,2,0,P|61:162|48:146,2,50,10|2|2,0:0|0:0|1:2,0:0:0:0:
197,207,308944,1,2,0:0:0:0:
289,185,309122,2,0,P|338:198|353:211,1,50,12|0,0:1|0:0,0:0:0:0:
429,175,309480,2,0,P|462:213|468:231,1,50,2|0,0:0|0:0,0:0:0:0:
475,305,309837,1,10,0:0:0:0:
393,256,310015,1,2,0:0:0:0:
343,337,310194,1,2,1:2:0:0:
200,212,310551,5,2,1:2:0:0:
200,212,310908,2,0,P|193:251|203:291,1,50,2|8,0:0|0:1,0:0:0:0:
133,334,311265,2,0,P|76:324|18:345,1,100,10|0,0:0|1:2,0:0:0:0:
6,244,311801,1,2,0:0:0:0:
39,153,311980,2,0,P|87:163|135:153,1,100,12|0,0:1|0:0,0:0:0:0:
219,108,312515,1,8,0:1:0:0:
303,61,312694,1,10,0:2:0:0:
303,61,313051,2,0,P|322:116|318:137,1,50,2|2,1:2|0:0,0:0:0:0:
402,159,313408,6,0,P|367:199|346:208,1,50,12|2,0:0|0:0,0:0:0:0:
388,290,313765,2,0,P|335:294|312:288,1,50,2|8,0:0|0:1,0:0:0:0:
255,255,314122,1,2,0:0:0:0:
255,255,314301,1,2,1:2:0:0:
164,298,314480,1,12,0:0:0:0:
164,298,314658,1,2,0:0:0:0:
95,224,314837,2,0,L|54:257,2,50,12|8|0,0:1|0:1|1:0,0:0:0:0:
51,134,315372,1,2,0:0:0:0:
100,46,315551,2,0,B|148:35|148:35|218:53,1,100,12|2,0:1|1:2,0:0:0:0:
390,62,316265,5,12,0:0:0:0:
390,62,316622,2,0,L|391:119,1,50,2|8,0:0|0:1,0:0:0:0:
476,156,316980,2,0,P|491:203|475:258,1,100,10|2,0:0|1:2,0:0:0:0:
389,282,317515,1,2,0:0:0:0:
314,222,317694,1,12,0:1:0:0:
223,251,317872,1,2,0:0:0:0:
142,211,318051,1,2,0:0:0:0:
142,211,318408,2,0,P|100:180|92:169,1,50,10|2,0:0|0:0,0:0:0:0:
14,220,318765,2,0,P|1:169|2:155,1,50,2|0,1:2|0:0,0:0:0:0:
56,94,319122,6,0,P|116:85|172:122,1,100,14|2,0:2|0:0,0:0:0:0:
213,163,319658,1,0,0:0:0:0:
277,100,319837,1,0,0:0:0:0:
213,36,320015,1,0,0:0:0:0:
150,100,320194,1,0,0:0:0:0:
335,184,320551,1,12,0:1:0:0:
335,184,320908,2,0,P|372:177|402:150,1,50,2|8,0:0|0:1,0:0:0:0:
471,138,321265,2,0,P|477:171|448:240,1,100,10|0,0:0|1:0,0:0:0:0:
374,283,321801,1,2,0:0:0:0:
327,367,321980,5,14,0:0:0:0:
250,304,322158,1,2,0:0:0:0:
232,210,322337,2,0,P|183:197|121:220,1,100,0|2,0:0|3:2,0:0:0:0:
44,231,322872,2,0,L|21:183,1,50,0|4,1:0|0:0,0:0:0:0:
24,89,323230,1,2,0:0:0:0:
117,104,323408,2,0,L|168:119,1,50,12|2,0:2|0:0,0:0:0:0:
257,132,323765,2,0,L|285:194,1,50,8|0,0:1|1:0,0:0:0:0:
319,251,324122,5,2,0:0:0:0:
384,72,324480,1,2,1:2:0:0:
480,67,324658,1,2,1:2:0:0:
442,157,324837,6,0,B|466:218|459:284|459:284|388:268|342:222|342:222|316:251|312:271,1,300.000011444092,4|0,3:1|2:0,0:0:0:0:
280,129,326622,1,2,3:2:0:0:
107,211,327158,1,2,0:2:0:0:
178,206,327337,6,0,P|139:275|150:154,1,375.000014305115,2|2,3:2|3:0,0:0:0:0:
258,109,329480,2,0,P|312:90|357:108,1,75.0000028610231,2|2,3:2|3:0,0:0:0:0:
426,175,330194,6,0,B|342:174|324:355|465:355|465:355|409:273,1,375.000014305115,2|2,3:2|3:0,0:0:0:0:
282,273,332337,5,2,3:2:0:0:
172,207,332694,1,2,0:0:0:0:
239,98,333051,1,2,3:2:0:0:
256,192,333230,12,0,338408,3:0:0:0:
