osu file format v14

[General]
AudioFilename: audio.mp3
AudioLeadIn: 0
PreviewTime: 19605
Countdown: 0
SampleSet: Soft
StackLeniency: 0.7
Mode: 0
LetterboxInBreaks: 0
WidescreenStoryboard: 0

[Editor]
Bookmarks: 6165,84302,134204,138571
DistanceSpacing: 1.4
BeatDivisor: 4
GridSize: 4
TimelineZoom: 4.599998

[Metadata]
Title:Katawaredoki
TitleUnicode:かたわれ時
Artist:RADWIMPS
ArtistUnicode:RADWIMPS
Creator:Monstrata
Version:Twilight
Source:君の名は。
Tags:mitsuha taki your name irohas mugiwarasekai haruto haruto_aizawa kimo no na wa
BeatmapID:1285526
BeatmapSetID:608723

[Difficulty]
HPDrainRate:5
CircleSize:4
OverallDifficulty:6
ApproachRate:8
SliderMultiplier:1
SliderTickRate:1

[Events]
//Background and Video events
0,0,"737484.jpg",0,0
//Break Periods
//Storyboard Layer 0 (Background)
//Storyboard Layer 1 (Fail)
//Storyboard Layer 2 (Pass)
//Storyboard Layer 3 (Foreground)
//Storyboard Sound Samples

[TimingPoints]
752,434.782608695652,4,2,70,10,1,0
752,-133.333333333333,4,2,70,10,0,0
969,-133.333333333333,4,2,70,15,0,0
1186,-133.333333333333,4,2,70,20,0,0
1404,-133.333333333333,4,2,70,25,0,0
1621,-133.333333333333,4,2,70,30,0,0
1838,-133.333333333333,4,2,70,35,0,0
2056,-133.333333333333,4,2,80,5,0,0
2491,459.770114942529,4,2,77,10,1,0
2491,-133.333333333333,4,2,77,10,0,0
2720,-133.333333333333,4,2,77,15,0,0
2950,-133.333333333333,4,2,77,20,0,0
3180,-133.333333333333,4,2,77,25,0,0
3410,-133.333333333333,4,2,77,30,0,0
3640,-133.333333333333,4,2,77,35,0,0
3870,-133.333333333333,4,2,77,5,0,0
4330,458.891013384321,4,2,78,15,1,0
4330,-133.333333333333,4,2,78,15,0,0
4559,-133.333333333333,4,2,78,20,0,0
4788,-133.333333333333,4,2,78,25,0,0
5018,-133.333333333333,4,2,78,30,0,0
5247,-133.333333333333,4,2,78,35,0,0
5477,-133.333333333333,4,2,78,40,0,0
5706,-133.333333333333,4,2,78,5,0,0
6165,478.08764940239,4,2,60,15,1,0
6165,-133.333333333333,4,2,60,15,0,0
6404,-133.333333333333,4,2,60,20,0,0
6643,-133.333333333333,4,2,60,25,0,0
6882,-133.333333333333,4,2,60,30,0,0
7121,-133.333333333333,4,2,60,35,0,0
7360,-133.333333333333,4,2,60,40,0,0
7599,-133.333333333333,4,2,60,5,0,0
8077,568.720379146919,4,2,71,15,1,0
8077,-133.333333333333,4,2,71,15,0,0
8361,-133.333333333333,4,2,71,20,0,0
8645,-133.333333333333,4,2,71,25,0,0
8930,-133.333333333333,4,2,71,30,0,0
9214,-133.333333333333,4,2,71,35,0,0
9498,-133.333333333333,4,2,71,40,0,0
9783,-133.333333333333,4,2,81,5,0,0
10351,539.325842696629,4,2,79,15,1,0
10351,-133.333333333333,4,2,79,15,0,0
10620,-133.333333333333,4,2,79,20,0,0
10890,-133.333333333333,4,2,79,25,0,0
11159,-133.333333333333,4,2,79,30,0,0
11429,-133.333333333333,4,2,79,35,0,0
11699,-133.333333333333,4,2,79,40,0,0
11834,-133.333333333333,4,2,79,30,0,0
12103,-133.333333333333,4,2,79,20,0,0
12373,-133.333333333333,4,2,79,10,0,0
12508,432.276657060519,4,2,79,5,1,0
13804,493.725570870191,4,2,1,10,1,0
18741,-100,4,2,1,5,0,0
19728,426.74253200569,4,2,99,30,1,0
20581,468.75,4,2,20,30,1,0
21284,523.1037489102,4,2,20,30,1,0
21545,462.249614791988,4,2,20,30,1,0
22007,496.688741721854,4,2,18,30,1,0
22503,476.190476190476,4,2,17,30,1,0
22979,458.015267175573,4,2,17,30,1,0
23208,-100,4,2,16,30,0,0
23437,461.538461538462,4,2,98,30,1,0
25283,-100,4,2,13,30,0,0
26653,476.190476190476,4,2,16,30,1,0
27129,447.093889716841,4,2,99,30,1,0
28023,433.526011560694,4,2,20,30,1,0
28673,535.714285714286,4,2,16,30,1,0
28940,453.857791225416,4,2,23,30,1,0
29393,482.703137570394,4,2,22,30,1,0
29634,-100,4,2,21,30,0,0
29875,458.015267175573,4,2,20,30,1,0
30333,500,4,2,20,30,1,0
30583,489.396411092985,4,2,21,30,1,0
30827,464.756003098373,4,2,55,30,1,0
31756,487.80487804878,4,2,18,30,1,0
32081,-100,4,2,19,30,0,0
32406,478.850758180367,4,2,18,30,1,0
32725,433.526011560694,4,2,17,30,1,0
34025,488.997555012225,4,2,16,30,1,0
34513,451.127819548872,4,2,99,30,1,0
35415,433.212996389892,4,2,20,30,1,0
36064,566.037735849057,4,2,20,30,1,0
36347,487.80487804878,4,2,20,30,1,0
36834,454.545454545455,4,2,18,30,1,0
37288,476.190476190476,4,2,17,30,1,0
37764,470.588235294118,4,2,17,30,1,0
37999,-100,4,2,16,30,0,0
38234,450.112528132033,4,2,98,30,1,0
40034,487.80487804878,4,2,6,30,1,0
40521,458.015267175573,4,2,13,30,1,0
40979,476.190476190476,4,2,16,30,1,0
41217,421.052631578947,4,2,17,30,1,0
41427,497.92531120332,4,2,18,30,1,0
41675,451.127819548872,4,2,17,30,1,0
41900,461.538461538462,4,2,7,30,1,0
42130,-100,4,2,16,30,0,0
42592,-100,4,2,14,30,0,0
42823,444.444444444444,4,2,16,30,1,0
43267,530.973451327434,4,2,16,30,1,0
43532,480,4,2,16,30,1,0
43772,441.176470588235,4,2,5,30,1,0
44213,431.654676258993,4,2,12,30,1,0
44644,458.015267175573,4,2,16,30,1,0
44873,-100,4,2,17,30,0,0
45102,-100,4,2,18,30,0,0
45331,555.555555555556,4,2,17,30,1,0
45608,474.308300395257,4,2,9,30,1,0
45845,-100,4,2,13,30,0,0
46082,431.654676258993,4,2,16,30,1,0
46513,451.127819548872,4,2,20,30,1,0
46964,500,4,2,16,30,1,0
47214,454.545454545455,4,2,17,30,1,0
47441,-100,4,2,6,30,0,0
47895,451.127819548872,4,2,13,30,1,0
48346,461.538461538462,4,2,16,30,1,0
48576,-100,4,2,17,30,0,0
48807,-100,4,2,18,30,0,0
49038,-100,4,2,17,30,0,0
49269,495.867768595041,4,2,7,30,1,0
49516,469.483568075117,4,2,16,30,1,0
49750,444.444444444444,4,2,16,30,1,0
49972,495.867768595041,4,2,14,30,1,0
50219,431.654676258993,4,2,16,30,1,0
50650,500,4,2,16,30,1,0
50900,444.444444444444,4,2,16,30,1,0
51122,458.015267175573,4,2,5,30,1,0
51580,447.761194029851,4,2,12,30,1,0
52027,472.44094488189,4,2,16,30,1,0
52263,-100,4,2,17,30,0,0
52499,483.870967741935,4,2,18,30,1,0
52740,480,4,2,17,30,1,0
52980,451.127819548872,4,2,9,30,1,0
53431,468.75,4,2,13,30,1,0
53899,437.956204379562,4,2,20,30,1,0
54336,472.44094488189,4,2,16,30,1,0
54572,540.540540540541,4,2,17,30,1,0
54842,452.830188679245,4,2,6,30,1,0
55974,431.654676258993,4,2,16,30,1,0
56189,480,4,2,17,30,1,0
56429,504.201680672269,4,2,16,30,1,0
56681,453.857791225416,4,2,7,30,1,0
56794,-100,4,2,7,15,0,0
58042,455.235204855842,4,2,97,30,1,0
58155,-100,4,2,97,15,0,0
59862,464.756003098373,4,2,18,30,1,0
59978,-100,4,2,18,15,0,0
62185,470.588235294118,4,2,23,30,1,0
64067,454.545454545455,4,2,16,30,1,0
64180,-100,4,2,16,15,0,0
65430,451.127819548872,4,2,96,30,1,0
65542,-100,4,2,96,15,0,0
67234,463.320463320463,4,2,18,40,1,0
67349,-100,4,2,18,15,0,0
71403,461.538461538462,4,2,95,40,1,0
71864,487.80487804878,4,2,14,40,1,0
72351,451.127819548872,4,2,20,40,1,0
73027,550.45871559633,4,2,20,40,1,0
73302,425.531914893617,4,2,93,40,1,0
73727,476.190476190476,4,2,18,40,1,0
74203,451.127819548872,4,2,17,40,1,0
74654,444.444444444444,4,2,17,40,1,0
74876,480,4,2,16,40,1,0
75116,465.116279069767,4,2,98,40,1,0
76976,452.830188679245,4,2,6,40,1,0
78334,447.761194029851,4,2,16,40,1,0
78781,470.588235294118,4,2,95,40,1,0
79722,451.127819548872,4,2,20,40,1,0
80398,495.867768595041,4,2,16,40,1,0
80645,447.761194029851,4,2,94,40,1,0
81092,451.127819548872,4,2,22,40,1,0
81317,512.820512820513,4,2,21,40,1,0
81573,451.127819548872,4,2,20,40,1,0
82024,480,4,2,20,40,1,0
82264,500,4,2,21,40,1,0
82514,422.535211267606,4,2,92,40,1,0
83147,500,4,2,13,40,1,0
83397,452.830188679245,4,2,18,40,1,0
83698,-100,4,2,19,40,0,0
84000,-100,4,2,18,40,0,0
84302,487.80487804878,4,2,60,40,1,0
85277,434.782608695652,4,2,1,40,1,0
85711,472.44094488189,4,2,16,40,1,0
86183,461.538461538462,4,2,95,40,1,0
87106,437.956204379562,4,2,20,40,1,0
87762,521.739130434783,4,2,20,40,1,0
88022,472.44094488189,4,2,93,40,1,0
88494,454.545454545455,4,2,18,40,1,0
88948,461.538461538462,4,2,17,40,1,0
89409,480,4,2,17,40,1,0
89649,517.241379310345,4,2,16,40,1,0
89907,461.538461538462,4,2,18,40,1,0
91753,483.870967741935,4,2,6,40,1,0
92478,428.571428571429,4,2,13,40,1,0
92692,465.116279069767,4,2,16,40,1,0
92924,-100,4,2,17,40,0,0
93157,416.666666666667,4,2,18,40,1,0
93365,500,4,2,17,40,1,0
93615,422.535211267606,4,2,7,40,1,0
93826,461.538461538462,4,2,16,40,1,0
94287,-100,4,2,14,40,0,0
94518,444.444444444444,4,2,16,40,1,0
94962,468.75,4,2,16,40,1,0
95430,454.545454545455,4,2,5,40,1,0
95884,422.535211267606,4,2,12,40,1,0
96306,472.44094488189,4,2,16,40,1,0
96542,461.538461538462,4,2,17,40,1,0
96772,472.44094488189,4,2,18,40,1,0
97008,-100,4,2,17,40,0,0
97244,476.190476190476,4,2,9,40,1,0
97482,472.44094488189,4,2,13,40,1,0
97718,463.320463320463,4,2,16,40,1,0
98181,437.956204379562,4,2,20,40,1,0
98618,500,4,2,16,40,1,0
98868,476.190476190476,4,2,17,40,1,0
99106,465.116279069767,4,2,6,40,1,0
99571,463.320463320463,4,2,13,40,1,0
100034,480,4,2,16,40,1,0
100274,-100,4,2,17,40,0,0
100514,425.531914893617,4,2,18,40,1,0
100726,461.538461538462,4,2,17,40,1,0
100956,-100,4,2,7,40,0,0
101187,-100,4,2,16,40,0,0
101649,508.474576271186,4,2,14,40,1,0
101903,437.956204379562,4,2,16,40,1,0
102340,468.75,4,2,16,40,1,0
102808,456.273764258555,4,2,5,40,1,0
103264,-100,4,2,12,40,0,0
103720,476.190476190476,4,2,16,40,1,0
103958,461.538461538462,4,2,17,40,1,0
104188,-100,4,2,18,40,0,0
104419,504.201680672269,4,2,17,40,1,0
104671,441.176470588235,4,2,9,40,1,0
104891,-100,4,2,13,40,0,0
105112,447.761194029851,4,2,16,40,1,0
105559,461.538461538462,4,2,20,40,1,0
106020,468.75,4,2,16,40,1,0
106254,512.820512820513,4,2,17,40,1,0
106510,454.545454545455,4,2,6,40,1,0
106964,461.538461538462,4,2,13,40,1,0
107425,483.870967741935,4,2,36,50,1,0
107666,402.684563758389,4,2,37,50,1,0
107867,472.44094488189,4,2,38,50,1,0
108103,521.739130434783,4,2,37,50,1,0
108363,454.545454545455,4,2,27,50,1,0
108590,-100,4,2,36,50,0,0
108817,451.127819548872,4,2,36,50,1,0
109042,-100,4,2,34,50,0,0
109268,461.538461538462,4,2,36,50,1,0
109268,-76.9230769230769,4,2,36,50,0,0
109729,493.827160493827,4,2,36,50,1,0
110222,431.654676258993,4,2,25,50,1,0
110222,-76.9230769230769,4,2,25,50,0,0
110653,454.545454545455,4,2,32,50,1,0
110653,-76.9230769230769,4,2,32,50,0,0
111107,468.75,4,2,36,50,1,0
111341,-100,4,2,37,50,0,0
111575,468.75,4,2,38,50,1,0
111809,508.474576271186,4,2,37,50,1,0
112063,425.531914893617,4,2,29,50,1,0
112275,472.44094488189,4,2,33,50,1,0
112511,428.571428571429,4,2,36,50,1,0
112511,-76.9230769230769,4,2,36,50,0,0
112939,472.44094488189,4,2,40,50,1,0
112939,-76.9230769230769,4,2,40,50,0,0
113411,487.80487804878,4,2,36,50,1,0
113654,-100,4,2,37,50,0,0
113898,431.654676258993,4,2,26,50,1,0
114329,458.015267175573,4,2,33,50,1,0
114787,458.015267175573,4,2,36,50,1,0
115016,-100,4,2,37,50,0,0
115245,495.867768595041,4,2,38,50,1,0
115492,462.42774566474,4,2,37,50,1,0
115723,480,4,2,27,50,1,0
115723,-76.9230769230769,4,2,27,50,0,0
115963,472.44094488189,4,2,36,50,1,0
116199,431.654676258993,4,2,36,50,1,0
116414,504.201680672269,4,2,34,50,1,0
116666,447.761194029851,4,2,36,50,1,0
116666,-76.9230769230769,4,2,36,50,0,0
117113,480,4,2,36,50,1,0
117353,508.474576271186,4,2,36,50,1,0
117607,405.405405405405,4,2,25,50,1,0
118012,454.545454545455,4,2,32,50,1,0
118466,480,4,2,36,50,1,0
118706,-100,4,2,37,50,0,0
118946,491.803278688525,4,2,38,50,1,0
119191,451.127819548872,4,2,37,50,1,0
119416,476.190476190476,4,2,29,50,1,0
119654,-100,4,2,33,50,0,0
119892,437.956204379562,4,2,36,50,1,0
120329,472.44094488189,4,2,40,50,1,0
120329,-76.9230769230769,4,2,40,50,0,0
120565,483.870967741935,4,2,33,50,1,0
120806,-100,4,2,36,50,0,0
121048,468.75,4,2,37,50,1,0
121282,451.127819548872,4,2,26,50,1,0
121733,472.44094488189,4,2,33,50,1,0
122205,448.765893792072,4,2,36,50,1,0
122429,-100,4,2,37,50,0,0
122653,468.75,4,2,38,50,1,0
122887,468.75,4,2,37,50,1,0
123121,449.438202247191,4,2,61,70,1,1
123121,-58.8235294117647,4,2,61,70,0,1
123345,-58.8235294117647,4,2,36,70,0,1
123570,437.956204379562,4,2,36,70,1,1
123788,487.80487804878,4,2,21,70,1,1
124031,472.44094488189,4,2,23,70,1,1
124267,-100,4,2,20,70,0,1
124503,441.176470588235,4,2,20,70,1,1
124723,500,4,2,21,70,1,1
124973,441.176470588235,4,2,62,70,1,1
125193,-100,4,2,20,70,0,1
125414,461.538461538462,4,2,18,70,1,1
125414,-58.8235294117647,4,2,18,70,0,1
125875,472.44094488189,4,2,36,70,1,1
126111,451.127819548872,4,2,37,70,1,1
126336,-100,4,2,38,70,0,1
126562,-100,4,2,37,70,0,1
126787,481.927710843374,4,2,63,70,1,1
126787,-58.8235294117647,4,2,63,70,0,1
127027,-58.8235294117647,4,2,33,70,0,1
127268,461.538461538462,4,2,36,70,1,1
127268,-58.8235294117647,4,2,36,70,0,1
127498,476.190476190476,4,2,21,70,1,1
127736,468.75,4,2,23,70,1,1
127970,-100,4,2,22,70,0,1
128204,-100,4,2,20,70,0,1
128439,461.538461538462,4,2,21,70,1,1
128668,458.015267175573,4,2,64,70,1,1
128897,-100,4,2,18,70,0,1
129126,476.190476190476,4,2,33,70,1,1
129126,-58.8235294117647,4,2,33,70,0,1
129602,400,4,2,36,70,1,1
129802,472.44094488189,4,2,37,70,1,1
130038,444.444444444444,4,2,38,70,1,1
130260,441.176470588235,4,2,37,70,1,1
130480,447.761194029851,4,2,69,70,1,1
130480,-58.8235294117647,4,2,69,70,0,1
130703,-58.8235294117647,4,2,36,70,0,1
130927,451.127819548872,4,2,36,70,1,1
131152,476.190476190476,4,2,56,70,1,1
131152,-58.8235294117647,4,2,56,70,0,1
131390,472.44094488189,4,2,36,70,1,1
131626,-100,4,2,34,70,0,1
131862,416.666666666667,4,2,50,70,1,1
132070,540.540540540541,4,2,36,70,1,1
132340,437.956204379562,4,2,62,70,1,1
132558,468.75,4,2,20,70,1,1
132792,491.803278688525,4,2,18,70,1,1
132792,-58.8235294117647,4,2,18,70,0,1
133283,422.535211267606,4,2,36,70,1,1
133494,472.44094488189,4,2,37,70,1,1
133730,454.545454545455,4,2,38,70,1,1
133957,495.867768595041,4,2,37,70,1,1
134204,434.782608695652,4,2,65,70,1,1
134204,-58.8235294117647,4,2,65,70,0,1
134421,476.190476190476,4,2,33,70,1,1
134659,441.176470588235,4,2,36,70,1,1
134659,-58.8235294117647,4,2,36,70,0,1
134879,-58.8235294117647,4,2,25,70,0,1
135100,454.545454545455,4,2,40,70,1,1
135100,-58.8235294117647,4,2,40,70,0,1
135554,491.803278688525,4,2,36,70,1,1
135799,530.973451327434,4,2,37,70,1,1
136064,437.956204379562,4,2,26,70,1,1
136064,-58.8235294117647,4,2,26,70,0,1
136501,468.75,4,2,33,70,1,1
136501,-58.8235294117647,4,2,33,70,0,1
136969,465.116279069767,4,2,36,70,1,1
137201,-100,4,2,37,70,0,1
137434,441.176470588235,4,2,38,70,1,1
137654,413.793103448276,4,2,37,70,1,1
137860,468.75,4,2,66,70,1,1
137860,-58.8235294117647,4,2,66,70,0,1
138094,-58.8235294117647,4,2,36,70,0,1
138328,487.80487804878,4,2,36,70,1,1
138328,-58.8235294117647,4,2,36,70,0,1
138571,-58.8235294117647,4,2,51,70,0,1
138815,444.444444444444,4,2,36,70,1,1
139037,-100,4,2,40,70,0,1
139259,495.867768595041,4,2,52,70,1,1
139506,434.782608695652,4,2,36,70,1,1
139723,454.545454545455,4,2,62,70,1,1
139950,480,4,2,20,70,1,1
140190,474.308300395257,4,2,53,70,1,1
140190,-58.8235294117647,4,2,53,70,0,1
140664,452.830188679245,4,2,36,70,1,1
140890,-100,4,2,37,70,0,1
141116,465.116279069767,4,2,38,70,1,1
141348,-100,4,2,37,70,0,1
141581,447.761194029851,4,2,65,70,1,1
141581,-58.8235294117647,4,2,65,70,0,1
141804,526.315789473684,4,2,33,70,1,1
142067,454.545454545455,4,2,36,70,1,1
142067,-58.8235294117647,4,2,36,70,0,1
142294,-58.8235294117647,4,2,25,70,0,1
142521,472.44094488189,4,2,40,70,1,1
142521,-58.8235294117647,4,2,40,70,0,1
142993,425.531914893617,4,2,36,70,1,1
143205,-100,4,2,37,70,0,1
143418,454.545454545455,4,2,26,70,1,1
143872,472.44094488189,4,2,33,70,1,1
144580,454.545454545455,4,2,36,70,1,1
144807,-100,4,2,37,70,0,1
145034,495.867768595041,4,2,36,70,1,1
145281,453.857791225416,4,2,67,50,1,0
145394,-100,4,2,67,25,0,0
146642,455.927051671733,4,2,80,50,1,0
146755,-100,4,2,80,25,0,0
148465,530.973451327434,4,2,82,50,1,0
152712,460.829493087558,4,2,67,50,1,0
152827,-100,4,2,67,25,0,0
154094,495.867768595041,4,2,81,50,1,0
154094,-125,4,2,81,50,0,0
154217,-125,4,2,81,25,0,0
156573,461.538461538462,4,2,82,50,1,0

[Colours]
Combo1 : 255,130,255
Combo2 : 255,154,53
Combo3 : 194,134,255
Combo4 : 68,162,255

[HitObjects]
89,166,752,6,0,P|172:181|145:321,1,225.000008583069,2|0,0:0|0:0,0:0:0:0:
118,241,2491,2,0,P|222:197|342:240,1,225.000008583069,2|0,0:0|0:0,0:0:0:0:
261,281,4330,2,0,B|226:226|265:172|265:172|298:122|261:62,1,225.000008583069,2|0,0:0|0:0,0:0:0:0:
200,124,6165,2,0,P|291:145|337:29,1,225.000008583069,2|0,0:0|0:0,0:0:0:0:
192,28,8077,6,0,L|214:264,1,225.000008583069,2|0,0:0|0:0,0:0:0:0:
298,218,10351,2,0,P|401:273|287:306,1,300.000011444092,2|0,0:0|0:0,0:0:0:0:
256,192,13804,12,0,18741,0:0:0:0:
175,138,19728,6,0,P|223:139|277:196,1,100,14|0,0:0|0:0,0:0:0:0:
221,289,20581,2,0,P|172:289|119:231,1,100,8|0,0:0|0:0,0:0:0:0:
198,214,21284,1,8,0:0:0:0:
275,231,21545,6,0,L|265:332,1,100,14|8,0:0|0:0,0:0:0:0:
337,180,22503,1,8,0:0:0:0:
193,164,22979,2,0,L|197:213,1,50,8|8,0:0|0:0,0:0:0:0:
267,137,23437,5,14,0:0:0:0:
267,137,25283,1,8,0:0:0:0:
267,137,26653,1,8,0:0:0:0:
386,256,27129,6,0,P|434:244|466:207,1,100,14|0,0:0|0:0,0:0:0:0:
246,182,28023,2,0,P|233:229|249:276,1,100,8|0,0:0|0:0,0:0:0:0:
312,226,28673,1,8,0:0:0:0:
250,101,28940,5,14,0:0:0:0:
249,101,29393,2,0,P|273:91|297:89,1,50,8|8,0:0|0:0,0:0:0:0:
377,117,29875,1,8,0:0:0:0:
246,182,30333,2,0,P|222:172|198:170,1,50,8|8,0:0|0:0,0:0:0:0:
118,196,30827,6,0,P|146:237|193:251,1,100,14|0,0:0|0:0,0:0:0:0:
343,244,31756,2,0,L|334:323,2,66.6666666666667,8|8|8,0:0|0:0|0:0,0:0:0:0:
288,188,32725,6,0,P|359:167|418:269,1,200,14|0,0:0|0:0,0:0:0:0:
269,262,34025,1,8,0:0:0:0:
291,99,34513,6,0,P|334:83|401:107,1,100,14|0,0:0|0:0,0:0:0:0:
259,179,35415,2,0,P|304:186|350:240,1,100,8|0,0:0|0:0,0:0:0:0:
269,262,36064,1,8,0:0:0:0:
192,229,36347,6,0,P|187:271|227:334,1,100,14|8,0:0|0:0,0:0:0:0:
342,222,37288,1,8,0:0:0:0:
233,119,37764,2,0,P|240:142|242:167,1,50,8|8,0:0|0:0,0:0:0:0:
192,229,38234,5,14,0:0:0:0:
201,244,40034,1,8,0:0:0:0:
210,259,40521,1,8,0:0:0:0:
219,274,40979,6,0,L|278:288,1,50,10|8,0:0|0:0,0:0:0:0:
314,217,41427,2,0,L|373:203,1,50,10|8,0:0|0:0,0:0:0:0:
434,234,41900,1,8,0:0:0:0:
390,300,42130,2,0,L|341:311,1,50,10|8,0:0|0:0,0:0:0:0:
267,285,42592,1,8,0:0:0:0:
314,216,42823,6,0,P|320:192|318:167,1,50,10|0,0:0|0:0,0:0:0:0:
243,132,43267,2,0,P|236:156|238:181,1,50,10|8,0:0|0:0,0:0:0:0:
310,85,43772,1,10,0:0:0:0:
165,197,44213,1,8,0:0:0:0:
309,85,44644,6,0,P|334:80|359:84,1,50,10|8,0:0|0:0,0:0:0:0:
395,15,45102,2,0,P|415:29|430:49,1,50,10|8,0:0|0:0,0:0:0:0:
503,25,45608,2,0,P|507:49|503:74,2,50,10|8|8,0:0|0:0|0:0,0:0:0:0:
333,107,46513,6,0,P|379:91|427:102,1,100,10|8,0:0|0:0,0:0:0:0:
474,170,47214,2,0,L|464:235,1,50,10|8,0:0|0:0,0:0:0:0:
472,237,47895,1,8,0:0:0:0:
477,254,48346,6,0,L|404:246,1,50,10|8,0:0|0:0,0:0:0:0:
367,195,48807,2,0,L|294:203,1,50,10|8,0:0|0:0,0:0:0:0:
242,209,49269,1,8,0:0:0:0:
171,254,49516,2,0,P|187:272|209:284,1,50,10|8,0:0|0:0,0:0:0:0:
288,272,49972,1,8,0:0:0:0:
242,209,50219,6,0,L|226:142,1,50,10|0,0:0|0:0,0:0:0:0:
312,157,50650,2,0,L|328:90,1,50,10|8,0:0|0:0,0:0:0:0:
248,81,51122,1,10,0:0:0:0:
384,191,51580,1,8,0:0:0:0:
248,81,52027,6,0,P|224:71|200:72,1,50,10|8,0:0|0:0,0:0:0:0:
161,159,52499,2,0,P|184:149|208:150,1,50,10|8,0:0|0:0,0:0:0:0:
278,175,52980,2,0,P|250:215|202:224,1,100,10|8,0:0|0:0,0:0:0:0:
267,51,53899,5,10,0:0:0:0:
273,70,54336,2,0,L|322:63,1,50,10|8,0:0|0:0,0:0:0:0:
242,141,54842,1,10,0:0:0:0:
236,160,55974,6,0,L|186:153,1,50,8|8,0:0|0:0,0:0:0:0:
139,219,56429,1,8,0:0:0:0:
179,290,56681,6,0,P|271:257|364:286,1,200,8|0,0:0|0:0,0:0:0:0:
368,101,58042,2,0,P|334:193|363:286,1,200,12|0,0:0|0:0,0:0:0:0:
225,97,59862,6,0,P|248:175|128:115,1,300,14|0,0:0|0:0,0:0:0:0:
147,26,62185,1,8,0:0:0:0:
208,88,64067,6,0,P|213:186|163:275,1,200,12|0,0:0|0:0,0:0:0:0:
27,143,65430,2,0,P|109:88|211:88,1,200,12|0,0:0|0:0,0:0:0:0:
207,87,67234,6,0,P|295:170|249:24,1,400,14|0,0:0|0:0,0:0:0:0:
216,120,71403,5,14,0:0:0:0:
174,255,71864,1,8,0:0:0:0:
121,123,72351,2,0,P|168:108|215:119,1,100,10|0,0:0|0:0,0:0:0:0:
267,182,73027,1,8,0:0:0:0:
318,244,73302,6,0,P|365:255|413:241,1,100,14|8,0:0|0:0,0:0:0:0:
296,107,74203,1,10,0:0:0:0:
238,257,74654,2,0,L|252:317,1,50,8|8,0:0|0:0,0:0:0:0:
267,182,75116,5,14,0:0:0:0:
213,223,76976,1,8,0:0:0:0:
205,234,78334,1,8,0:0:0:0:
324,155,78781,6,0,P|373:151|419:182,1,100,14|0,0:0|0:0,0:0:0:0:
277,217,79722,2,0,P|305:257|301:312,1,100,10|0,0:0|0:0,0:0:0:0:
230,279,80398,1,8,0:0:0:0:
324,155,80645,5,14,0:0:0:0:
152,259,81092,2,0,L|88:242,1,50,8|8,0:0|0:0,0:0:0:0:
206,204,81573,2,0,P|221:157|203:111,1,100,14|8,0:0|0:0,0:0:0:0:
148,160,82264,1,8,0:0:0:0:
162,262,82514,6,0,P|208:277|254:259,1,100,14|0,0:0|0:0,0:0:0:0:
276,186,83147,1,8,0:0:0:0:
352,182,83397,2,0,P|347:216|324:246,2,66.6666666666667,10|8|8,0:0|0:0|0:0,0:0:0:0:
312,118,84302,1,14,0:0:0:0:
272,54,85711,1,8,0:0:0:0:
58,49,86183,6,0,P|35:96|43:144,1,100,14|0,0:0|0:0,0:0:0:0:
209,123,87106,2,0,P|162:99|114:107,1,100,10|0,0:0|0:0,0:0:0:0:
150,180,87762,1,8,0:0:0:0:
230,203,88022,6,0,P|272:174|289:129,1,100,14|8,0:0|0:0,0:0:0:0:
171,261,88948,2,0,L|172:366,1,100,10|8,0:0|0:0,0:0:0:0:
96,295,89649,1,8,0:0:0:0:
150,180,89907,5,14,0:0:0:0:
158,200,91753,1,8,0:0:0:0:
166,220,92478,1,8,0:0:0:0:
213,151,92692,6,0,P|236:143|263:146,1,50,10|8,0:0|0:0,0:0:0:0:
295,216,93157,2,0,P|271:223|245:221,1,50,10|8,0:0|0:0,0:0:0:0:
339,152,93615,1,10,0:0:0:0:
403,197,93826,2,0,P|410:220|408:247,1,50,10|8,0:0|0:0,0:0:0:0:
343,292,94287,1,8,0:0:0:0:
418,326,94518,6,0,L|511:292,1,100,10|10,0:0|0:0,0:0:0:0:
408,245,95196,1,10,0:0:0:0:
353,373,95430,1,8,0:0:0:0:
353,373,95884,1,8,0:0:0:0:
353,373,96306,6,0,L|321:315,1,50,10|8,0:0|0:0,0:0:0:0:
253,349,96772,2,0,L|254:282,1,50,10|8,0:0|0:0,0:0:0:0:
152,291,97244,1,10,0:0:0:0:
208,233,97482,1,8,0:0:0:0:
129,163,97718,2,0,L|129:213,1,50,10|0,0:0|0:0,0:0:0:0:
280,268,98181,6,0,P|285:219|263:174,1,100,10|10,0:0|0:0,0:0:0:0:
208,233,98868,1,10,0:0:0:0:
362,205,99106,1,8,0:0:0:0:
134,96,99571,1,8,0:0:0:0:
382,49,100034,6,0,L|436:45,1,50,10|8,0:0|0:0,0:0:0:0:
333,111,100514,2,0,L|279:107,1,50,10|8,0:0|0:0,0:0:0:0:
382,173,100956,1,10,0:0:0:0:
459,160,101187,2,0,P|454:136|439:116,2,50,10|8|8,0:0|0:0|0:0,0:0:0:0:
353,246,101903,6,0,P|307:263|246:237,1,100,10|10,0:0|0:0,0:0:0:0:
305,185,102574,1,10,0:0:0:0:
357,331,102808,1,8,0:0:0:0:
353,124,103264,1,8,0:0:0:0:
175,230,103720,6,0,L|181:294,1,50,10|8,0:0|0:0,0:0:0:0:
255,242,104188,2,0,L|250:192,1,50,10|8,0:0|0:0,0:0:0:0:
188,67,104671,1,10,0:0:0:0:
183,147,104892,1,8,0:0:0:0:
254,111,105112,2,0,P|265:88|266:63,1,50,10|0,0:0|0:0,0:0:0:0:
116,102,105559,6,0,P|105:124|104:149,1,50,10|0,0:0|0:0,0:0:0:0:
250,192,106020,1,10,0:0:0:0:
188,67,106254,1,10,0:0:0:0:
176,227,106510,5,8,0:0:0:0:
464,151,106964,1,8,0:0:0:0:
188,67,107425,6,0,L|200:134,1,50,10|8,0:0|0:0,0:0:0:0:
277,199,107867,2,0,L|269:150,1,50,10|8,0:0|0:0,0:0:0:0:
176,227,108363,5,10,0:0:0:0:
240,273,108590,1,10,0:0:0:0:
216,348,108817,1,8,0:0:0:0:
137,348,109042,1,8,0:0:0:0:
112,273,109268,2,0,L|45:263,1,64.9999970245363,10|0,0:0|0:0,0:0:0:0:
176,227,109729,1,10,0:0:0:0:
104,194,109975,1,10,0:0:0:0:
161,83,110222,6,0,L|168:148,1,64.9999970245363,8|0,0:0|0:0,0:0:0:0:
300,162,110653,2,0,P|268:165|240:180,1,64.9999970245363,8|0,0:0|0:0,0:0:0:0:
295,317,111107,5,10,0:0:0:0:
370,335,111341,1,8,0:0:0:0:
411,269,111575,1,10,0:0:0:0:
361,210,111809,1,8,0:0:0:0:
289,240,112063,1,10,0:0:0:0:
238,180,112275,1,8,0:0:0:0:
279,111,112511,2,0,P|310:105|341:114,1,64.9999970245363,10|0,0:0|0:0,0:0:0:0:
212,255,112939,6,0,P|180:261|149:252,1,64.9999970245363,10|0,0:0|0:0,0:0:0:0:
158,111,113411,1,10,0:0:0:0:
185,183,113654,1,10,0:0:0:0:
76,226,113898,5,8,0:0:0:0:
185,39,114329,1,8,0:0:0:0:
292,226,114787,5,10,0:0:0:0:
361,186,115016,1,8,0:0:0:0:
332,295,115245,1,10,0:0:0:0:
372,364,115492,1,8,0:0:0:0:
466,256,115723,2,0,L|401:255,1,64.9999970245363,8|10,0:0|0:0,0:0:0:0:
292,226,116199,1,10,0:0:0:0:
361,186,116414,1,8,0:0:0:0:
284,84,116666,2,0,P|281:116|292:147,1,64.9999970245363,10|0,0:0|0:0,0:0:0:0:
361,107,117113,5,10,0:0:0:0:
341,28,117353,1,10,0:0:0:0:
207,61,117607,1,8,0:0:0:0:
153,326,118012,1,8,0:0:0:0:
207,61,118466,5,10,0:0:0:0:
284,84,118706,1,8,0:0:0:0:
209,190,118946,1,10,0:0:0:0:
161,127,119191,1,8,0:0:0:0:
86,233,119416,1,10,0:0:0:0:
163,256,119654,1,8,0:0:0:0:
85,153,119892,1,8,0:0:0:0:
427,153,120329,6,0,P|443:191|436:232,1,64.9999970245363,10|8,0:0|0:0,0:0:0:0:
299,251,120806,1,10,0:0:0:0:
363,202,121048,1,10,0:0:0:0:
383,360,121282,5,8,0:0:0:0:
416,73,121733,1,8,0:0:0:0:
383,360,122205,5,10,0:0:0:0:
418,282,122429,1,8,0:0:0:0:
281,220,122653,1,10,0:0:0:0:
332,290,122887,1,8,0:0:0:0:
317,141,123121,6,0,P|275:134|234:146,1,85.0000016212464,12|10,0:0|0:0,0:0:0:0:
245,299,123570,1,10,0:0:0:0:
332,290,123788,1,8,0:0:0:0:
404,133,124031,1,10,0:0:0:0:
281,220,124267,1,8,0:0:0:0:
367,210,124503,1,10,0:0:0:0:
317,141,124723,1,10,0:0:0:0:
332,290,124973,5,12,0:0:0:0:
404,133,125193,1,8,0:0:0:0:
232,148,125414,2,0,P|204:180|194:221,1,85.0000016212464,8|0,0:0|0:0,0:0:0:0:
367,210,125875,5,10,0:0:0:0:
317,141,126111,1,8,0:0:0:0:
245,299,126336,1,10,0:0:0:0:
281,220,126562,1,8,0:0:0:0:
418,282,126787,6,0,L|425:189,1,85.0000016212464,14|8,0:0|0:0,0:0:0:0:
439,27,127268,2,0,L|432:112,1,85.0000016212464,8|10,0:0|0:0,0:0:0:0:
305,197,127736,5,10,0:0:0:0:
265,81,127970,1,8,0:0:0:0:
343,119,128204,1,10,0:0:0:0:
227,159,128439,1,10,0:0:0:0:
187,43,128668,5,12,0:0:0:0:
149,121,128897,1,8,0:0:0:0:
265,81,129126,2,0,P|274:35|256:-10,1,85.0000016212464,8|0,0:0|0:0,0:0:0:0:
100,48,129602,5,10,0:0:0:0:
149,121,129802,1,8,0:0:0:0:
265,81,130038,1,10,0:0:0:0:
187,43,130260,1,8,0:0:0:0:
154,206,130480,6,0,P|185:235|226:246,1,85.0000016212464,12|10,0:0|0:0,0:0:0:0:
227,159,130927,1,10,0:0:0:0:
187,43,131152,1,12,0:0:0:0:
149,121,131390,1,10,0:0:0:0:
99,43,131626,1,8,0:0:0:0:
275,43,131862,1,14,0:0:0:0:
149,121,132070,1,10,0:0:0:0:
326,115,132340,5,12,0:0:0:0:
187,43,132558,1,8,0:0:0:0:
193,198,132792,2,0,P|233:222|281:220,1,85.0000016212464,8|0,0:0|0:0,0:0:0:0:
363,35,133283,5,10,0:0:0:0:
275,43,133494,1,8,0:0:0:0:
331,175,133730,1,10,0:0:0:0:
397,116,133957,1,8,0:0:0:0:
255,129,134204,6,0,L|163:120,1,85.0000016212464,14|10,0:0|0:0,0:0:0:0:
256,253,134659,2,0,L|340:261,1,85.0000016212464,10|4,0:0|0:0,0:0:0:0:
130,44,135100,2,0,P|97:71|85:111,1,85.0000016212464,10|0,0:0|0:0,0:0:0:0:
255,129,135554,1,14,0:0:0:0:
219,51,135799,1,10,0:0:0:0:
388,68,136064,6,0,P|375:107|343:135,1,85.0000016212464,8|0,0:0|0:0,0:0:0:0:
219,51,136501,2,0,P|259:42|299:56,1,85.0000016212464,8|0,0:0|0:0,0:0:0:0:
364,222,136969,1,10,0:0:0:0:
344,136,137201,1,8,0:0:0:0:
221,210,137434,1,10,0:0:0:0:
255,129,137654,1,8,0:0:0:0:
286,267,137860,6,0,P|316:298|356:311,1,85.0000016212464,12|10,0:0|0:0,0:0:0:0:
445,201,138328,1,10,0:0:0:0:
344,139,138571,1,12,0:0:0:0:
363,221,138815,1,10,0:0:0:0:
405,80,139037,1,4,0:0:0:0:
241,34,139259,1,14,0:0:0:0:
262,116,139506,1,10,0:0:0:0:
323,57,139723,5,12,0:0:0:0:
159,11,139950,1,8,0:0:0:0:
200,175,140190,2,0,P|235:196|277:199,1,85.0000016212464,12|0,0:0|0:0,0:0:0:0:
424,168,140664,5,10,0:0:0:0:
262,116,140890,1,8,0:0:0:0:
298,283,141116,1,10,0:0:0:0:
343,142,141348,1,8,0:0:0:0:
217,257,141581,5,14,0:0:0:0:
262,116,141804,1,10,0:0:0:0:
379,309,142067,2,0,L|492:293,1,85.0000016212464,10|4,0:0|0:0,0:0:0:0:
217,257,142521,2,0,L|132:268,1,85.0000016212464,10|0,0:0|0:0,0:0:0:0:
316,367,142993,5,14,0:0:0:0:
339,239,143205,1,10,0:0:0:0:
132,268,143418,1,12,0:0:0:0:
225,178,143645,1,0,0:0:0:0:
188,384,143872,1,8,0:0:0:0:
188,384,144580,5,8,0:0:0:0:
240,287,144807,1,8,0:0:0:0:
316,367,145034,1,8,0:0:0:0:
339,239,145281,6,0,P|295:192|157:216,1,200,12|0,0:0|0:0,0:0:0:0:
293,343,146642,2,0,P|389:342|422:163,1,300,12|0,0:0|0:0,0:0:0:0:
339,239,148465,5,12,0:0:0:0:
325,220,152712,6,0,P|254:207|163:304,1,200,12|0,0:0|0:0,0:0:0:0:
23,237,154094,2,0,P|172:206|273:320,1,320,12|0,0:0|0:0,0:0:0:0:
125,351,156573,5,12,0:0:0:0:
