osu file format v14

[General]
AudioFilename: audio.mp3
AudioLeadIn: 0
PreviewTime: 19605
Countdown: 0
SampleSet: Soft
StackLeniency: 0.7
Mode: 0
LetterboxInBreaks: 0
WidescreenStoryboard: 0

[Editor]
Bookmarks: 30827,71403,107425,123121,140190
DistanceSpacing: 2
BeatDivisor: 4
GridSize: 4
TimelineZoom: 3.199999

[Metadata]
Title:Katawaredoki
TitleUnicode:かたわれ時
Artist:RADWIMPS
ArtistUnicode:RADWIMPS
Creator:Monstrata
Version:Hard
Source:君の名は。
Tags:mitsuha taki your name irohas mugiwarasekai haruto haruto_aizawa kimo no na wa
BeatmapID:1287670
BeatmapSetID:608723

[Difficulty]
HPDrainRate:4
CircleSize:4
OverallDifficulty:4.5
ApproachRate:6.5
SliderMultiplier:0.7
SliderTickRate:1

[Events]
//Background and Video events
0,0,"737484.jpg",0,0
//Break Periods
//Storyboard Layer 0 (Background)
//Storyboard Layer 1 (Fail)
//Storyboard Layer 2 (Pass)
//Storyboard Layer 3 (Foreground)
//Storyboard Sound Samples

[TimingPoints]
752,434.782608695652,4,2,70,10,1,0
752,-133.333333333333,4,2,70,10,0,0
969,-100,4,2,70,15,0,0
1186,-100,4,2,70,20,0,0
1404,-100,4,2,70,25,0,0
1621,-100,4,2,70,30,0,0
1838,-100,4,2,70,35,0,0
2056,-133.333333333333,4,2,80,5,0,0
2491,459.770114942529,4,2,77,10,1,0
2491,-133.333333333333,4,2,77,10,0,0
2720,-100,4,2,77,15,0,0
2950,-100,4,2,77,20,0,0
3180,-100,4,2,77,25,0,0
3410,-100,4,2,77,30,0,0
3640,-100,4,2,77,35,0,0
3870,-133.333333333333,4,2,77,5,0,0
4330,458.891013384321,4,2,78,15,1,0
4330,-133.333333333333,4,2,78,15,0,0
4559,-100,4,2,78,20,0,0
4788,-100,4,2,78,25,0,0
5018,-100,4,2,78,30,0,0
5247,-100,4,2,78,35,0,0
5477,-100,4,2,78,40,0,0
5706,-133.333333333333,4,2,78,5,0,0
6165,478.08764940239,4,2,60,15,1,0
6165,-133.333333333333,4,2,60,15,0,0
6404,-100,4,2,60,20,0,0
6643,-100,4,2,60,25,0,0
6882,-100,4,2,60,30,0,0
7121,-100,4,2,60,35,0,0
7360,-100,4,2,60,40,0,0
7599,-133.333333333333,4,2,60,5,0,0
8077,568.720379146919,4,2,71,15,1,0
8077,-133.333333333333,4,2,71,15,0,0
8361,-100,4,2,71,20,0,0
8645,-100,4,2,71,25,0,0
8930,-100,4,2,71,30,0,0
9214,-100,4,2,71,35,0,0
9498,-100,4,2,71,40,0,0
9783,-133.333333333333,4,2,81,5,0,0
10351,539.325842696629,4,2,79,15,1,0
10351,-133.333333333333,4,2,79,15,0,0
10620,-100,4,2,79,20,0,0
10890,-100,4,2,79,25,0,0
11159,-100,4,2,79,30,0,0
11429,-100,4,2,79,35,0,0
11699,-100,4,2,79,40,0,0
12508,432.276657060519,4,2,79,5,1,0
13804,493.725570870191,4,2,1,10,1,0
18741,-100,4,2,1,5,0,0
19728,426.74253200569,4,2,99,30,1,0
20581,468.75,4,2,20,30,1,0
21284,523.1037489102,4,2,20,30,1,0
21545,462.249614791988,4,2,20,30,1,0
22007,496.688741721854,4,2,18,30,1,0
22503,476.190476190476,4,2,17,30,1,0
22979,458.015267175573,4,2,17,30,1,0
23208,-100,4,2,16,30,0,0
23437,461.538461538462,4,2,98,30,1,0
25283,-100,4,2,13,30,0,0
26653,476.190476190476,4,2,16,30,1,0
27129,447.093889716841,4,2,99,30,1,0
28023,433.526011560694,4,2,20,30,1,0
28673,535.714285714286,4,2,16,30,1,0
28940,453.857791225416,4,2,23,30,1,0
29393,482.703137570394,4,2,22,30,1,0
29634,-100,4,2,21,30,0,0
29875,458.015267175573,4,2,20,30,1,0
30333,500,4,2,20,30,1,0
30583,489.396411092985,4,2,21,30,1,0
30827,464.756003098373,4,2,55,30,1,0
31756,487.80487804878,4,2,18,30,1,0
32081,-100,4,2,19,30,0,0
32406,478.850758180367,4,2,18,30,1,0
32725,433.526011560694,4,2,17,30,1,0
34025,488.997555012225,4,2,16,30,1,0
34513,451.127819548872,4,2,99,30,1,0
35415,433.212996389892,4,2,20,30,1,0
36064,566.037735849057,4,2,20,30,1,0
36347,487.80487804878,4,2,20,30,1,0
36834,454.545454545455,4,2,18,30,1,0
37288,476.190476190476,4,2,17,30,1,0
37764,470.588235294118,4,2,17,30,1,0
37999,-100,4,2,16,30,0,0
38234,450.112528132033,4,2,98,30,1,0
40034,487.80487804878,4,2,6,30,1,0
40521,458.015267175573,4,2,13,30,1,0
40979,476.190476190476,4,2,16,30,1,0
41217,421.052631578947,4,2,17,30,1,0
41427,497.92531120332,4,2,18,30,1,0
41675,451.127819548872,4,2,17,30,1,0
41900,461.538461538462,4,2,7,30,1,0
42130,-100,4,2,16,30,0,0
42592,-100,4,2,14,30,0,0
42823,444.444444444444,4,2,16,30,1,0
43267,530.973451327434,4,2,16,30,1,0
43532,480,4,2,16,30,1,0
43772,441.176470588235,4,2,5,30,1,0
44213,431.654676258993,4,2,12,30,1,0
44644,458.015267175573,4,2,16,30,1,0
44873,-100,4,2,17,30,0,0
45102,-100,4,2,18,30,0,0
45331,555.555555555556,4,2,17,30,1,0
45608,474.308300395257,4,2,9,30,1,0
45845,-100,4,2,13,30,0,0
46082,431.654676258993,4,2,16,30,1,0
46513,451.127819548872,4,2,20,30,1,0
46964,500,4,2,16,30,1,0
47214,454.545454545455,4,2,17,30,1,0
47441,-100,4,2,6,30,0,0
47895,451.127819548872,4,2,13,30,1,0
48346,461.538461538462,4,2,16,30,1,0
48576,-100,4,2,17,30,0,0
48807,-100,4,2,18,30,0,0
49038,-100,4,2,17,30,0,0
49269,495.867768595041,4,2,7,30,1,0
49516,469.483568075117,4,2,16,30,1,0
49750,444.444444444444,4,2,16,30,1,0
49972,495.867768595041,4,2,14,30,1,0
50219,431.654676258993,4,2,16,30,1,0
50650,500,4,2,16,30,1,0
50900,444.444444444444,4,2,16,30,1,0
51122,458.015267175573,4,2,5,30,1,0
51580,447.761194029851,4,2,12,30,1,0
52027,472.44094488189,4,2,16,30,1,0
52263,-100,4,2,17,30,0,0
52499,483.870967741935,4,2,18,30,1,0
52740,480,4,2,17,30,1,0
52980,451.127819548872,4,2,9,30,1,0
53431,468.75,4,2,13,30,1,0
53899,437.956204379562,4,2,20,30,1,0
54336,472.44094488189,4,2,16,30,1,0
54572,540.540540540541,4,2,17,30,1,0
54842,452.830188679245,4,2,6,30,1,0
55974,431.654676258993,4,2,16,30,1,0
56189,480,4,2,17,30,1,0
56429,504.201680672269,4,2,16,30,1,0
56681,453.857791225416,4,2,7,30,1,0
56794,-100,4,2,7,15,0,0
58042,455.235204855842,4,2,97,30,1,0
58155,-100,4,2,97,15,0,0
59862,464.756003098373,4,2,18,30,1,0
59978,-100,4,2,18,15,0,0
62185,470.588235294118,4,2,23,30,1,0
64067,454.545454545455,4,2,16,30,1,0
64180,-100,4,2,16,15,0,0
65430,451.127819548872,4,2,96,30,1,0
65542,-100,4,2,96,15,0,0
67234,463.320463320463,4,2,18,30,1,0
67349,-100,4,2,18,15,0,0
71403,461.538461538462,4,2,95,40,1,0
71864,487.80487804878,4,2,14,40,1,0
72351,451.127819548872,4,2,20,40,1,0
73027,550.45871559633,4,2,20,40,1,0
73302,425.531914893617,4,2,93,40,1,0
73727,476.190476190476,4,2,18,40,1,0
74203,451.127819548872,4,2,17,40,1,0
74654,444.444444444444,4,2,17,40,1,0
74876,480,4,2,16,40,1,0
75116,465.116279069767,4,2,98,40,1,0
76976,452.830188679245,4,2,6,40,1,0
78334,447.761194029851,4,2,16,40,1,0
78781,470.588235294118,4,2,95,40,1,0
79722,451.127819548872,4,2,20,40,1,0
80398,495.867768595041,4,2,16,40,1,0
80645,447.761194029851,4,2,94,40,1,0
81092,451.127819548872,4,2,22,40,1,0
81317,512.820512820513,4,2,21,40,1,0
81573,451.127819548872,4,2,20,40,1,0
82024,480,4,2,20,40,1,0
82264,500,4,2,21,40,1,0
82514,422.535211267606,4,2,92,40,1,0
83147,500,4,2,13,40,1,0
83397,452.830188679245,4,2,18,40,1,0
83698,-100,4,2,19,40,0,0
84000,-100,4,2,18,40,0,0
84302,487.80487804878,4,2,60,40,1,0
85277,434.782608695652,4,2,1,40,1,0
85711,472.44094488189,4,2,16,40,1,0
86183,461.538461538462,4,2,95,40,1,0
87106,437.956204379562,4,2,20,40,1,0
87762,521.739130434783,4,2,20,40,1,0
88022,472.44094488189,4,2,93,40,1,0
88494,454.545454545455,4,2,18,40,1,0
88948,461.538461538462,4,2,17,40,1,0
89409,480,4,2,17,40,1,0
89649,517.241379310345,4,2,16,40,1,0
89907,461.538461538462,4,2,18,40,1,0
91753,483.870967741935,4,2,6,40,1,0
92478,428.571428571429,4,2,13,40,1,0
92692,465.116279069767,4,2,16,40,1,0
92924,-100,4,2,17,40,0,0
93157,416.666666666667,4,2,18,40,1,0
93365,500,4,2,17,40,1,0
93615,422.535211267606,4,2,7,40,1,0
93826,461.538461538462,4,2,16,40,1,0
94287,-100,4,2,14,40,0,0
94518,444.444444444444,4,2,16,40,1,0
94962,468.75,4,2,16,40,1,0
95430,454.545454545455,4,2,5,40,1,0
95884,422.535211267606,4,2,12,40,1,0
96306,472.44094488189,4,2,16,40,1,0
96542,461.538461538462,4,2,17,40,1,0
96772,472.44094488189,4,2,18,40,1,0
97008,-100,4,2,17,40,0,0
97244,476.190476190476,4,2,9,40,1,0
97482,472.44094488189,4,2,13,40,1,0
97718,463.320463320463,4,2,16,40,1,0
98181,437.956204379562,4,2,20,40,1,0
98618,500,4,2,16,40,1,0
98868,476.190476190476,4,2,17,40,1,0
99106,465.116279069767,4,2,6,40,1,0
99571,463.320463320463,4,2,13,40,1,0
100034,480,4,2,16,40,1,0
100274,-100,4,2,17,40,0,0
100514,425.531914893617,4,2,18,40,1,0
100726,461.538461538462,4,2,17,40,1,0
100956,-100,4,2,7,40,0,0
101187,-100,4,2,16,40,0,0
101649,508.474576271186,4,2,14,40,1,0
101903,437.956204379562,4,2,16,40,1,0
102340,468.75,4,2,16,40,1,0
102808,456.273764258555,4,2,5,40,1,0
103264,-100,4,2,12,40,0,0
103720,476.190476190476,4,2,16,40,1,0
103958,461.538461538462,4,2,17,40,1,0
104188,-100,4,2,18,40,0,0
104419,504.201680672269,4,2,17,40,1,0
104671,441.176470588235,4,2,9,40,1,0
104891,-100,4,2,13,40,0,0
105112,447.761194029851,4,2,16,40,1,0
105559,461.538461538462,4,2,20,40,1,0
106020,468.75,4,2,16,40,1,0
106254,512.820512820513,4,2,17,40,1,0
106510,454.545454545455,4,2,6,40,1,0
106964,461.538461538462,4,2,13,40,1,0
107425,483.870967741935,4,2,36,50,1,0
107666,402.684563758389,4,2,37,50,1,0
107867,472.44094488189,4,2,38,50,1,0
108103,521.739130434783,4,2,37,50,1,0
108363,454.545454545455,4,2,27,50,1,0
108363,-76.9230769230769,4,2,27,50,0,0
108590,-100,4,2,36,50,0,0
108817,451.127819548872,4,2,36,50,1,0
109042,-100,4,2,34,50,0,0
109268,461.538461538462,4,2,36,50,1,0
109268,-76.9230769230769,4,2,36,50,0,0
109729,493.827160493827,4,2,36,50,1,0
109729,-76.9230769230769,4,2,36,50,0,0
110222,431.654676258993,4,2,25,50,1,0
110222,-76.9230769230769,4,2,25,50,0,0
110653,454.545454545455,4,2,32,50,1,0
110653,-76.9230769230769,4,2,32,50,0,0
111107,468.75,4,2,36,50,1,0
111107,-76.9230769230769,4,2,36,50,0,0
111341,-100,4,2,37,50,0,0
111575,468.75,4,2,38,50,1,0
111575,-76.9230769230769,4,2,38,50,0,0
111809,508.474576271186,4,2,37,50,1,0
112063,425.531914893617,4,2,29,50,1,0
112063,-76.9230769230769,4,2,29,50,0,0
112275,472.44094488189,4,2,33,50,1,0
112511,428.571428571429,4,2,36,50,1,0
112511,-76.9230769230769,4,2,36,50,0,0
112939,472.44094488189,4,2,40,50,1,0
112939,-76.9230769230769,4,2,40,50,0,0
113411,487.80487804878,4,2,36,50,1,0
113411,-76.9230769230769,4,2,36,50,0,0
113654,-100,4,2,37,50,0,0
113898,431.654676258993,4,2,26,50,1,0
114329,458.015267175573,4,2,33,50,1,0
114787,458.015267175573,4,2,36,50,1,0
114787,-76.9230769230769,4,2,36,50,0,0
115016,-100,4,2,37,50,0,0
115245,495.867768595041,4,2,38,50,1,0
115245,-76.9230769230769,4,2,38,50,0,0
115492,462.42774566474,4,2,37,50,1,0
115723,480,4,2,27,50,1,0
115723,-76.9230769230769,4,2,27,50,0,0
115963,472.44094488189,4,2,36,50,1,0
116199,431.654676258993,4,2,36,50,1,0
116414,504.201680672269,4,2,34,50,1,0
116666,447.761194029851,4,2,36,50,1,0
116666,-76.9230769230769,4,2,36,50,0,0
117113,480,4,2,36,50,1,0
117113,-76.9230769230769,4,2,36,50,0,0
117353,508.474576271186,4,2,36,50,1,0
117607,405.405405405405,4,2,25,50,1,0
118012,454.545454545455,4,2,32,50,1,0
118466,480,4,2,36,50,1,0
118466,-76.9230769230769,4,2,36,50,0,0
118706,-100,4,2,37,50,0,0
118946,491.803278688525,4,2,38,50,1,0
118946,-76.9230769230769,4,2,38,50,0,0
119191,451.127819548872,4,2,37,50,1,0
119416,476.190476190476,4,2,29,50,1,0
119654,-100,4,2,33,50,0,0
119892,437.956204379562,4,2,36,50,1,0
120329,472.44094488189,4,2,40,50,1,0
120329,-76.9230769230769,4,2,40,50,0,0
120565,483.870967741935,4,2,33,50,1,0
120806,-76.9230769230769,4,2,36,50,0,0
121048,468.75,4,2,37,50,1,0
121282,451.127819548872,4,2,26,50,1,0
121733,472.44094488189,4,2,33,50,1,0
122205,448.765893792072,4,2,36,50,1,0
122205,-76.9230769230769,4,2,36,50,0,0
122429,-100,4,2,37,50,0,0
122653,468.75,4,2,38,50,1,0
122653,-76.9230769230769,4,2,38,50,0,0
122887,468.75,4,2,37,50,1,0
123121,449.438202247191,4,2,61,70,1,1
123121,-58.8235294117647,4,2,61,70,0,1
123345,-58.8235294117647,4,2,36,70,0,1
123570,437.956204379562,4,2,36,70,1,1
123788,487.80487804878,4,2,21,70,1,1
124031,472.44094488189,4,2,23,70,1,1
124031,-58.8235294117647,4,2,23,70,0,1
124267,-100,4,2,20,70,0,1
124503,441.176470588235,4,2,20,70,1,1
124503,-58.8235294117647,4,2,20,70,0,1
124723,500,4,2,21,70,1,1
124973,441.176470588235,4,2,62,70,1,1
125193,-100,4,2,20,70,0,1
125414,461.538461538462,4,2,18,70,1,1
125414,-58.8235294117647,4,2,18,70,0,1
125875,472.44094488189,4,2,36,70,1,1
125875,-58.8235294117647,4,2,36,70,0,1
126111,451.127819548872,4,2,37,70,1,1
126336,-58.8235294117647,4,2,38,70,0,1
126562,-100,4,2,37,70,0,1
126787,481.927710843374,4,2,63,70,1,1
126787,-58.8235294117647,4,2,63,70,0,1
127027,-58.8235294117647,4,2,33,70,0,1
127268,461.538461538462,4,2,36,70,1,1
127268,-58.8235294117647,4,2,36,70,0,1
127498,476.190476190476,4,2,21,70,1,1
127736,468.75,4,2,23,70,1,1
127736,-58.8235294117647,4,2,23,70,0,1
127970,-100,4,2,22,70,0,1
128204,-58.8235294117647,4,2,20,70,0,1
128439,461.538461538462,4,2,21,70,1,1
128668,458.015267175573,4,2,64,70,1,1
128668,-58.8235294117647,4,2,64,70,0,1
128897,-100,4,2,18,70,0,1
129126,476.190476190476,4,2,33,70,1,1
129126,-58.8235294117647,4,2,33,70,0,1
129602,400,4,2,36,70,1,1
129602,-58.8235294117647,4,2,36,70,0,1
129802,472.44094488189,4,2,37,70,1,1
130038,444.444444444444,4,2,38,70,1,1
130038,-58.8235294117647,4,2,38,70,0,1
130260,441.176470588235,4,2,37,70,1,1
130480,447.761194029851,4,2,69,70,1,1
130480,-58.8235294117647,4,2,69,70,0,1
130703,-58.8235294117647,4,2,36,70,0,1
130927,451.127819548872,4,2,36,70,1,1
131152,476.190476190476,4,2,56,70,1,1
131152,-58.8235294117647,4,2,56,70,0,1
131390,472.44094488189,4,2,36,70,1,1
131390,-58.8235294117647,4,2,36,70,0,1
131626,-100,4,2,34,70,0,1
131862,416.666666666667,4,2,50,70,1,1
132070,540.540540540541,4,2,36,70,1,1
132340,437.956204379562,4,2,62,70,1,1
132340,-58.8235294117647,4,2,62,70,0,1
132558,468.75,4,2,20,70,1,1
132792,491.803278688525,4,2,18,70,1,1
132792,-58.8235294117647,4,2,18,70,0,1
133283,422.535211267606,4,2,36,70,1,1
133283,-58.8235294117647,4,2,36,70,0,1
133494,472.44094488189,4,2,37,70,1,1
133730,454.545454545455,4,2,38,70,1,1
133730,-58.8235294117647,4,2,38,70,0,1
133957,495.867768595041,4,2,37,70,1,1
134204,434.782608695652,4,2,65,70,1,1
134204,-58.8235294117647,4,2,65,70,0,1
134421,476.190476190476,4,2,33,70,1,1
134659,441.176470588235,4,2,36,70,1,1
134659,-58.8235294117647,4,2,36,70,0,1
134879,-58.8235294117647,4,2,25,70,0,1
135100,454.545454545455,4,2,40,70,1,1
135100,-58.8235294117647,4,2,40,70,0,1
135554,491.803278688525,4,2,36,70,1,1
135799,530.973451327434,4,2,37,70,1,1
136064,437.956204379562,4,2,26,70,1,1
136064,-58.8235294117647,4,2,26,70,0,1
136501,468.75,4,2,33,70,1,1
136501,-58.8235294117647,4,2,33,70,0,1
136969,465.116279069767,4,2,36,70,1,1
136969,-58.8235294117647,4,2,36,70,0,1
137201,-100,4,2,37,70,0,1
137434,441.176470588235,4,2,38,70,1,1
137434,-58.8235294117647,4,2,38,70,0,1
137654,413.793103448276,4,2,37,70,1,1
137860,468.75,4,2,66,70,1,1
137860,-58.8235294117647,4,2,66,70,0,1
138094,-58.8235294117647,4,2,36,70,0,1
138328,487.80487804878,4,2,36,70,1,1
138328,-58.8235294117647,4,2,36,70,0,1
138571,-58.8235294117647,4,2,51,70,0,1
138815,444.444444444444,4,2,36,70,1,1
139037,-100,4,2,40,70,0,1
139259,495.867768595041,4,2,52,70,1,1
139259,-58.8235294117647,4,2,52,70,0,1
139506,434.782608695652,4,2,36,70,1,1
139723,454.545454545455,4,2,62,70,1,1
139950,480,4,2,20,70,1,1
140190,474.308300395257,4,2,53,70,1,1
140190,-58.8235294117647,4,2,53,70,0,1
140664,452.830188679245,4,2,36,70,1,1
140664,-58.8235294117647,4,2,36,70,0,1
140890,-100,4,2,37,70,0,1
141116,465.116279069767,4,2,38,70,1,1
141116,-58.8235294117647,4,2,38,70,0,1
141348,-100,4,2,37,70,0,1
141581,447.761194029851,4,2,65,70,1,1
141581,-58.8235294117647,4,2,65,70,0,1
141804,526.315789473684,4,2,33,70,1,1
142067,454.545454545455,4,2,36,70,1,1
142067,-58.8235294117647,4,2,36,70,0,1
142294,-58.8235294117647,4,2,25,70,0,1
142521,472.44094488189,4,2,40,70,1,1
142521,-58.8235294117647,4,2,40,70,0,1
142993,425.531914893617,4,2,36,70,1,1
142993,-58.8235294117647,4,2,36,70,0,1
143205,-100,4,2,37,70,0,1
143418,454.545454545455,4,2,26,70,1,1
143872,472.44094488189,4,2,33,70,1,1
144580,454.545454545455,4,2,36,70,1,1
144580,-66.6666666666667,4,2,36,70,0,1
144807,-100,4,2,37,70,0,1
145034,495.867768595041,4,2,36,70,1,1
145281,453.857791225416,4,2,67,50,1,0
145394,-100,4,2,67,25,0,0
146642,455.927051671733,4,2,80,50,1,0
146755,-100,4,2,80,25,0,0
148465,530.973451327434,4,2,82,50,1,0
152712,460.829493087558,4,2,67,50,1,0
152827,-100,4,2,67,25,0,0
154094,495.867768595041,4,2,81,50,1,0
154094,-125,4,2,81,50,0,0
154217,-125,4,2,81,25,0,0
156573,461.538461538462,4,2,82,50,1,0

[Colours]
Combo1 : 255,130,255
Combo2 : 255,154,53
Combo3 : 194,134,255
Combo4 : 68,162,255

[HitObjects]
134,136,752,6,0,P|184:122|286:150,1,157.500006008148,2|0,0:0|0:0,0:0:0:0:
273,226,2491,2,0,P|328:214|359:123,1,157.500006008148,2|0,0:0|0:0,0:0:0:0:
283,148,4330,2,0,L|264:310,1,157.500006008148,2|0,0:0|0:0,0:0:0:0:
314,368,6165,2,0,P|377:364|346:301,1,157.500006008148,2|0,0:0|0:0,0:0:0:0:
264,304,8077,6,0,B|188:268|189:333|112:300,1,157.500006008148,2|0,0:0|0:0,0:0:0:0:
152,233,10351,2,0,P|86:226|49:347,1,210.000008010865,2|0,0:0|0:0,0:0:0:0:
256,192,13804,12,0,18741,0:0:0:0:
97,154,19728,6,0,L|92:232,1,70,14|0,0:0|0:0,0:0:0:0:
240,261,20581,2,0,L|245:191,1,70,8|0,0:0|0:0,0:0:0:0:
290,130,21284,1,8,0:0:0:0:
365,117,21545,6,0,P|362:156|336:192,1,70,14|8,0:0|0:0,0:0:0:0:
171,185,22503,1,8,0:0:0:0:
171,185,22979,2,0,L|178:232,1,35,8|8,0:0|0:0,0:0:0:0:
142,287,23437,5,14,0:0:0:0:
142,287,25283,5,8,0:0:0:0:
142,287,26653,5,8,0:0:0:0:
248,162,27129,6,0,P|306:159|322:165,1,70,14|0,0:0|0:0,0:0:0:0:
312,320,28023,2,0,P|278:328|236:312,1,70,8|0,0:0|0:0,0:0:0:0:
281,253,28673,1,8,0:0:0:0:
379,288,28940,5,14,0:0:0:0:
379,288,29393,2,0,L|421:281,1,35,8|8,0:0|0:0,0:0:0:0:
452,215,29875,1,8,0:0:0:0:
338,143,30333,2,0,L|296:150,1,35,8|8,0:0|0:0,0:0:0:0:
265,216,30827,5,14,0:0:0:0:
264,215,31756,2,0,P|271:238|271:261,2,46.6666666666667,8|8|8,0:0|0:0|0:0,0:0:0:0:
198,245,32725,2,0,P|208:302|281:335,1,140,14|0,0:0|0:0,0:0:0:0:
347,212,34025,1,8,0:0:0:0:
218,165,34513,6,0,L|136:167,1,70,14|0,0:0|0:0,0:0:0:0:
126,318,35415,2,0,L|195:316,1,70,8|0,0:0|0:0,0:0:0:0:
251,266,36064,1,8,0:0:0:0:
182,175,36347,6,0,L|183:244,1,70,14|8,0:0|0:0,0:0:0:0:
318,287,37288,1,8,0:0:0:0:
318,287,37764,2,0,L|352:278,1,35,8|8,0:0|0:0,0:0:0:0:
251,266,38234,5,14,0:0:0:0:
251,266,40034,5,8,0:0:0:0:
110,334,40521,1,8,0:0:0:0:
251,266,40979,2,0,L|300:272,1,35,10|8,0:0|0:0,0:0:0:0:
297,190,41427,2,0,L|346:184,1,35,10|8,0:0|0:0,0:0:0:0:
215,190,41900,6,0,L|166:184,1,35,8|10,0:0|0:0,0:0:0:0:
226,113,42361,2,0,L|261:118,1,35,8|8,0:0|0:0,0:0:0:0:
152,104,42823,1,10,0:0:0:0:
152,104,43267,2,0,L|149:145,1,35,10|8,0:0|0:0,0:0:0:0:
188,208,43772,5,10,0:0:0:0:
320,119,44213,1,8,0:0:0:0:
152,104,44644,2,0,L|149:145,1,35,10|8,0:0|0:0,0:0:0:0:
188,208,45102,2,0,L|191:249,1,35,10|8,0:0|0:0,0:0:0:0:
128,295,45608,6,0,P|120:280|115:263,2,35,10|8|8,0:0|0:0|0:0,0:0:0:0:
304,255,46513,2,0,L|382:265,1,70,10|8,0:0|0:0,0:0:0:0:
432,212,47214,2,0,P|441:226|447:243,1,35,10|8,0:0|0:0,0:0:0:0:
267,186,47895,1,8,0:0:0:0:
396,87,48346,6,0,P|402:104|403:122,1,35,10|8,0:0|0:0,0:0:0:0:
330,120,48807,2,0,P|324:103|323:85,1,35,10|8,0:0|0:0,0:0:0:0:
246,42,49269,6,0,P|251:58|252:76,1,35,8|10,0:0|0:0,0:0:0:0:
179,74,49750,2,0,P|173:57|172:39,1,35,8|8,0:0|0:0,0:0:0:0:
213,140,50219,1,10,0:0:0:0:
213,140,50650,2,0,L|255:148,1,35,10|8,0:0|0:0,0:0:0:0:
161,197,51122,5,10,0:0:0:0:
299,89,51580,1,8,0:0:0:0:
161,197,52027,2,0,L|126:190,1,35,10|8,0:0|0:0,0:0:0:0:
89,259,52499,2,0,L|55:270,1,35,10|8,0:0|0:0,0:0:0:0:
115,329,52980,6,0,P|141:353|175:359,1,70,10|8,0:0|0:0,0:0:0:0:
303,244,53899,1,10,0:0:0:0:
303,244,54336,2,0,L|317:290,1,35,10|8,0:0|0:0,0:0:0:0:
351,181,54842,1,10,0:0:0:0:
351,181,55974,6,0,L|365:227,1,35,8|8,0:0|0:0,0:0:0:0:
426,255,56429,1,8,0:0:0:0:
494,216,56681,6,0,P|485:163|433:96,1,140,8|0,0:0|0:0,0:0:0:0:
412,196,58042,6,0,P|365:146|300:123,1,140,12|0,0:0|0:0,0:0:0:0:
242,263,59862,6,0,P|240:306|334:235,1,280,14|0,0:0|0:0,0:0:0:0:
274,192,62185,5,8,0:0:0:0:
274,192,64067,6,0,B|207:160|207:219|138:188,1,140,12|0,0:0|0:0,0:0:0:0:
237,259,65430,6,0,L|224:37,1,210,12|0,0:0|0:0,0:0:0:0:
370,108,67234,6,0,P|347:136|452:122,1,280,14|0,0:0|0:0,0:0:0:0:
224,144,71403,6,0,L|220:228,1,70,14|8,0:0|0:0,0:0:0:0:
364,120,72351,2,0,L|360:204,1,70,10|0,0:0|0:0,0:0:0:0:
356,264,73027,1,8,0:0:0:0:
424,230,73302,6,0,P|453:248|487:246,1,70,14|8,0:0|0:0,0:0:0:0:
364,120,74203,1,10,0:0:0:0:
364,120,74654,2,0,L|351:163,1,35,8|8,0:0|0:0,0:0:0:0:
442,104,75116,5,14,0:0:0:0:
455,120,76976,5,8,0:0:0:0:
468,136,78334,5,8,0:0:0:0:
362,262,78781,6,0,L|285:250,1,70,14|0,0:0|0:0,0:0:0:0:
249,88,79722,2,0,L|318:98,1,70,10|0,0:0|0:0,0:0:0:0:
199,30,80398,1,8,0:0:0:0:
216,157,80645,5,14,0:0:0:0:
216,157,81092,2,0,L|203:203,1,35,8|8,0:0|0:0,0:0:0:0:
133,217,81573,2,0,P|152:248|152:286,1,70,14|8,0:0|0:0,0:0:0:0:
82,268,82264,1,8,0:0:0:0:
82,166,82514,5,14,0:0:0:0:
146,356,83147,1,8,0:0:0:0:
201,306,83397,2,0,P|225:304|247:310,2,46.6666666666667,10|8|8,0:0|0:0|0:0,0:0:0:0:
218,378,84302,1,14,0:0:0:0:
184,112,85711,1,8,0:0:0:0:
342,31,86183,6,0,L|329:106,1,70,14|0,0:0|0:0,0:0:0:0:
172,180,87106,2,0,L|183:111,1,70,10|0,0:0|0:0,0:0:0:0:
247,193,87762,1,8,0:0:0:0:
123,239,88022,6,0,L|57:263,1,70,14|8,0:0|0:0,0:0:0:0:
274,265,88948,1,10,0:0:0:0:
274,265,89409,2,0,L|284:309,1,35,8|8,0:0|0:0,0:0:0:0:
321,199,89907,5,14,0:0:0:0:
243,178,91753,5,8,0:0:0:0:
165,157,92478,5,8,0:0:0:0:
222,99,92692,2,0,L|253:67,1,35,10|8,0:0|0:0,0:0:0:0:
143,78,93157,2,0,L|100:66,1,35,10|8,0:0|0:0,0:0:0:0:
131,165,93615,6,0,L|173:153,1,35,10|10,0:0|0:0,0:0:0:0:
64,130,94056,2,0,L|30:120,1,35,8|8,0:0|0:0,0:0:0:0:
125,244,94518,1,10,0:0:0:0:
125,244,94962,2,0,L|158:252,1,35,10|10,0:0|0:0,0:0:0:0:
62,292,95430,5,8,0:0:0:0:
221,204,95884,1,8,0:0:0:0:
62,292,96306,2,0,P|59:309|62:326,1,35,10|8,0:0|0:0,0:0:0:0:
140,325,96772,2,0,P|143:308|140:291,1,35,10|8,0:0|0:0,0:0:0:0:
100,193,97244,6,0,P|97:210|100:227,1,35,10|8,0:0|0:0,0:0:0:0:
157,141,97718,1,10,0:0:0:0:
0,50,98181,1,10,0:0:0:0:
157,141,98618,2,0,L|223:132,1,35,10|10,0:0|0:0,0:0:0:0:
100,193,99106,5,8,0:0:0:0:
248,84,99571,1,8,0:0:0:0:
268,266,100034,2,0,L|254:313,1,35,10|8,0:0|0:0,0:0:0:0:
335,228,100514,2,0,L|346:275,1,35,10|8,0:0|0:0,0:0:0:0:
374,161,100956,6,0,L|398:186,1,35,10|10,0:0|0:0,0:0:0:0:
299,159,101418,2,0,L|251:170,1,35,8|8,0:0|0:0,0:0:0:0:
338,95,101903,1,10,0:0:0:0:
338,95,102340,2,0,L|347:61,1,35,10|10,0:0|0:0,0:0:0:0:
374,161,102808,5,8,0:0:0:0:
308,0,103264,1,8,0:0:0:0:
374,161,103720,2,0,P|391:160|413:155,1,35,10|8,0:0|0:0,0:0:0:0:
303,193,104188,2,0,P|312:207|327:223,1,35,10|8,0:0|0:0,0:0:0:0:
239,147,104671,6,0,P|230:162|224:183,1,35,10|8,0:0|0:0,0:0:0:0:
308,113,105112,1,10,0:0:0:0:
123,60,105559,1,10,0:0:0:0:
308,113,106020,2,0,L|360:100,1,35,10|10,0:0|0:0,0:0:0:0:
243,69,106510,5,8,0:0:0:0:
132,228,106964,1,8,0:0:0:0:
325,244,107425,2,0,L|313:184,1,35,10|8,0:0|0:0,0:0:0:0:
262,292,107867,2,0,L|250:352,1,35,10|8,0:0|0:0,0:0:0:0:
402,253,108363,6,0,L|411:198,1,45.4999979171754,10|10,0:0|0:0,0:0:0:0:
364,141,108817,1,8,0:0:0:0:
444,134,109042,1,8,0:0:0:0:
398,66,109268,2,0,P|376:60|353:61,1,45.4999979171754,10|0,0:0|0:0,0:0:0:0:
243,103,109729,2,0,P|265:109|288:108,1,45.4999979171754,10|10,0:0|0:0,0:0:0:0:
194,39,110222,5,8,0:0:0:0:
270,230,110653,1,8,0:0:0:0:
194,39,111107,2,0,L|146:32,1,45.4999979171754,10|8,0:0|0:0,0:0:0:0:
152,149,111575,2,0,L|133:104,1,45.4999979171754,10|8,0:0|0:0,0:0:0:0:
35,167,112063,6,0,L|64:128,1,45.4999979171754,10|8,0:0|0:0,0:0:0:0:
99,209,112511,1,10,0:0:0:0:
19,20,112939,1,10,0:0:0:0:
99,209,113411,2,0,L|116:250,1,45.4999979171754,10|10,0:0|0:0,0:0:0:0:
152,149,113898,5,8,0:0:0:0:
81,352,114329,1,8,0:0:0:0:
152,149,114787,2,0,P|176:145|197:150,1,45.4999979171754,10|8,0:0|0:0,0:0:0:0:
214,220,115245,2,0,P|192:224|170:220,1,45.4999979171754,10|8,0:0|0:0,0:0:0:0:
269,166,115723,6,0,P|293:162|314:167,1,45.4999979171754,8|10,0:0|0:0,0:0:0:0:
359,225,116199,1,10,0:0:0:0:
286,236,116414,1,8,0:0:0:0:
386,155,116666,1,10,0:0:0:0:
386,155,117113,2,0,P|407:165|422:182,1,45.4999979171754,10|10,0:0|0:0,0:0:0:0:
359,225,117607,5,8,0:0:0:0:
437,12,118012,1,8,0:0:0:0:
359,225,118466,2,0,P|374:241|394:251,1,45.4999979171754,10|8,0:0|0:0,0:0:0:0:
421,181,118946,2,0,P|406:164|385:154,1,45.4999979171754,10|8,0:0|0:0,0:0:0:0:
262,108,119416,5,10,0:0:0:0:
311,166,119654,1,8,0:0:0:0:
337,95,119892,1,8,0:0:0:0:
120,58,120329,6,0,L|112:114,1,45.4999979171754,10|8,0:0|0:0,0:0:0:0:
198,162,120806,2,0,L|191:116,1,45.4999979171754,10|10,0:0|0:0,0:0:0:0:
101,178,121282,1,8,0:0:0:0:
201,39,121733,1,8,0:0:0:0:
101,178,122205,6,0,L|107:223,1,45.4999979171754,10|8,0:0|0:0,0:0:0:0:
229,228,122653,2,0,L|223:183,1,45.4999979171754,10|8,0:0|0:0,0:0:0:0:
119,304,123121,6,0,L|199:300,1,59.5000011348725,12|10,0:0|0:0,0:0:0:0:
252,330,123570,1,10,0:0:0:0:
189,379,123788,1,8,0:0:0:0:
324,358,124031,2,0,P|331:329|325:299,1,59.5000011348725,10|8,0:0|0:0,0:0:0:0:
266,196,124503,2,0,P|259:224|265:254,1,59.5000011348725,10|10,0:0|0:0,0:0:0:0:
412,195,124973,5,12,0:0:0:0:
350,147,125193,1,8,0:0:0:0:
339,225,125414,1,8,0:0:0:0:
148,136,125875,6,0,L|156:60,1,59.5000011348725,10|8,0:0|0:0,0:0:0:0:
73,193,126336,2,0,L|65:117,1,59.5000011348725,10|8,0:0|0:0,0:0:0:0:
132,249,126787,6,0,P|160:255|190:249,1,59.5000011348725,14|8,0:0|0:0,0:0:0:0:
237,188,127268,1,8,0:0:0:0:
161,177,127498,1,10,0:0:0:0:
285,127,127736,2,0,P|304:149|314:178,1,59.5000011348725,10|8,0:0|0:0,0:0:0:0:
315,299,128204,2,0,P|296:277|287:249,1,59.5000011348725,10|10,0:0|0:0,0:0:0:0:
393,312,128668,6,0,L|461:304,1,59.5000011348725,12|8,0:0|0:0,0:0:0:0:
364,239,129126,1,8,0:0:0:0:
119,312,129602,6,0,L|51:304,1,59.5000011348725,10|8,0:0|0:0,0:0:0:0:
148,239,130038,2,0,L|207:245,1,59.5000011348725,10|8,0:0|0:0,0:0:0:0:
119,166,130480,6,0,L|51:174,1,59.5000011348725,12|10,0:0|0:0,0:0:0:0:
148,93,130927,1,10,0:0:0:0:
99,31,131152,1,12,0:0:0:0:
226,81,131390,2,0,L|294:89,1,59.5000011348725,10|8,0:0|0:0,0:0:0:0:
335,149,131862,1,14,0:0:0:0:
256,161,132070,1,10,0:0:0:0:
384,210,132340,6,0,P|405:188|413:160,1,59.5000011348725,12|8,0:0|0:0,0:0:0:0:
306,222,132792,1,8,0:0:0:0:
473,365,133283,2,0,L|499:304,1,59.5000011348725,10|8,0:0|0:0,0:0:0:0:
360,285,133730,2,0,L|336:339,1,59.5000011348725,10|8,0:0|0:0,0:0:0:0:
437,257,134204,5,14,0:0:0:0:
374,204,134421,1,10,0:0:0:0:
415,130,134659,2,0,P|439:147|451:175,1,59.5000011348725,10|4,0:0|0:0,0:0:0:0:
297,176,135100,2,0,P|308:148|332:131,1,59.5000011348725,10|0,0:0|0:0,0:0:0:0:
360,285,135554,1,14,0:0:0:0:
374,204,135799,1,10,0:0:0:0:
282,313,136064,5,8,0:0:0:0:
451,175,136501,1,8,0:0:0:0:
246,97,136969,2,0,P|238:128|245:157,1,59.5000011348725,10|8,0:0|0:0,0:0:0:0:
315,128,137434,2,0,P|323:97|316:68,1,59.5000011348725,10|8,0:0|0:0,0:0:0:0:
177,66,137860,6,0,L|160:131,1,59.5000011348725,12|10,0:0|0:0,0:0:0:0:
143,196,138328,1,10,0:0:0:0:
32,159,138571,2,0,L|96:141,1,59.5000011348725,12|10,0:0|0:0,0:0:0:0:
161,123,139037,1,4,0:0:0:0:
125,269,139259,2,0,L|67:284,1,59.5000011348725,14|10,0:0|0:0,0:0:0:0:
143,196,139723,5,12,0:0:0:0:
198,287,139950,1,8,0:0:0:0:
273,198,140190,2,0,L|215:213,1,59.5000011348725,12|0,0:0|0:0,0:0:0:0:
329,257,140664,2,0,L|370:299,1,59.5000011348725,10|8,0:0|0:0,0:0:0:0:
368,121,141116,2,0,L|352:179,1,59.5000011348725,10|8,0:0|0:0,0:0:0:0:
512,149,141581,5,14,0:0:0:0:
448,94,141804,1,10,0:0:0:0:
432,176,142067,2,0,L|415:233,1,59.5000011348725,10|4,0:0|0:0,0:0:0:0:
294,183,142521,2,0,P|322:174|351:178,1,59.5000011348725,10|0,0:0|0:0,0:0:0:0:
218,201,142993,2,0,P|189:209|160:205,1,59.5000011348725,14|10,0:0|0:0,0:0:0:0:
150,63,143418,5,12,0:0:0:0:
184,132,143645,1,0,0:0:0:0:
192,0,143872,1,8,0:0:0:0:
372,166,144580,2,0,P|345:174|320:175,2,52.5000020027161,8|8|8,0:0|0:0|0:0,0:0:0:0:
333,100,145281,6,0,P|269:119|247:183,1,140,12|0,0:0|0:0,0:0:0:0:
87,268,146642,2,0,P|188:251|267:321,1,210,12|0,0:0|0:0,0:0:0:0:
153,377,148465,5,12,0:0:0:0:
157,215,152712,6,0,P|221:220|276:152,1,140,12|0,0:0|0:0,0:0:0:0:
193,139,154094,2,0,P|225:237|333:230,1,224,12|0,0:0|0:0,0:0:0:0:
259,87,156573,5,12,0:0:0:0:
