osu file format v14

[General]
AudioFilename: audio.mp3
AudioLeadIn: 0
PreviewTime: 75950
Countdown: 0
SampleSet: Soft
StackLeniency: 0.3
Mode: 0
LetterboxInBreaks: 0
EpilepsyWarning: 1
WidescreenStoryboard: 1

[Editor]
Bookmarks: 4742,7709,15951,26500,37050,42324,52874,63423,73973,94083,110896,133808,141225
DistanceSpacing: 0.4
BeatDivisor: 4
GridSize: 32
TimelineZoom: 2.9

[Metadata]
Title:Hikari
TitleUnicode:光
Artist:RADWIMPS
ArtistUnicode:RADWIMPS
Creator:Haruto
Version:apple's Insane
Source:
Tags:Light Human Bloom 人間開花 Ningen kaika short cut version haruto_aizawa monstrata ipas newipas appleeaterx milan- rizen kalibe sotarks sytarno irohas mugiwarasekai a q p w a_q_p_w kimi no na wa nawa 君の名は。 your name
BeatmapID:1172998
BeatmapSetID:547714

[Difficulty]
HPDrainRate:6
CircleSize:4
OverallDifficulty:8
ApproachRate:9
SliderMultiplier:1
SliderTickRate:1

[Events]
//Background and Video events
0,0,"7374744.jpg",0,0
//Break Periods
//Storyboard Layer 0 (Background)
//Storyboard Layer 1 (Fail)
//Storyboard Layer 2 (Pass)
//Storyboard Layer 3 (Foreground)
//Storyboard Sound Samples

[TimingPoints]
120,331.491712707182,4,2,2,60,1,0
4762,315.789473684211,4,2,2,60,1,0
4762,-54.054054054054,4,2,2,60,0,0
5387,329.789923818528,4,2,2,60,1,0
5387,-54.054054054054,4,2,2,60,0,0
15940,-57.1428571428571,4,2,2,60,0,0
42324,329.67032967033,4,2,2,60,1,0
42324,-57.1428571428571,4,2,2,60,0,0
76197,-57.1428571428571,4,2,2,30,0,0
76609,-54.054054054054,4,2,2,75,0,1
101664,327.868852459016,4,2,2,70,1,1
101664,-54.054054054054,4,2,2,70,0,1
102975,329.67032967033,4,2,2,60,1,0
102975,-54.054054054054,4,2,2,60,0,0
134293,-54.054054054054,4,2,0,60,0,0
134458,-54.054054054054,4,2,2,60,0,0
141216,-54.054054054054,4,2,2,5,0,0

[Colours]
Combo1 : 248,243,97
Combo2 : 122,145,205
Combo3 : 240,175,145
Combo4 : 80,163,186

[HitObjects]
57,176,4762,6,0,L|148:162,1,92.4999996471405,12|0,0:0|3:0,0:0:0:0:
157,54,4998,1,0,0:0:0:0:
145,62,5077,2,0,P|111:81|94:95,1,46.2499998235703,8|0,0:0|0:0,0:0:0:0:
127,249,5235,2,0,P|146:262|166:272,1,46.2499998235703,8|8,0:0|0:0,0:0:0:0:
394,134,5387,6,0,L|492:121,1,92.4999996471405,4|0,3:0|3:0,0:0:0:0:
310,59,5716,1,8,0:0:0:0:
405,239,5881,1,8,3:2:0:0:
405,239,5964,1,0,3:0:0:0:
405,239,6046,2,0,L|384:342,1,92.4999996471405,0|0,3:3|3:0,0:0:0:0:
272,160,6376,2,0,L|251:263,1,92.4999996471405,8|0,0:0|3:0,0:0:0:0:
60,371,6706,5,2,3:2:0:0:
107,165,6871,1,2,3:2:0:0:
234,334,7035,1,8,0:0:0:0:
29,274,7199,1,8,3:2:0:0:
29,274,7282,1,0,3:0:0:0:
29,274,7365,2,0,L|139:254,1,92.4999996471405,0|0,3:2|3:2,0:0:0:0:
310,59,7695,2,0,L|219:76,1,92.4999996471405,10|2,0:0|3:2,0:0:0:0:
512,84,8025,5,2,3:2:0:0:
401,131,8190,1,2,3:2:0:0:
455,328,8355,2,0,L|481:232,1,92.4999996471405,8|2,0:0|3:2,0:0:0:0:
218,75,8684,1,2,3:2:0:0:
304,170,8849,1,2,3:2:0:0:
424,10,9014,1,8,0:0:0:0:
205,182,9179,1,2,3:2:0:0:
205,182,9262,1,0,0:0:0:0:
205,182,9344,6,0,L|180:271,1,92.4999996471405,2|0,3:2|0:0,0:0:0:0:
7,49,9674,2,0,L|104:29,1,92.4999996471405,8|0,0:0|3:2,0:0:0:0:
113,25,9921,1,0,0:0:0:0:
128,22,10004,1,2,3:2:0:0:
205,182,10169,1,2,3:2:0:0:
329,12,10333,2,0,L|304:101,1,92.4999996471405,8|2,0:0|3:2,0:0:0:0:
358,331,10663,5,4,0:1:0:0:
447,238,10828,1,0,0:0:0:0:
303,101,10993,1,8,0:0:0:0:
335,235,11158,1,8,3:2:0:0:
335,235,11240,1,0,3:2:0:0:
335,235,11323,2,0,L|437:217,1,92.4999996471405,0|2,3:2|3:2,0:0:0:0:
169,135,11653,2,0,L|67:153,1,92.4999996471405,8|2,0:2|3:2,0:0:0:0:
21,342,11982,5,2,3:2:0:0:
73,254,12147,1,2,3:2:0:0:
345,270,12312,1,8,0:2:0:0:
244,209,12477,1,8,3:2:0:0:
244,209,12560,1,0,3:2:0:0:
244,209,12642,1,2,3:2:0:0:
175,305,12807,1,2,3:2:0:0:
169,135,12972,2,0,L|190:26,1,92.4999996471405,8|8,0:0|0:0,0:0:0:0:
465,80,13302,6,0,P|408:103|370:98,1,92.4999996471405,2|2,3:2|3:2,0:0:0:0:
165,29,13631,2,0,P|222:6|260:11,1,92.4999996471405,8|8,0:0|0:0,0:0:0:0:
266,17,13879,1,0,0:0:0:0:
279,28,13961,1,2,3:2:0:0:
378,100,14126,1,2,3:2:0:0:
247,288,14291,2,0,L|268:179,1,92.4999996471405,8|8,0:0|0:0,0:0:0:0:
270,178,14538,1,0,0:0:0:0:
274,161,14621,5,2,3:2:0:0:
391,221,14786,1,2,3:2:0:0:
306,358,14951,2,0,B|187:349|253:296|118:297,1,184.999999294281,8|0,0:2|3:0,0:0:0:0:
107,261,15363,1,0,3:3:0:0:
97,215,15445,1,8,3:2:0:0:
99,169,15528,1,8,3:2:0:0:
112,125,15610,1,8,0:0:0:0:
264,197,15775,1,0,0:0:0:0:
55,46,15940,6,0,P|139:27|204:81,1,175.00000166893,4|8,0:1|0:0,0:0:0:0:
264,197,16435,1,0,3:2:0:0:
295,17,16600,2,0,P|312:75|312:110,1,87.500000834465,2|2,3:2|3:2,0:0:0:0:
178,268,16929,2,0,P|161:210|161:175,1,87.500000834465,10|0,0:0|3:0,0:0:0:0:
312,101,17259,6,0,L|404:117,1,87.500000834465,0|0,3:0|0:0,0:0:0:0:
459,237,17589,2,0,L|367:221,1,87.500000834465,8|0,0:0|3:0,0:0:0:0:
178,268,17919,1,2,3:2:0:0:
264,197,18084,1,2,3:2:0:0:
378,326,18249,2,0,L|286:310,1,87.500000834465,10|2,0:0|3:2,0:0:0:0:
98,357,18578,6,0,P|61:292|89:199,1,175.00000166893,4|8,0:0|0:0,0:0:0:0:
166,22,19073,1,0,3:2:0:0:
106,103,19238,2,0,L|5:120,1,87.500000834465,2|2,3:2|3:2,0:0:0:0:
178,268,19568,2,0,L|212:177,1,87.500000834465,10|0,0:0|3:2,0:0:0:0:
333,28,19898,6,0,L|299:119,1,87.500000834465,0|0,3:2|0:0,0:0:0:0:
365,242,20227,1,8,0:0:0:0:
449,170,20392,1,0,3:0:0:0:
302,109,20557,2,0,L|208:129,1,87.500000834465,2|2,3:2|3:2,0:0:0:0:
399,329,20887,2,0,L|484:310,1,87.500000834465,10|0,0:0|3:0,0:0:0:0:
257,225,21217,6,0,L|223:335,1,87.500000834465,0|0,3:2|0:0,0:0:0:0:
60,180,21547,2,0,L|94:70,1,87.500000834465,8|0,0:0|3:0,0:0:0:0:
257,225,21876,1,2,3:2:0:0:
338,147,22041,1,2,3:2:0:0:
259,70,22206,2,0,L|152:87,1,87.500000834465,10|0,0:0|0:3,0:0:0:0:
370,256,22536,6,0,P|453:266|515:183,2,175.00000166893,0|8|2,3:3|0:0|3:2,0:0:0:0:
338,147,23360,1,2,3:2:0:0:
464,48,23525,2,0,L|438:145,1,87.500000834465,10|0,0:0|3:2,0:0:0:0:
327,348,23855,6,0,B|265:340|265:340|229:363|229:363|151:353,1,175.00000166893,0|8,3:2|0:0,0:0:0:0:
37,194,24350,1,0,3:2:0:0:
109,122,24515,2,0,P|137:182|135:212,1,87.500000834465,2|2,3:2|3:2,0:0:0:0:
51,370,24845,2,0,P|23:310|25:280,1,87.500000834465,10|0,0:0|3:0,0:0:0:0:
136,201,25174,6,0,L|231:217,1,87.500000834465,0|0,3:0|0:0,0:0:0:0:
319,117,25504,2,0,L|232:102,1,87.500000834465,8|0,0:0|0:0,0:0:0:0:
417,58,25834,1,2,3:2:0:0:
499,137,25999,1,6,3:2:0:0:
319,117,26164,1,10,0:0:0:0:
424,323,26329,1,0,3:0:0:0:
424,323,26411,1,0,0:0:0:0:
424,323,26494,6,0,B|377:295|377:295|365:238|405:176,1,175.00000166893,4|8,0:1|0:0,0:0:0:0:
424,323,26988,1,0,0:0:0:0:
268,220,27153,2,0,L|163:242,1,87.500000834465,2|2,3:2|3:2,0:0:0:0:
248,86,27483,2,0,L|353:64,1,87.500000834465,10|0,0:0|3:2,0:0:0:0:
118,326,27813,6,0,P|76:262|102:173,2,175.00000166893,0|8|2,3:2|0:0|3:2,0:0:0:0:
182,237,28637,1,2,3:2:0:0:
158,42,28801,1,10,0:0:0:0:
102,172,28967,1,0,3:2:0:0:
158,42,29132,6,0,L|342:72,1,175.00000166893,0|8,3:0|0:0,0:0:0:0:
406,249,29627,1,0,3:0:0:0:
330,70,29791,1,2,3:2:0:0:
262,153,29956,1,2,3:2:0:0:
431,84,30121,2,0,P|459:127|464:165,1,87.500000834465,10|0,0:0|0:0,0:0:0:0:
290,327,30451,6,0,L|192:303,1,87.500000834465,2|0,3:2|0:0,0:0:0:0:
36,169,30780,1,8,0:0:0:0:
137,121,30946,1,0,3:2:0:0:
90,268,31111,2,0,L|64:361,1,87.500000834465,2|6,3:2|3:2,0:0:0:0:
226,201,31440,2,0,L|254:108,1,87.500000834465,10|0,0:0|3:2,0:0:0:0:
290,327,31770,6,0,B|347:329|396:351|396:351|434:340|442:299,1,175.00000166893,4|8,0:1|0:0,0:0:0:0:
484,111,32265,1,0,3:0:0:0:
419,200,32430,2,0,L|518:222,1,87.500000834465,2|2,3:2|3:2,0:0:0:0:
404,39,32760,2,0,L|318:20,1,87.500000834465,10|0,0:0|0:0,0:0:0:0:
80,211,33089,6,0,P|159:230|227:166,1,175.00000166893,0|8,3:0|0:0,0:0:0:0:
53,51,33584,1,2,3:2:0:0:
138,129,33749,2,0,L|164:30,1,87.500000834465,2|2,3:2|3:2,0:0:0:0:
325,173,34079,2,0,L|299:272,1,87.500000834465,10|0,0:0|3:2,0:0:0:0:
198,338,34409,6,0,L|98:312,1,87.500000834465,0|0,3:2|3:2,0:0:0:0:
325,173,34738,2,0,L|425:199,1,87.500000834465,8|0,0:0|3:2,0:0:0:0:
250,83,35068,1,2,3:2:0:0:
138,129,35233,1,0,3:2:0:0:
197,286,35398,2,0,L|226:183,1,87.500000834465,10|0,0:0|0:0,0:0:0:0:
433,110,35728,6,0,L|404:213,1,87.500000834465,4|0,3:3|0:0,0:0:0:0:
220,201,36058,1,8,0:0:0:0:
295,314,36223,1,0,3:2:0:0:
295,314,36305,1,0,0:0:0:0:
295,314,36387,2,0,L|393:298,1,87.500000834465,6|0,3:2|3:2,0:0:0:0:
399,297,36635,1,0,3:2:0:0:
416,294,36717,1,8,0:0:0:0:
220,201,36882,1,0,3:0:0:0:
476,366,37047,6,0,B|509:314|509:314|496:198,1,175.00000166893,4|10,0:1|0:0,0:0:0:0:
344,11,37542,2,0,B|311:63|311:63|324:179,1,175.00000166893,2|2,3:2|3:2,0:0:0:0:
511,85,38036,2,0,P|451:98|426:120,1,87.500000834465,10|0,0:0|3:0,0:0:0:0:
296,365,38366,6,0,P|229:319|112:328,1,175.00000166893,2|10,3:2|0:0,0:0:0:0:
59,154,38861,2,0,P|130:201|217:201,1,175.00000166893,2|2,3:2|3:2,0:0:0:0:
192,9,39356,2,0,P|165:73|165:118,1,87.500000834465,8|0,0:0|0:0,0:0:0:0:
328,273,39685,6,0,L|419:258,1,87.500000834465,4|2,0:1|0:0,0:0:0:0:
469,97,40015,2,0,L|378:112,1,87.500000834465,10|0,0:0|3:0,0:0:0:0:
314,163,40263,1,0,0:0:0:0:
314,163,40345,2,0,L|223:148,1,87.500000834465,2|2,3:2|0:0,0:0:0:0:
30,90,40675,1,8,0:0:0:0:
148,75,40840,1,2,0:0:0:0:
148,75,40922,1,0,0:0:0:0:
148,75,41005,6,0,L|114:169,1,87.500000834465,2|2,3:2|3:2,0:0:0:0:
4,364,41334,2,0,B|44:326|44:326|107:330|174:370,1,175.00000166893,12|6,0:0|3:2,0:0:0:0:
396,284,41828,1,8,0:0:0:0:
396,284,41911,1,8,0:0:0:0:
396,284,41993,1,8,0:0:0:0:
239,233,42159,1,8,0:0:0:0:
408,379,42324,6,0,L|450:206,1,175.00000166893,4|8,0:1|0:0,0:0:0:0:
374,34,42818,1,0,0:0:0:0:
300,113,42983,2,0,P|358:142|401:137,1,87.500000834465,2|2,3:2|3:2,0:0:0:0:
512,273,43313,2,0,P|454:302|411:297,1,87.500000834465,10|0,0:0|3:0,0:0:0:0:
238,237,43642,6,0,L|50:276,1,175.00000166893,0|8,3:0|0:0,0:0:0:0:
121,104,44137,1,0,3:0:0:0:
35,170,44302,2,0,P|14:130|17:71,1,87.500000834465,2|2,3:2|3:2,0:0:0:0:
208,44,44631,2,0,P|228:93|226:148,1,87.500000834465,10|0,0:0|3:0,0:0:0:0:
153,286,44961,6,0,L|52:270,1,87.500000834465,2|0,3:2|0:0,0:0:0:0:
229,127,45291,2,0,L|330:143,1,87.500000834465,8|0,0:0|3:0,0:0:0:0:
500,95,45620,1,2,3:2:0:0:
386,54,45785,1,2,3:2:0:0:
397,237,45950,2,0,L|425:135,1,87.500000834465,8|0,0:0|3:2,0:0:0:0:
208,47,46280,6,0,P|129:32|60:96,2,175.00000166893,0|10|2,3:2|0:0|3:2,0:0:0:0:
140,205,47104,1,2,3:2:0:0:
62,267,47269,2,0,P|49:229|52:165,1,87.500000834465,10|0,0:0|3:0,0:0:0:0:
212,140,47598,6,0,L|302:160,1,87.500000834465,0|0,3:0|0:0,0:0:0:0:
401,59,47928,2,0,L|311:39,1,87.500000834465,8|0,3:2|0:3,0:0:0:0:
470,146,48258,1,2,3:2:0:0:
389,221,48422,1,2,3:2:0:0:
459,372,48587,2,0,L|485:274,1,87.500000834465,10|0,0:0|3:2,0:0:0:0:
297,158,48917,6,0,L|271:256,1,87.500000834465,0|0,3:0|0:0,0:0:0:0:
43,302,49247,1,8,0:0:0:0:
140,227,49411,1,0,0:0:0:0:
255,360,49576,2,0,L|147:331,1,87.500000834465,2|2,3:2|3:2,0:0:0:0:
117,128,49906,2,0,L|9:99,1,87.500000834465,10|0,0:0|3:2,0:0:0:0:
297,158,50236,6,0,P|368:169|437:90,1,175.00000166893,0|8,3:2|0:0,0:0:0:0:
339,71,50730,1,0,3:0:0:0:
358,263,50895,2,0,P|402:260|447:222,1,87.500000834465,2|2,3:2|3:2,0:0:0:0:
339,71,51225,2,0,L|245:54,1,87.500000834465,10|0,0:0|0:0,0:0:0:0:
61,205,51554,6,0,B|126:217|126:217|161:198|161:198|235:214,1,175.00000166893,0|8,3:0|0:0,0:0:0:0:
362,359,52049,1,2,3:2:0:0:
484,211,52214,2,0,L|460:301,1,87.500000834465,2|6,3:2|3:2,0:0:0:0:
362,359,52543,1,8,0:0:0:0:
186,198,52708,1,2,0:0:0:0:
186,198,52791,1,0,0:0:0:0:
186,198,52873,6,0,B|209:245|209:245|255:268|328:239,1,175.00000166893,4|8,0:1|0:0,0:0:0:0:
192,95,53367,1,0,3:2:0:0:
298,66,53532,2,0,L|274:165,1,87.500000834465,2|2,3:2|3:2,0:0:0:0:
461,295,53862,2,0,L|485:196,1,87.500000834465,10|0,0:0|3:0,0:0:0:0:
298,66,54192,6,0,L|201:46,1,87.500000834465,0|0,3:0|3:0,0:0:0:0:
27,122,54521,1,8,0:0:0:0:
90,32,54686,1,0,3:0:0:0:
146,136,54851,2,0,L|121:228,1,87.500000834465,2|2,3:2|3:2,0:0:0:0:
220,358,55181,2,0,L|245:266,1,87.500000834465,10|0,0:0|3:0,0:0:0:0:
298,66,55510,6,0,B|399:74|343:119|463:117,1,175.00000166893,0|8,0:0|0:0,0:0:0:0:
296,158,56005,1,0,3:0:0:0:
437,24,56170,1,2,3:2:0:0:
437,24,56334,1,2,3:2:0:0:
497,252,56499,2,0,L|476:341,1,87.500000834465,10|2,0:0|0:0,0:0:0:0:
296,158,56829,6,0,L|387:145,1,87.500000834465,0|0,0:0|0:0,0:0:0:0:
346,273,57159,2,0,L|255:286,1,87.500000834465,8|0,0:0|3:0,0:0:0:0:
81,193,57487,1,2,3:2:0:0:
184,131,57653,1,2,3:2:0:0:
152,327,57818,2,0,L|174:227,1,87.500000834465,10|0,0:0|3:0,0:0:0:0:
93,79,58148,6,0,P|151:23|244:39,1,175.00000166893,0|8,3:0|0:0,0:0:0:0:
427,73,58642,1,0,0:0:0:0:
343,13,58807,2,0,P|329:65|327:107,1,87.500000834465,2|2,3:2|3:2,0:0:0:0:
482,233,59137,2,0,P|496:181|498:139,1,87.500000834465,10|0,0:0|3:0,0:0:0:0:
189,143,59466,6,0,B|289:148|237:194|359:192,2,175.00000166893,0|8|2,3:0|0:0|3:2,0:0:0:0:
15,77,60291,1,2,3:2:0:0:
101,191,60455,2,0,P|91:144|99:100,1,87.500000834465,10|0,0:0|3:0,0:0:0:0:
232,272,60785,6,0,L|130:293,1,87.500000834465,0|0,3:2|0:0,0:0:0:0:
331,329,61115,1,8,0:0:0:0:
424,252,61280,1,0,3:2:0:0:
343,122,61444,2,0,L|319:217,1,87.500000834465,2|2,3:2|3:2,0:0:0:0:
479,50,61774,2,0,L|455:145,1,87.500000834465,10|0,0:0|3:0,0:0:0:0:
238,75,62103,5,6,0:3:0:0:
358,35,62269,1,2,3:2:0:0:
181,171,62433,2,0,L|90:157,1,87.500000834465,12|0,0:0|3:2,0:0:0:0:
75,154,62681,1,0,0:0:0:0:
61,151,62763,1,8,0:0:0:0:
101,370,62928,2,0,L|112:318,1,43.7500004172325,8|0,0:0|3:0,0:0:0:0:
54,248,63093,1,0,3:0:0:0:
343,356,63258,2,0,L|354:304,1,43.7500004172325,8|0,3:0|3:0,0:0:0:0:
309,228,63422,6,0,B|383:205|430:258|430:258|436:222|467:199,1,175.00000166893,4|8,0:1|0:0,0:0:0:0:
341,14,63917,2,0,P|318:76|326:127,1,87.500000834465,2|0,3:2|3:0,0:0:0:0:
411,137,64247,1,2,3:2:0:0:
220,47,64411,2,0,L|82:73,1,131.250001251698,8|0,0:0|0:0,0:0:0:0:
75,57,64741,6,0,P|94:135|17:185,1,175.00000166893,2|10,3:2|0:0,0:0:0:0:
135,254,65235,1,0,3:0:0:0:
135,254,65317,1,0,0:0:0:0:
135,254,65400,2,0,L|231:238,1,87.500000834465,2|2,3:2|3:2,0:0:0:0:
415,123,65730,1,8,0:0:0:0:
236,55,65895,2,0,L|219:114,1,43.7500004172325,0|0,0:0|0:0,0:0:0:0:
307,169,66060,5,4,0:0:0:0:
415,123,66225,1,2,0:0:0:0:
491,311,66389,1,10,0:0:0:0:
318,277,66554,1,2,3:2:0:0:
318,277,66637,1,0,0:0:0:0:
318,277,66719,2,0,L|414:261,1,87.500000834465,0|2,3:2|3:2,0:0:0:0:
307,169,67049,1,8,0:0:0:0:
198,187,67214,1,0,3:2:0:0:
198,187,67296,1,0,0:0:0:0:
198,187,67378,6,0,P|174:246|171:280,1,87.500000834465,2|0,0:0|3:2,0:0:0:0:
375,362,67708,1,10,0:0:0:0:
473,192,67873,1,2,0:0:0:0:
473,192,67955,1,0,0:0:0:0:
473,192,68038,2,0,L|461:96,1,87.500000834465,2|2,3:0|3:2,0:0:0:0:
283,3,68367,2,0,L|295:99,1,87.500000834465,12|0,0:2|0:3,0:0:0:0:
221,359,68697,6,0,B|159:345|106:378|106:378|82:338|103:321,1,175.00000166893,4|8,0:1|3:2,0:0:0:0:
306,233,69192,2,0,L|318:321,1,87.500000834465,2|0,3:2|3:0,0:0:0:0:
198,187,69521,1,2,0:2:0:0:
80,217,69686,2,0,L|91:130,1,87.500000834465,10|0,0:0|0:0,0:0:0:0:
113,49,69933,1,0,0:0:0:0:
113,49,70016,6,0,P|166:69|265:7,1,175.00000166893,2|10,3:2|0:2,0:0:0:0:
471,67,70510,1,0,3:2:0:0:
471,67,70593,1,0,0:0:0:0:
471,67,70675,1,2,3:2:0:0:
346,105,70840,1,2,3:2:0:0:
510,175,71005,1,2,3:2:0:0:
351,271,71170,2,0,L|400:261,1,43.7500004172325,2|0,3:2|0:0,0:0:0:0:
487,330,71334,6,0,B|387:321|436:374|316:358,1,175.00000166893,4|8,0:1|0:2,0:0:0:0:
156,193,71829,1,2,3:2:0:0:
156,193,71911,1,0,0:0:0:0:
156,193,71994,2,0,L|176:108,1,87.500000834465,2|2,3:2|3:2,0:0:0:0:
270,207,72324,2,0,L|250:292,1,87.500000834465,8|2,0:2|3:2,0:0:0:0:
247,307,72571,1,0,0:0:0:0:
243,322,72653,5,2,3:2:0:0:
156,193,72818,1,2,0:2:0:0:
295,116,72983,1,8,3:2:0:0:
386,242,73148,1,2,3:2:0:0:
386,242,73230,1,0,0:0:0:0:
386,242,73313,2,0,L|281:225,1,87.500000834465,2|0,3:2|3:2,0:0:0:0:
112,110,73642,2,0,P|108:71|134:16,1,87.500000834465,10|0,0:2|3:2,0:0:0:0:
405,32,73972,5,12,0:2:0:0:
295,116,74137,1,0,3:2:0:0:
442,165,74302,1,12,0:2:0:0:
301,30,74466,1,0,3:2:0:0:
341,203,74631,5,12,0:2:0:0:
488,84,74796,1,0,3:2:0:0:
295,116,74961,1,12,0:2:0:0:
419,267,75126,1,0,3:2:0:0:
256,353,75291,6,0,L|204:344,1,43.7500004172325,8|8,3:0|3:0,0:0:0:0:
205,258,75455,2,0,L|153:249,1,43.7500004172325,8|2,3:0|3:2,0:0:0:0:
168,156,75620,2,0,L|71:142,1,87.500000834465,0|8,3:0|3:3,0:0:0:0:
61,139,75867,1,0,3:2:0:0:
45,136,75950,1,12,0:0:0:0:
140,51,76115,6,0,L|88:42,1,43.7500004172325,12|0,0:2|0:0,0:0:0:0:
473,332,76609,6,0,P|407:347|347:316,1,138.749999470711,12|0,0:1|0:0,0:0:0:0:
337,321,76939,2,0,P|326:271|333:223,1,92.4999996471405,10|0,0:0|3:0,0:0:0:0:
419,63,77269,2,0,P|430:113|423:161,1,92.4999996471405,2|0,3:2|3:0,0:0:0:0:
208,204,77598,2,0,L|107:190,1,92.4999996471405,10|0,0:0|0:0,0:0:0:0:
63,269,77845,1,0,0:0:0:0:
63,269,77928,6,0,B|19:223|19:223|51:89,1,184.999999294281,2|8,3:2|0:0,0:0:0:0:
280,73,78422,1,0,3:0:0:0:
178,15,78587,2,0,L|157:109,1,92.4999996471405,0|0,3:2|3:2,0:0:0:0:
302,255,78917,1,10,0:2:0:0:
237,166,79082,1,2,3:2:0:0:
108,349,79247,6,0,B|170:335|170:335|214:365|214:365|288:355,1,184.999999294281,2|10,3:2|0:2,0:0:0:0:
359,141,79741,1,0,3:2:0:0:
359,141,79824,1,0,0:0:0:0:
359,141,79906,2,0,P|311:119|270:120,1,92.4999996471405,0|0,3:0|3:0,0:0:0:0:
98,193,80236,2,0,P|146:215|187:214,1,92.4999996471405,10|2,0:0|0:0,0:0:0:0:
448,71,80565,6,0,L|469:210,1,138.749999470711,2|0,3:2|0:0,0:0:0:0:
484,202,80895,2,0,L|466:302,1,92.4999996471405,10|0,0:0|3:0,0:0:0:0:
281,355,81225,2,0,L|299:255,1,92.4999996471405,2|0,3:2|3:2,0:0:0:0:
448,71,81554,1,10,0:0:0:0:
295,137,81719,1,0,0:0:0:0:
295,137,81802,1,0,0:0:0:0:
295,137,81884,6,0,L|392:155,1,92.4999996471405,4|0,0:1|3:0,0:0:0:0:
207,268,82214,2,0,L|70:242,1,138.749999470711,10|0,3:2|0:0,0:0:0:0:
61,231,82543,2,0,P|46:294|46:338,1,92.4999996471405,2|0,3:2|3:0,0:0:0:0:
187,147,82873,2,0,P|183:100|171:56,1,92.4999996471405,10|0,0:0|3:0,0:0:0:0:
164,357,83203,6,0,P|233:363|290:318,1,138.749999470711,2|0,0:0|0:0,0:0:0:0:
296,314,83532,2,0,L|393:334,1,92.4999996471405,10|0,0:0|3:0,0:0:0:0:
431,172,83862,1,0,3:0:0:0:
346,105,84027,1,0,3:0:0:0:
346,105,84109,1,0,0:0:0:0:
346,105,84192,2,0,P|325:153|328:210,1,92.4999996471405,10|2,0:0|3:2,0:0:0:0:
472,352,84521,6,0,P|493:304|490:247,1,92.4999996471405,2|2,3:2|3:2,0:0:0:0:
346,105,84851,2,0,L|199:138,1,138.749999470711,8|0,0:0|3:2,0:0:0:0:
210,153,85181,2,0,L|116:133,1,92.4999996471405,0|0,3:2|3:0,0:0:0:0:
81,327,85510,1,10,0:0:0:0:
10,251,85675,1,2,3:2:0:0:
10,251,85758,1,0,0:0:0:0:
10,251,85840,6,0,P|47:228|107:227,1,92.4999996471405,2|2,3:2|3:2,0:0:0:0:
354,351,86170,2,0,P|296:349|252:278,1,138.749999470711,10|0,0:0|0:0,0:0:0:0:
256,269,86499,1,4,3:0:0:0:
484,117,86664,1,8,0:0:0:0:
484,117,86747,1,8,0:0:0:0:
484,117,86829,2,0,L|469:174,1,46.2499998235703,8|8,0:0|0:0,0:0:0:0:
396,64,86994,2,0,L|381:121,1,46.2499998235703,8|8,0:0|0:0,0:0:0:0:
277,7,87159,6,0,L|247:145,1,138.749999470711,12|0,0:1|0:0,0:0:0:0:
246,158,87488,2,0,P|195:122|155:123,1,92.4999996471405,10|0,0:2|0:0,0:0:0:0:
44,275,87818,2,0,P|100:248|119:213,1,92.4999996471405,2|0,3:2|3:0,0:0:0:0:
38,40,88148,2,0,P|32:102|53:136,1,92.4999996471405,10|0,0:0|3:0,0:0:0:0:
220,264,88477,6,0,L|325:249,1,92.4999996471405,2|0,3:2|3:0,0:0:0:0:
462,72,88807,2,0,L|357:87,1,92.4999996471405,10|0,0:0|3:0,0:0:0:0:
356,88,89054,1,0,0:0:0:0:
341,91,89137,1,0,3:0:0:0:
421,192,89302,1,0,3:0:0:0:
289,340,89466,2,0,L|313:244,1,92.4999996471405,10|2,0:0|3:2,0:0:0:0:
200,40,89796,6,0,P|135:28|76:69,1,138.749999470711,2|0,3:2|0:0,0:0:0:0:
66,58,90126,2,0,P|48:104|48:154,1,92.4999996471405,10|0,0:0|3:0,0:0:0:0:
226,210,90455,1,0,3:0:0:0:
154,115,90620,1,0,3:0:0:0:
12,254,90785,2,0,L|111:233,1,92.4999996471405,10|2,0:0|3:2,0:0:0:0:
367,70,91115,6,0,L|268:91,1,92.4999996471405,2|2,3:2|3:2,0:0:0:0:
465,137,91444,1,10,0:0:0:0:
376,268,91609,1,0,0:0:0:0:
376,268,91692,1,0,3:0:0:0:
376,268,91774,2,0,P|362:226|380:167,1,92.4999996471405,0|0,3:0|3:0,0:0:0:0:
495,248,92104,1,10,0:0:0:0:
290,343,92269,1,0,3:0:0:0:
290,343,92351,1,0,0:0:0:0:
290,343,92433,6,0,B|225:334|225:334|183:360|183:360|105:350,1,184.999999294281,4|8,0:1|3:2,0:0:0:0:
237,107,92928,2,0,P|249:155|250:205,1,92.4999996471405,2|0,3:2|3:0,0:0:0:0:
152,259,93258,1,2,3:2:0:0:
0,184,93422,2,0,L|98:169,1,92.4999996471405,10|0,0:0|0:0,0:0:0:0:
336,28,93752,6,0,B|437:39|393:86|512:85,2,184.999999294281,2|8|0,3:2|0:0|3:0,0:0:0:0:
233,72,94576,1,0,3:0:0:0:
318,236,94741,2,0,P|331:195|332:135,1,92.4999996471405,10|0,0:0|0:0,0:0:0:0:
58,26,95071,6,0,P|45:67|44:127,1,92.4999996471405,2|0,3:2|3:0,0:0:0:0:
232,174,95400,2,0,L|129:156,1,92.4999996471405,8|0,0:0|3:0,0:0:0:0:
74,363,95730,1,0,3:0:0:0:
202,257,95895,1,0,3:0:0:0:
22,205,96060,2,0,L|-1:307,1,92.4999996471405,8|0,0:0|0:0,0:0:0:0:
317,362,96389,6,0,L|296:271,1,92.4999996471405,2|2,3:2|3:2,0:0:0:0:
429,102,96719,1,8,0:0:0:0:
232,174,96884,1,2,3:2:0:0:
232,174,96966,1,0,0:0:0:0:
232,174,97049,2,0,L|141:158,1,92.4999996471405,2|4,3:2|3:0,0:0:0:0:
429,102,97378,1,10,0:0:0:0:
359,196,97543,1,2,3:2:0:0:
359,196,97626,1,0,0:0:0:0:
359,196,97708,6,0,B|318:148|318:148|347:11,1,184.999999294281,6|10,0:0|3:2,0:0:0:0:
159,67,98203,2,0,L|136:177,1,92.4999996471405,2|0,3:2|3:2,0:0:0:0:
240,222,98532,1,4,3:0:0:0:
62,249,98697,2,0,L|39:359,1,92.4999996471405,10|0,0:0|0:0,0:0:0:0:
338,320,99027,6,0,P|409:324|468:228,2,184.999999294281,2|8|0,3:2|0:0|3:0,0:0:0:0:
240,222,99851,1,0,3:0:0:0:
359,102,100016,2,0,P|375:154|372:207,1,92.4999996471405,10|0,0:0|3:0,0:0:0:0:
210,341,100345,6,0,L|119:326,1,92.4999996471405,2|0,3:2|3:2,0:0:0:0:
175,129,100675,1,8,0:0:0:0:
240,222,100840,1,0,3:0:0:0:
30,381,101005,2,0,P|17:341|28:280,1,92.4999996471405,0|2,3:0|0:0,0:0:0:0:
175,129,101334,1,10,0:0:0:0:
52,206,101499,1,2,0:0:0:0:
29,200,101581,1,0,0:0:0:0:
7,194,101664,5,12,0:0:0:0:
175,129,101827,1,0,3:0:0:0:
54,73,101991,1,12,0:0:0:0:
140,273,102155,1,0,3:0:0:0:
292,89,102319,5,12,0:0:0:0:
398,145,102483,1,8,0:0:0:0:
398,145,102565,1,8,0:0:0:0:
398,145,102647,2,0,L|384:205,1,46.2499998235703,8|0,0:0|0:0,0:0:0:0:
486,193,102811,2,0,L|472:253,1,46.2499998235703,8|0,0:0|0:0,0:0:0:0:
298,335,102975,6,0,P|213:341|165:262,1,184.999999294281,4|8,0:1|0:0,0:0:0:0:
292,89,103469,1,0,3:0:0:0:
99,184,103634,2,0,P|138:166|193:164,1,92.4999996471405,2|0,3:2|3:0,0:0:0:0:
385,314,103964,2,0,P|346:332|291:334,1,92.4999996471405,8|0,0:0|0:0,0:0:0:0:
291,88,104293,6,0,L|271:179,1,92.4999996471405,2|0,3:2|3:0,0:0:0:0:
385,314,104623,1,10,0:0:0:0:
483,214,104788,1,0,3:0:0:0:
483,214,104870,1,0,0:0:0:0:
483,214,104953,2,0,L|380:193,1,92.4999996471405,2|0,3:2|3:0,0:0:0:0:
201,70,105282,2,0,L|304:91,1,92.4999996471405,10|0,0:0|3:0,0:0:0:0:
483,214,105612,6,0,P|491:271|485:314,1,92.4999996471405,2|0,3:2|3:0,0:0:0:0:
365,366,105942,1,10,0:0:0:0:
240,296,106106,1,2,3:2:0:0:
240,296,106189,1,0,0:0:0:0:
240,296,106271,2,0,L|145:319,1,92.4999996471405,2|0,3:2|3:0,0:0:0:0:
65,200,106601,2,0,L|160:177,1,92.4999996471405,8|0,0:0|3:0,0:0:0:0:
382,77,106931,5,2,3:2:0:0:
247,199,107095,1,0,3:0:0:0:
204,37,107260,1,8,0:0:0:0:
367,186,107425,1,0,3:2:0:0:
367,186,107507,1,0,0:0:0:0:
367,186,107590,2,0,L|344:286,1,92.4999996471405,2|2,3:2|3:2,0:0:0:0:
204,37,107920,2,0,L|181:137,1,92.4999996471405,10|2,0:0|3:2,0:0:0:0:
28,356,108249,6,0,P|82:294|187:298,1,184.999999294281,6|8,3:2|0:0,0:0:0:0:
359,362,108744,1,0,3:2:0:0:
359,362,108826,1,0,0:0:0:0:
359,362,108909,2,0,L|461:348,1,92.4999996471405,0|0,3:2|3:0,0:0:0:0:
316,193,109238,2,0,L|214:207,1,92.4999996471405,8|2,0:0|0:0,0:0:0:0:
420,130,109568,5,2,3:2:0:0:
499,222,109733,1,0,3:0:0:0:
316,193,109898,1,8,0:0:0:0:
438,39,110062,1,0,3:0:0:0:
438,39,110145,1,0,0:0:0:0:
438,39,110227,2,0,L|415:149,1,92.4999996471405,0|0,3:2|3:2,0:0:0:0:
205,296,110557,2,0,L|228:186,1,92.4999996471405,8|0,0:0|3:2,0:0:0:0:
318,50,110887,6,0,L|226:33,1,92.4999996471405,2|2,3:2|3:2,0:0:0:0:
32,160,111216,2,0,P|76:162|125:129,1,92.4999996471405,8|0,0:0|3:2,0:0:0:0:
127,125,111464,1,0,0:0:0:0:
137,110,111546,2,0,L|124:10,1,92.4999996471405,2|0,3:2|3:2,0:0:0:0:
39,264,111876,2,0,L|52:364,1,92.4999996471405,8|0,0:0|3:2,0:0:0:0:
223,205,112205,6,0,P|297:199|355:249,1,138.749999470711,2|0,3:2|0:0,0:0:0:0:
358,251,112535,2,0,L|456:239,1,92.4999996471405,14|0,0:0|3:0,0:0:0:0:
365,54,112865,2,0,L|267:66,1,92.4999996471405,4|0,3:2|3:0,0:0:0:0:
196,112,113112,1,8,0:0:0:0:
196,112,113194,2,0,P|148:99|138:98,1,46.2499998235703,8|0,0:0|0:0,0:0:0:0:
64,174,113359,2,0,P|112:187|122:188,1,46.2499998235703,8|0,0:0|3:0,0:0:0:0:
330,155,113524,6,0,L|307:268,1,92.4999996471405,4|0,0:1|0:0,0:0:0:0:
237,359,113854,1,8,0:0:0:0:
89,292,114018,1,0,3:2:0:0:
89,292,114101,1,0,0:0:0:0:
89,292,114183,2,0,P|127:271|183:272,1,92.4999996471405,0|0,3:0|3:0,0:0:0:0:
439,328,114513,2,0,P|401:349|345:348,1,92.4999996471405,10|0,0:0|0:0,0:0:0:0:
199,162,114843,6,0,B|232:42|232:42|260:99,1,184.999999294281,2|8,3:2|0:0,0:0:0:0:
434,192,115337,1,0,3:2:0:0:
507,67,115502,2,0,P|464:47|403:49,1,92.4999996471405,2|0,3:2|3:0,0:0:0:0:
330,155,115832,2,0,L|308:261,1,92.4999996471405,8|0,0:0|3:0,0:0:0:0:
91,327,116161,5,2,3:2:0:0:
178,239,116326,1,0,3:0:0:0:
360,370,116491,2,0,L|261:354,1,92.4999996471405,8|0,0:0|3:2,0:0:0:0:
254,351,116738,1,0,0:0:0:0:
240,347,116821,1,2,3:2:0:0:
178,239,116985,1,0,3:2:0:0:
330,155,117150,2,0,L|425:174,1,92.4999996471405,8|2,0:0|3:2,0:0:0:0:
250,0,117480,6,0,L|217:149,1,138.749999470711,0|0,3:2|0:0,0:0:0:0:
206,143,117810,2,0,P|155:166|117:164,1,92.4999996471405,8|0,0:0|3:2,0:0:0:0:
81,60,118139,1,0,3:2:0:0:
33,231,118304,1,0,3:0:0:0:
33,231,118386,1,0,0:0:0:0:
33,231,118469,2,0,L|15:326,1,92.4999996471405,8|2,0:2|3:2,0:0:0:0:
323,372,118799,6,0,L|299:170,1,184.999999294281,6|8,0:0|0:0,0:0:0:0:
458,38,119293,1,0,3:0:0:0:
300,65,119458,2,0,P|338:95|382:101,1,92.4999996471405,0|0,3:0|3:0,0:0:0:0:
484,238,119788,2,0,P|438:245|403:274,1,92.4999996471405,8|0,0:0|3:0,0:0:0:0:
352,357,120035,1,0,0:0:0:0:
352,357,120117,6,0,L|252:341,1,92.4999996471405,2|0,3:2|0:0,0:0:0:0:
136,275,120447,1,10,0:0:0:0:
224,142,120612,1,0,3:2:0:0:
224,142,120694,1,0,0:0:0:0:
224,142,120777,2,0,P|239:207|239:251,1,92.4999996471405,2|2,3:2|3:2,0:0:0:0:
42,347,121106,2,0,P|27:282|27:238,1,92.4999996471405,8|2,0:0|3:2,0:0:0:0:
204,40,121436,6,0,B|319:34|257:91|383:80,1,184.999999294281,2|8,0:0|0:0,0:0:0:0:
475,216,121931,1,0,3:2:0:0:
475,216,122013,1,0,0:0:0:0:
475,216,122095,2,0,P|482:295|479:322,1,92.4999996471405,2|0,3:2|3:2,0:0:0:0:
273,239,122425,2,0,P|323:178|345:161,1,92.4999996471405,8|0,0:0|3:2,0:0:0:0:
391,368,122755,6,0,L|287:334,1,92.4999996471405,2|2,3:2|3:2,0:0:0:0:
69,180,123084,1,8,0:0:0:0:
45,340,123249,1,2,3:2:0:0:
45,340,123332,1,0,0:0:0:0:
45,340,123414,2,0,P|116:347|173:288,1,138.749999470711,0|0,3:2|0:0,0:0:0:0:
176,295,123744,2,0,L|162:193,1,92.4999996471405,12|0,0:0|0:2,0:0:0:0:
159,113,123991,1,0,0:0:0:0:
159,113,124073,6,0,P|237:121|306:40,1,184.999999294281,4|10,0:0|0:0,0:0:0:0:
204,24,124568,1,0,3:0:0:0:
376,132,124733,2,0,P|398:66|409:29,1,92.4999996471405,0|0,3:0|3:0,0:0:0:0:
167,205,125062,2,0,P|180:249|195:292,1,92.4999996471405,8|0,0:0|0:0,0:0:0:0:
442,262,125392,6,0,L|340:242,1,92.4999996471405,2|0,3:2|3:0,0:0:0:0:
196,293,125722,1,8,0:0:0:0:
417,351,125887,1,0,3:2:0:0:
417,351,125969,1,0,3:0:0:0:
417,351,126051,2,0,L|445:248,1,92.4999996471405,2|0,3:2|3:0,0:0:0:0:
357,61,126381,2,0,L|329:164,1,92.4999996471405,8|0,0:0|3:2,0:0:0:0:
196,293,126711,6,0,B|138:289|81:318|81:318|52:288|70:248,1,184.999999294281,2|8,3:2|0:0,0:0:0:0:
173,45,127205,1,0,3:0:0:0:
99,167,127370,2,0,L|2:150,1,92.4999996471405,2|0,3:2|3:0,0:0:0:0:
235,121,127700,2,0,P|254:193|251:223,1,92.4999996471405,8|0,0:0|3:0,0:0:0:0:
128,357,128029,6,0,P|109:285|112:255,1,92.4999996471405,0|0,3:0|3:0,0:0:0:0:
235,121,128359,1,8,0:0:0:0:
360,182,128524,1,0,3:0:0:0:
360,182,128606,1,0,0:0:0:0:
360,182,128689,2,0,L|452:198,1,92.4999996471405,0|0,3:0|3:0,0:0:0:0:
250,311,129018,2,0,L|342:327,1,92.4999996471405,12|0,0:0|3:0,0:0:0:0:
300,51,129348,6,0,B|191:68|256:115|130:122,1,184.999999294281,6|8,0:0|0:0,0:0:0:0:
145,228,129843,1,0,3:0:0:0:
26,103,130007,2,0,P|46:172|54:210,1,92.4999996471405,2|0,3:2|3:0,0:0:0:0:
201,368,130337,2,0,P|211:323|225:278,1,92.4999996471405,10|0,0:0|3:0,0:0:0:0:
457,115,130667,6,0,L|348:138,1,92.4999996471405,0|0,3:0|3:0,0:0:0:0:
265,179,130996,1,8,0:0:0:0:
461,249,131161,1,0,3:0:0:0:
461,249,131244,1,0,0:0:0:0:
461,249,131326,1,2,3:2:0:0:
334,300,131491,1,0,3:0:0:0:
265,179,131656,2,0,L|289:73,1,92.4999996471405,10|0,0:0|3:2,0:0:0:0:
44,27,131985,5,2,3:2:0:0:
44,27,132150,1,2,3:2:0:0:
38,147,132315,2,0,B|85:144|85:144|130:118,1,92.4999996471405,12|0,0:0|3:0,0:0:0:0:
135,367,132645,5,2,3:2:0:0:
135,367,132810,1,0,3:2:0:0:
215,272,132975,2,0,B|176:250|176:250|129:247,1,92.4999996471405,14|0,0:2|3:0,0:0:0:0:
416,384,133304,6,0,P|458:312|431:211,1,184.999999294281,2|12,3:2|0:0,0:0:0:0:
256,166,133799,1,8,0:0:0:0:
233,170,133881,1,8,0:0:0:0:
210,174,133964,1,12,0:0:0:0:
425,100,134128,1,8,0:3:0:0:
244,33,134293,1,4,0:3:0:0:
331,287,134458,5,4,0:1:0:0:
256,192,134623,12,0,141216,0:0:0:0:
