osu file format v14

[General]
AudioFilename: audio.mp3
AudioLeadIn: 0
PreviewTime: 75950
Countdown: 0
SampleSet: Soft
StackLeniency: 0.3
Mode: 0
LetterboxInBreaks: 0
EpilepsyWarning: 1
WidescreenStoryboard: 1

[Editor]
Bookmarks: 141216
DistanceSpacing: 1
BeatDivisor: 4
GridSize: 32
TimelineZoom: 2.699999

[Metadata]
Title:Hikari
TitleUnicode:光
Artist:RADWIMPS
ArtistUnicode:RADWIMPS
Creator:Haruto
Version:Monstrata's Sparkle
Source:
Tags:Light Human Bloom 人間開花 Ningen kaika short cut version haruto_aizawa monstrata ipas newipas appleeaterx milan- rizen kalibe sotarks sytarno irohas mugiwarasekai a q p w a_q_p_w kimi no na wa nawa 君の名は。 your name
BeatmapID:1176410
BeatmapSetID:547714

[Difficulty]
HPDrainRate:5
CircleSize:4
OverallDifficulty:8.7
ApproachRate:9
SliderMultiplier:1.8
SliderTickRate:1

[Events]
//Background and Video events
0,0,"7374744.jpg",0,0
//Break Periods
//Storyboard Layer 0 (Background)
//Storyboard Layer 1 (Fail)
//Storyboard Layer 2 (Pass)
//Storyboard Layer 3 (Foreground)
//Storyboard Sound Samples

[TimingPoints]
120,331.491712707182,4,2,2,60,1,0
120,-133.333333333333,4,2,2,60,0,0
4762,315.789473684211,4,2,2,50,1,0
4762,-114.285714285714,4,2,2,50,0,0
5387,329.789923818528,4,2,2,50,1,0
15610,-100,4,2,2,60,0,0
15775,-100,4,2,2,60,0,0
15940,-100,4,2,2,50,0,0
16270,-100,4,2,2,50,0,0
18413,-100,4,2,2,50,0,0
18578,-100,4,2,2,50,0,0
33913,-100,4,2,2,50,0,0
34078,-100,4,2,2,50,0,0
42324,329.67032967033,4,2,2,50,1,0
71334,-100,4,2,2,60,0,0
76609,-100,4,2,2,75,0,1
76692,-100,4,2,2,75,0,1
84356,-100,4,2,2,75,0,1
84521,-100,4,2,2,75,0,1
87159,-100,4,2,2,75,0,1
87241,-100,4,2,2,75,0,1
101499,-100,4,2,2,75,0,1
101664,327.868852459016,4,2,2,75,1,1
102975,329.67032967033,4,2,2,65,1,0
134293,-100,4,2,2,65,0,0
134458,-234.34,4,2,2,65,0,0
134540,-234.34,4,2,2,5,0,0

[Colours]
Combo1 : 248,243,97
Combo2 : 122,145,205
Combo3 : 240,175,145
Combo4 : 80,163,186

[HitObjects]
102,157,120,6,0,L|179:146,1,67.5000025749208,2|2,0:0|0:0,0:0:0:0:
208,226,451,1,2,0:0:0:0:
208,226,617,2,0,L|285:236,1,67.5000025749208,0|2,0:0|0:0,0:0:0:0:
313,313,948,1,0,0:0:0:0:
313,313,1114,2,0,L|380:304,1,67.5000025749208,2|0,0:0|0:0,0:0:0:0:
370,151,1445,6,0,L|361:218,1,67.5000025749208,2|2,0:0|0:0,0:0:0:0:
449,111,1777,2,0,L|458:177,1,67.5000025749208,2|0,0:0|0:0,0:0:0:0:
361,85,2108,2,0,L|351:151,1,67.5000025749208,2|0,0:0|0:0,0:0:0:0:
439,44,2440,2,0,L|448:110,1,67.5000025749208,2|0,0:0|0:0,0:0:0:0:
351,18,2771,6,0,L|341:84,1,67.5000025749208,2|2,0:0|0:0,0:0:0:0:
266,131,3103,1,2,0:0:0:0:
266,131,3269,2,0,L|275:197,1,67.5000025749208,0|2,0:0|0:0,0:0:0:0:
199,243,3600,1,0,0:0:0:0:
199,243,3766,2,0,L|190:310,1,67.5000025749208,2|0,0:0|0:0,0:0:0:0:
342,274,4097,6,0,L|276:284,1,67.5000025749208,2|2,0:0|0:0,0:0:0:0:
259,370,4429,2,0,L|325:379,1,67.5000025749208,2|0,0:0|0:0,0:0:0:0:
331,195,4762,6,0,L|342:274,1,78.7500007510185,12|0,0:0|3:0,0:0:0:0:
421,317,4998,1,0,0:0:0:0:
421,317,5077,2,0,L|411:386,1,39.3750003755093,8|0,0:0|0:0,0:0:0:0:
506,288,5235,2,0,L|515:357,1,39.3750003755093,8|8,0:0|0:0,0:0:0:0:
432,140,5387,6,0,L|444:229,1,90,4|0,3:0|3:0,0:0:0:0:
503,84,5716,1,8,0:0:0:0:
353,60,5881,2,0,L|343:131,2,45,8|0|0,3:2|3:0|3:3,0:0:0:0:
424,4,6211,1,0,3:0:0:0:
253,22,6376,2,0,L|265:111,1,90,8|0,0:0|3:0,0:0:0:0:
121,193,6706,6,0,L|210:181,1,90,2|2,3:2|3:2,0:0:0:0:
109,104,7035,1,8,0:0:0:0:
31,206,7200,2,0,L|40:275,2,45,8|0|0,3:2|3:0|3:2,0:0:0:0:
109,104,7530,1,0,3:2:0:0:
133,284,7695,1,10,0:0:0:0:
210,181,7860,1,2,3:2:0:0:
31,206,8025,5,2,3:2:0:0:
199,92,8190,1,2,3:2:0:0:
121,193,8355,1,8,0:0:0:0:
188,3,8520,1,2,3:2:0:0:
210,181,8684,1,2,3:2:0:0:
109,104,8849,1,2,3:2:0:0:
221,270,9014,1,8,0:0:0:0:
199,92,9179,1,2,3:2:0:0:
133,284,9344,6,0,P|150:324|185:352,1,90,2|0,3:2|0:0,0:0:0:0:
299,169,9674,1,8,0:0:0:0:
121,193,9839,2,0,L|49:202,2,45,0|0|2,3:2|0:0|3:2,0:0:0:0:
199,92,10168,1,2,3:2:0:0:
133,284,10333,2,0,L|61:377,1,90,8|2,0:0|3:2,0:0:0:0:
292,324,10663,6,0,L|198:252,1,90,4|0,0:1|0:0,0:0:0:0:
121,193,10993,1,8,0:0:0:0:
232,145,11158,2,0,L|205:181,2,45,8|0|0,3:2|3:2|3:2,0:0:0:0:
133,284,11488,1,2,3:2:0:0:
153,114,11653,2,0,P|179:77|220:59,1,90,8|2,0:2|3:2,0:0:0:0:
382,126,11982,6,0,P|337:122|302:96,1,90,2|2,3:2|3:2,0:0:0:0:
370,36,12312,1,8,0:2:0:0:
395,216,12477,2,0,L|405:295,2,45,8|0|2,3:2|3:2|3:2,0:0:0:0:
454,70,12807,1,2,3:2:0:0:
479,250,12972,1,8,0:0:0:0:
382,126,13137,1,8,0:0:0:0:
323,272,13301,5,2,3:2:0:0:
298,92,13466,1,2,3:2:0:0:
251,327,13631,1,8,0:0:0:0:
310,182,13796,1,8,0:0:0:0:
336,362,13961,1,2,3:2:0:0:
395,216,14126,1,2,3:2:0:0:
491,340,14291,1,8,0:0:0:0:
467,160,14456,1,8,0:0:0:0:
323,272,14621,5,2,3:2:0:0:
382,126,14786,1,2,3:2:0:0:
408,307,14950,1,8,0:2:0:0:
310,182,15115,1,8,0:0:0:0:
251,327,15280,2,0,L|190:336,1,45,0|0,3:0|3:3,0:0:0:0:
153,202,15445,2,0,L|92:193,1,45,8|8,3:2|3:2,0:0:0:0:
55,327,15610,2,0,L|-6:336,1,45,8|0,0:0|0:0,0:0:0:0:
18,181,15775,1,0,0:0:0:0:
130,377,15940,5,4,0:1:0:0:
310,88,16270,2,0,L|198:104,1,90,8|0,0:0|3:2,0:0:0:0:
334,266,16599,1,2,3:2:0:0:
322,177,16764,1,2,3:2:0:0:
245,278,16929,2,0,P|280:340|331:356,1,90,10|0,0:0|3:0,0:0:0:0:
405,211,17259,5,0,3:0:0:0:
95,118,17589,2,0,L|102:220,1,90,8|0,0:0|3:0,0:0:0:0:
256,199,17919,1,2,3:2:0:0:
250,110,18083,1,2,3:2:0:0:
181,248,18248,2,0,L|188:350,1,90,10|2,0:0|3:2,0:0:0:0:
331,248,18578,5,4,0:0:0:0:
198,31,18908,2,0,P|239:16|287:24,1,90,8|0,0:0|3:2,0:0:0:0:
256,199,19238,1,2,3:2:0:0:
250,110,19403,1,2,3:2:0:0:
181,248,19567,2,0,L|188:350,1,90,10|0,0:0|3:2,0:0:0:0:
101,207,19897,5,0,3:2:0:0:
411,206,20227,2,0,P|443:176|457:134,1,90,8|0,0:0|3:0,0:0:0:0:
316,207,20557,1,2,3:2:0:0:
363,126,20722,1,2,3:2:0:0:
364,287,20887,2,0,P|406:299|450:290,1,90,10|0,0:0|3:0,0:0:0:0:
363,126,21216,5,0,3:2:0:0:
148,287,21546,2,0,P|105:299|61:290,1,90,8|0,0:0|3:0,0:0:0:0:
145,125,21876,1,2,3:2:0:0:
193,203,22041,1,2,3:2:0:0:
276,37,22206,2,0,P|232:28|190:41,1,90,10|0,0:0|0:3,0:0:0:0:
237,123,22536,5,0,3:3:0:0:
467,332,22865,2,0,L|452:222,1,90,8|0,0:0|3:0,0:0:0:0:
291,296,23195,1,2,3:2:0:0:
381,296,23359,1,2,3:2:0:0:
217,242,23525,2,0,L|205:332,1,90,10|0,0:0|3:2,0:0:0:0:
336,218,23855,5,0,3:2:0:0:
45,52,24185,2,0,L|60:162,1,90,8|0,0:0|3:2,0:0:0:0:
221,88,24514,1,2,3:2:0:0:
131,88,24678,1,2,3:2:0:0:
294,141,24844,2,0,L|307:52,1,90,10|0,0:0|3:0,0:0:0:0:
176,166,25174,5,0,3:0:0:0:
506,238,25504,2,0,L|493:148,1,90,8|0,0:0|0:0,0:0:0:0:
326,262,25833,1,2,3:2:0:0:
404,160,25998,1,6,3:2:0:0:
428,340,26163,2,0,L|338:352,1,90,10|0,0:0|3:0,0:0:0:0:
84,340,26493,6,0,L|173:352,1,90,4|0,0:1|0:0,0:0:0:0:
126,178,26823,2,0,L|139:268,1,90,8|0,0:0|0:0,0:0:0:0:
39,204,27153,1,2,3:2:0:0:
51,114,27317,1,2,3:2:0:0:
214,153,27482,2,0,L|226:242,1,90,10|0,0:0|3:2,0:0:0:0:
287,382,27812,6,0,L|300:293,1,90,0|0,3:2|3:2,0:0:0:0:
139,268,28142,2,0,P|166:312|223:332,1,90,8|0,0:0|3:0,0:0:0:0:
214,153,28472,1,2,3:2:0:0:
124,165,28636,1,2,3:2:0:0:
300,293,28802,2,0,L|287:203,1,90,10|0,0:0|3:2,0:0:0:0:
418,87,29131,6,0,P|397:126|359:149,1,90,0|0,3:0|3:0,0:0:0:0:
253,28,29461,2,0,P|297:34|331:62,1,90,8|0,0:0|3:0,0:0:0:0:
124,165,29791,1,2,3:2:0:0:
163,15,29956,1,2,3:2:0:0:
213,180,30121,2,8,P|195:220|159:247,1,90,10|0,0:0|0:0,0:0:0:0:
36,149,30451,6,0,L|157:169,1,90,2|0,3:2|0:0,0:0:0:0:
271,80,30780,2,0,L|183:96,1,90,8|0,0:0|3:2,0:0:0:0:
303,258,31110,1,2,3:2:0:0:
287,169,31275,1,6,3:2:0:0:
233,316,31440,2,0,P|268:342|312:350,1,90,10|0,0:0|3:2,0:0:0:0:
463,260,31770,6,0,P|427:287|384:295,1,90,4|0,0:1|0:0,0:0:0:0:
448,172,32099,2,0,L|463:260,1,90,8|0,0:0|3:0,0:0:0:0:
288,134,32429,1,2,3:2:0:0:
376,109,32593,1,2,3:2:0:0:
273,46,32759,2,0,L|289:135,1,90,10|0,0:0|0:0,0:0:0:0:
391,20,33089,6,0,L|375:108,1,90,0|0,3:0|0:0,0:0:0:0:
188,14,33419,1,8,0:0:0:0:
219,192,33584,1,2,3:2:0:0:
273,46,33748,1,2,3:2:0:0:
134,160,33913,1,2,3:2:0:0:
304,224,34078,2,0,P|352:198|377:146,1,90,10|0,0:0|3:2,0:0:0:0:
357,84,34326,1,0,0:0:0:0:
357,84,34408,6,0,P|355:138|388:186,1,90,0|0,3:2|3:2,0:0:0:0:
512,251,34738,2,0,P|471:234|427:238,1,90,8|0,0:0|3:2,0:0:0:0:
278,288,35068,1,2,3:2:0:0:
368,306,35232,1,0,3:2:0:0:
249,202,35397,2,0,P|202:237|187:288,1,90,10|0,0:0|0:0,0:0:0:0:
56,148,35727,6,0,P|94:172|115:211,1,90,4|0,3:3|0:0,0:0:0:0:
7,320,36057,2,0,L|27:233,1,90,8|0,0:0|3:2,0:0:0:0:
182,351,36387,2,0,L|269:331,1,90,6|0,3:2|3:2,0:0:0:0:
314,252,36634,1,0,3:2:0:0:
314,252,36717,2,0,L|401:271,1,90,8|0,0:0|3:0,0:0:0:0:
274,76,37046,6,0,L|293:163,1,90,4|0,0:1|0:0,0:0:0:0:
223,221,37294,1,0,3:0:0:0:
223,221,37376,2,0,L|203:308,1,90,10|2,0:0|3:2,0:0:0:0:
136,191,37706,2,0,P|160:154|200:133,1,90,0|2,0:0|3:2,0:0:0:0:
377,193,38036,2,0,P|352:230|313:251,1,90,10|0,0:0|3:0,0:0:0:0:
353,14,38365,6,0,L|365:103,1,90,2|0,3:2|0:0,0:0:0:0:
448,140,38612,1,0,3:0:0:0:
448,140,38695,2,0,L|459:50,1,90,10|2,0:0|3:2,0:0:0:0:
259,75,39025,2,8,L|294:159,1,90,0|2,3:2|3:2,0:0:0:0:
388,282,39355,2,0,L|377:193,1,90,8|0,0:0|0:0,0:0:0:0:
353,14,39685,6,0,L|364:103,1,90,4|2,0:1|0:0,0:0:0:0:
172,260,40014,2,0,L|261:248,1,90,10|0,0:0|3:0,0:0:0:0:
245,337,40262,1,0,0:0:0:0:
245,337,40344,2,0,L|334:348,1,90,2|2,3:2|0:0,0:0:0:0:
477,270,40674,2,0,L|387:281,1,90,8|2,0:0|0:0,0:0:0:0:
364,103,41004,5,2,3:2:0:0:
375,192,41168,1,2,3:2:0:0:
282,69,41334,1,12,0:0:0:0:
293,158,41498,1,0,3:0:0:0:
353,14,41664,1,6,3:2:0:0:
211,124,41828,6,0,L|202:187,1,45,8|8,0:0|0:0,0:0:0:0:
304,247,41993,2,0,L|313:310,1,45,8|8,0:0|0:0,0:0:0:0:
184,301,42158,2,0,L|139:307,1,45,8|8,0:0|0:0,0:0:0:0:
293,158,42324,6,0,L|381:170,1,90,4|0,0:1|0:0,0:0:0:0:
397,16,42653,2,0,P|363:44|348:86,1,90,8|0,0:0|0:0,0:0:0:0:
416,253,42983,1,2,3:2:0:0:
437,97,43148,1,2,3:2:0:0:
326,240,43313,2,0,P|337:298|378:336,1,90,10|0,0:0|3:0,0:0:0:0:
186,240,43642,6,0,P|175:298|134:336,1,90,0|0,3:0|0:0,0:0:0:0:
8,261,43972,2,0,L|98:251,1,90,8|0,0:0|3:0,0:0:0:0:
136,168,44219,1,0,3:0:0:0:
136,168,44302,2,0,L|225:157,1,90,2|2,3:2|3:2,0:0:0:0:
297,2,44631,2,0,L|287:92,1,90,10|0,0:0|3:0,0:0:0:0:
312,178,44878,1,0,0:0:0:0:
312,178,44961,6,0,L|397:263,1,90,2|0,3:2|0:0,0:0:0:0:
496,145,45291,2,0,P|452:139|412:158,1,90,8|0,0:0|3:0,0:0:0:0:
339,325,45620,1,2,3:2:0:0:
466,232,45785,1,2,3:2:0:0:
285,251,45950,2,0,P|248:309|248:339,1,90,8|0,0:0|3:2,0:0:0:0:
227,132,46280,6,0,P|256:99|265:55,1,90,0|0,3:2|0:0,0:0:0:0:
141,162,46609,2,0,L|146:273,1,90,10|0,0:0|3:0,0:0:0:0:
57,275,46856,1,0,3:0:0:0:
57,275,46939,2,0,L|52:386,1,90,2|2,3:2|3:2,0:0:0:0:
246,328,47269,2,0,L|241:238,1,90,10|0,0:0|3:0,0:0:0:0:
335,309,47516,1,0,0:0:0:0:
335,309,47598,6,0,P|378:319|424:304,1,90,0|0,3:0|0:0,0:0:0:0:
381,137,47928,2,0,L|376:226,1,90,8|0,3:2|0:3,0:0:0:0:
470,150,48258,1,2,3:2:0:0:
442,65,48422,1,2,3:2:0:0:
292,124,48587,2,0,L|287:213,1,90,10|0,0:0|3:2,0:0:0:0:
130,269,48917,6,8,L|220:273,1,90,0|0,3:0|0:0,0:0:0:0:
182,103,49247,2,8,L|177:192,1,90,8|0,0:0|0:0,0:0:0:0:
130,269,49494,1,0,0:0:0:0:
130,269,49576,2,8,L|134:358,1,90,2|2,3:2|3:2,0:0:0:0:
309,277,49906,2,8,L|220:273,1,90,10|0,0:0|3:2,0:0:0:0:
347,194,50153,1,0,0:0:0:0:
347,194,50236,6,0,P|390:204|436:189,1,90,0|0,3:2|0:0,0:0:0:0:
429,32,50565,2,0,P|386:22|339:36,1,90,8|0,0:0|3:0,0:0:0:0:
478,269,50895,1,2,3:2:0:0:
388,113,51060,1,2,3:2:0:0:
297,269,51225,2,0,L|314:366,1,90,10|0,0:0|0:0,0:0:0:0:
493,181,51554,6,0,L|476:278,1,90,0|0,3:0|0:0,0:0:0:0:
297,93,51884,2,0,L|314:190,1,90,8|2,0:0|3:2,0:0:0:0:
474,81,52214,1,2,3:2:0:0:
228,208,52378,1,6,3:2:0:0:
461,357,52543,1,8,0:0:0:0:
388,215,52708,1,2,0:0:0:0:
388,215,52791,1,0,0:0:0:0:
388,215,52873,6,0,L|368:332,1,90,4|0,0:1|0:0,0:0:0:0:
243,119,53203,2,0,L|223:236,1,90,8|0,0:0|3:2,0:0:0:0:
404,127,53532,1,2,3:2:0:0:
259,31,53697,1,2,3:2:0:0:
488,95,53862,2,0,P|494:139|478:181,1,90,10|0,0:0|3:0,0:0:0:0:
319,158,54192,6,0,P|313:113|328:72,1,90,0|0,3:0|3:0,0:0:0:0:
388,215,54521,2,0,L|368:332,1,90,8|0,0:0|3:0,0:0:0:0:
435,369,54769,1,0,3:0:0:0:
435,369,54851,2,0,L|519:337,1,90,2|2,3:2|3:2,0:0:0:0:
309,237,55181,2,0,L|224:268,1,90,10|0,0:0|3:0,0:0:0:0:
373,88,55510,6,0,L|457:119,1,90,0|0,0:0|0:0,0:0:0:0:
193,90,55840,2,0,L|209:179,1,90,8|0,0:0|3:0,0:0:0:0:
372,303,56170,1,2,3:2:0:0:
289,113,56334,1,2,3:2:0:0:
289,336,56499,1,10,0:0:0:0:
402,125,56664,6,0,P|445:145|451:275,1,180,2|0,0:0|0:0,0:0:0:0:
302,244,57159,2,0,L|387:212,1,90,8|0,0:0|3:0,0:0:0:0:
232,186,57488,1,2,3:2:0:0:
289,336,57653,1,2,3:2:0:0:
318,157,57818,2,0,P|275:104|238:96,1,90,10|0,0:0|3:0,0:0:0:0:
163,126,58065,1,0,0:0:0:0:
163,126,58148,6,0,P|138:189|150:225,1,90,0|0,3:0|0:0,0:0:0:0:
265,331,58477,2,0,P|244:292|205:272,1,90,8|0,0:0|0:0,0:0:0:0:
29,324,58807,1,2,3:2:0:0:
181,359,58972,1,2,3:2:0:0:
232,186,59137,2,0,L|211:79,1,90,10|0,0:0|3:0,0:0:0:0:
132,209,59466,6,0,L|115:298,1,90,0|0,3:0|0:0,0:0:0:0:
332,163,59796,2,0,L|311:56,1,90,8|0,0:0|3:0,0:0:0:0:
402,96,60043,1,0,3:0:0:0:
402,96,60126,2,0,B|446:108|446:108|493:92,1,90,2|2,3:2|3:2,0:0:0:0:
335,249,60455,2,0,B|291:237|291:237|244:253,1,90,10|0,0:0|3:0,0:0:0:0:
165,171,60703,1,0,0:0:0:0:
165,171,60785,6,0,B|209:183|209:183|256:167,1,90,0|0,3:2|0:0,0:0:0:0:
225,16,61115,2,0,L|207:104,1,90,8|0,0:0|3:2,0:0:0:0:
335,249,61444,1,2,3:2:0:0:
299,71,61608,1,2,3:2:0:0:
243,282,61774,2,0,P|292:334|351:344,1,90,10|0,0:0|3:0,0:0:0:0:
427,216,62104,5,6,0:3:0:0:
271,177,62269,1,2,3:2:0:0:
390,52,62433,2,0,P|429:74|455:111,1,90,12|0,0:0|3:2,0:0:0:0:
363,144,62681,1,0,0:0:0:0:
363,144,62763,2,0,L|339:224,1,45,8|8,0:0|0:0,0:0:0:0:
439,259,62928,2,0,L|426:215,1,45,8|0,0:0|3:0,0:0:0:0:
324,273,63093,1,0,3:0:0:0:
330,294,63175,1,8,3:0:0:0:
336,316,63258,1,8,3:0:0:0:
343,337,63340,1,0,3:0:0:0:
349,359,63422,6,0,B|394:369|394:369|452:336,1,90,4|0,0:1|0:0,0:0:0:0:
439,259,63670,1,0,3:0:0:0:
439,259,63752,2,0,B|478:234|478:234|496:170,1,90,8|2,0:0|3:2,0:0:0:0:
431,124,63999,1,0,3:0:0:0:
431,124,64082,2,0,B|441:78|441:78|408:20,1,90,0|2,3:0|3:2,0:0:0:0:
324,273,64411,1,8,0:0:0:0:
324,273,64741,5,2,3:2:0:0:
257,209,64906,1,0,3:2:0:0:
236,298,65071,1,10,0:0:0:0:
344,183,65236,1,0,3:0:0:0:
394,338,65400,1,2,3:2:0:0:
257,209,65565,1,2,3:2:0:0:
431,157,65730,2,0,P|429:217|384:264,1,90,8|0,0:0|0:0,0:0:0:0:
257,209,66060,6,0,P|259:149|304:102,1,90,4|2,0:0|0:0,0:0:0:0:
146,204,66389,2,0,P|144:264|99:311,1,90,10|2,0:0|3:2,0:0:0:0:
200,343,66637,1,0,0:0:0:0:
200,343,66719,2,0,P|252:314|316:330,1,90,0|2,3:2|3:2,0:0:0:0:
417,270,67049,2,0,P|373:267|336:243,1,90,8|0,0:0|3:2,0:0:0:0:
390,97,67378,5,2,0:0:0:0:
486,215,67543,1,0,3:2:0:0:
459,42,67708,1,10,0:0:0:0:
404,184,67873,1,2,0:0:0:0:
307,64,68038,1,2,3:0:0:0:
336,243,68203,1,2,3:2:0:0:
472,125,68367,1,12,0:2:0:0:
322,156,68532,1,0,0:3:0:0:
432,360,68697,6,0,L|414:247,1,90,4|2,0:1|3:2,0:0:0:0:
336,243,68944,1,0,3:0:0:0:
336,243,69027,2,0,L|229:202,1,90,8|2,3:2|3:2,0:0:0:0:
404,184,69274,1,0,3:0:0:0:
404,184,69356,2,0,L|422:71,1,90,0|2,3:0|0:2,0:0:0:0:
322,156,69686,1,10,0:0:0:0:
322,156,70016,5,2,3:2:0:0:
348,38,70181,1,0,3:2:0:0:
251,210,70345,1,10,0:2:0:0:
225,92,70510,1,0,3:2:0:0:
128,264,70675,1,2,3:2:0:0:
154,146,70840,1,2,3:2:0:0:
214,291,71005,2,0,P|265:296|322:267,1,90,2|2,3:2|3:2,0:0:0:0:
142,57,71334,5,4,0:1:0:0:
128,264,71499,1,0,3:2:0:0:
225,92,71664,1,8,0:2:0:0:
45,229,71829,1,2,3:2:0:0:
253,316,71994,1,2,3:2:0:0:
154,146,72159,1,2,3:2:0:0:
182,370,72324,1,8,0:2:0:0:
236,180,72488,1,2,3:2:0:0:
45,229,72653,5,2,3:2:0:0:
253,316,72818,1,2,0:2:0:0:
225,92,72983,1,8,3:2:0:0:
128,264,73148,1,2,3:2:0:0:
304,131,73313,1,2,3:2:0:0:
71,111,73477,1,0,3:2:0:0:
253,316,73642,1,10,0:2:0:0:
225,92,73807,1,0,3:2:0:0:
94,338,73972,5,12,0:2:0:0:
142,57,74137,1,0,3:2:0:0:
253,316,74302,1,12,0:2:0:0:
304,42,74466,1,0,3:2:0:0:
177,373,74631,5,12,0:2:0:0:
225,92,74796,1,0,3:2:0:0:
336,351,74961,1,12,0:2:0:0:
387,77,75125,1,0,3:2:0:0:
94,338,75291,5,8,3:0:0:0:
73,318,75373,1,8,3:0:0:0:
61,293,75455,1,8,3:0:0:0:
57,266,75538,1,2,3:2:0:0:
64,238,75620,1,0,3:0:0:0:
79,215,75703,1,8,3:0:0:0:
101,198,75785,1,8,3:3:0:0:
128,190,75867,1,0,3:2:0:0:
156,191,75950,5,12,0:0:0:0:
499,289,76115,1,12,0:2:0:0:
499,289,76444,1,0,0:0:0:0:
314,41,76609,6,0,P|299:83|306:126,1,90,12|0,0:1|0:0,0:0:0:0:
473,59,76939,2,8,L|389:92,1,90,10|0,0:0|3:0,0:0:0:0:
377,181,77186,1,0,3:0:0:0:
377,181,77269,2,0,P|421:174|456:147,1,90,2|0,3:2|3:0,0:0:0:0:
218,104,77598,2,0,L|238:251,1,90,10|0,0:0|0:0,0:0:0:0:
63,309,77928,6,0,L|152:296,1,90,2|0,3:2|3:0,0:0:0:0:
252,21,78258,2,8,P|211:13|136:58,1,90,8|0,0:0|3:0,0:0:0:0:
230,194,78587,1,0,3:2:0:0:
334,54,78752,1,0,3:2:0:0:
313,227,78917,1,10,0:2:0:0:
218,104,79082,1,2,3:2:0:0:
243,283,79247,5,2,3:2:0:0:
324,141,79411,1,0,3:0:0:0:
366,299,79576,2,0,P|430:301|469:276,1,90,10|0,0:2|3:2,0:0:0:0:
360,60,79906,2,0,P|296:58|257:83,1,90,0|0,3:0|3:0,0:0:0:0:
243,299,80236,1,10,0:0:0:0:
226,191,80400,1,2,0:0:0:0:
402,218,80565,5,2,3:2:0:0:
324,141,80730,1,0,0:3:0:0:
352,316,80895,1,10,0:0:0:0:
309,232,81060,1,0,3:0:0:0:
200,339,81225,1,2,3:2:0:0:
215,246,81389,1,0,3:2:0:0:
284,383,81554,1,10,0:0:0:0:
413,23,81884,6,0,L|323:34,1,90,4|0,0:1|3:0,0:0:0:0:
256,110,82131,1,0,0:0:0:0:
256,110,82214,2,0,L|345:121,1,90,10|0,3:2|3:2,0:0:0:0:
307,203,82461,1,0,0:0:0:0:
307,203,82543,2,0,L|341:286,1,90,2|0,3:2|3:0,0:0:0:0:
450,124,82873,2,0,L|395:195,1,90,10|0,0:0|3:0,0:0:0:0:
256,20,83203,6,0,L|256:148,1,90,2|0,0:0|3:0,0:0:0:0:
62,124,83532,2,0,L|116:195,1,90,10|0,0:0|3:0,0:0:0:0:
170,266,83780,1,0,3:0:0:0:
170,266,83862,1,0,3:0:0:0:
256,200,84027,1,0,3:0:0:0:
342,266,84192,1,10,0:0:0:0:
333,155,84356,1,2,3:2:0:0:
256,289,84521,5,2,3:2:0:0:
179,155,84686,1,2,3:2:0:0:
193,351,84851,2,0,P|243:376|306:361,1,90,8|0,0:0|3:2,0:0:0:0:
341,312,85098,1,0,3:2:0:0:
341,312,85181,2,0,P|337:256|293:209,1,90,0|0,3:2|3:0,0:0:0:0:
179,155,85510,1,10,0:0:0:0:
256,289,85675,1,2,3:2:0:0:
18,335,85840,5,2,3:2:0:0:
30,236,86005,1,2,3:2:0:0:
176,303,86170,1,10,0:0:0:0:
127,217,86334,1,0,0:0:0:0:
109,376,86499,1,4,3:0:0:0:
225,217,86664,1,8,0:0:0:0:
225,217,86747,1,8,0:0:0:0:
225,217,86829,2,0,L|289:232,1,45,8|8,0:0|0:0,0:0:0:0:
343,142,86994,2,0,L|279:157,1,45,8|8,0:0|0:0,0:0:0:0:
264,311,87159,6,0,L|362:287,1,90,12|0,0:1|3:0,0:0:0:0:
400,214,87406,1,0,0:0:0:0:
400,214,87488,2,0,L|498:237,1,90,10|0,0:2|0:0,0:0:0:0:
430,121,87736,1,0,3:0:0:0:
430,121,87818,2,0,L|342:141,1,90,2|0,3:2|3:0,0:0:0:0:
166,100,88148,2,0,L|254:121,1,90,10|0,0:0|3:0,0:0:0:0:
140,14,88477,6,8,P|98:43|77:97,1,90,2|0,3:2|3:0,0:0:0:0:
127,247,88807,2,8,P|125:202|103:164,1,90,10|0,0:0|3:0,0:0:0:0:
18,317,89137,1,0,3:0:0:0:
38,228,89302,1,0,3:0:0:0:
196,355,89466,1,10,0:0:0:0:
127,247,89631,1,2,3:2:0:0:
107,336,89796,5,2,3:2:0:0:
217,226,89961,1,2,3:2:0:0:
271,300,90126,2,0,P|298:265|306:221,1,90,10|0,0:0|3:0,0:0:0:0:
258,145,90373,1,0,3:0:0:0:
258,145,90455,2,0,P|266:101|294:65,1,90,0|0,3:0|3:0,0:0:0:0:
452,242,90785,1,10,0:0:0:0:
437,152,90949,1,2,3:2:0:0:
306,221,91115,5,2,3:2:0:0:
347,139,91280,1,2,3:2:0:0:
371,284,91444,2,0,P|323:311|270:304,1,90,10|0,0:0|0:0,0:0:0:0:
207,271,91692,1,0,3:0:0:0:
207,271,91774,2,0,L|216:366,1,90,0|0,3:0|3:0,0:0:0:0:
379,194,92104,2,0,L|370:289,1,90,10|0,0:0|3:0,0:0:0:0:
116,143,92433,6,0,P|107:189|128:239,1,90,4|2,0:1|3:2,0:0:0:0:
197,180,92681,1,0,0:0:0:0:
197,180,92763,2,0,P|243:196|297:182,1,90,8|2,3:2|3:2,0:0:0:0:
247,104,93010,1,0,3:0:0:0:
247,104,93093,2,0,P|263:58|249:4,1,90,0|2,3:0|3:2,0:0:0:0:
81,62,93422,2,0,L|171:54,1,90,10|0,0:0|0:0,0:0:0:0:
431,62,93752,6,0,L|341:54,1,90,2|0,3:2|0:0,0:0:0:0:
140,245,94082,2,0,L|132:155,1,90,8|0,0:0|3:0,0:0:0:0:
380,155,94411,2,0,L|372:245,1,90,0|0,3:0|3:0,0:0:0:0:
81,322,94741,2,0,L|171:330,1,90,10|0,0:0|0:0,0:0:0:0:
431,322,95071,6,0,L|341:330,1,90,2|0,3:2|3:0,0:0:0:0:
264,182,95400,2,0,L|272:272,1,90,8|0,0:0|3:0,0:0:0:0:
179,232,95648,1,0,0:0:0:0:
179,232,95730,2,0,L|187:142,1,90,0|0,3:0|3:0,0:0:0:0:
39,65,96060,2,0,L|129:73,1,90,8|0,0:0|0:0,0:0:0:0:
61,325,96389,5,2,3:2:0:0:
75,145,96553,1,2,3:2:0:0:
217,338,96719,1,8,0:0:0:0:
150,197,96884,1,2,3:2:0:0:
136,377,97049,1,2,3:2:0:0:
231,158,97214,1,4,3:0:0:0:
298,299,97378,1,10,0:0:0:0:
312,119,97543,1,2,3:2:0:0:
217,338,97708,6,0,P|242:371|298:389,1,90,6|0,0:0|3:0,0:0:0:0:
298,299,97955,1,0,3:0:0:0:
298,299,98038,2,0,P|314:260|301:203,1,90,10|2,3:2|3:2,0:0:0:0:
394,235,98285,1,0,3:0:0:0:
394,235,98367,2,8,P|435:229|478:190,1,90,0|4,3:2|3:0,0:0:0:0:
456,20,98697,2,0,L|464:110,1,90,10|0,0:0|0:0,0:0:0:0:
307,213,99027,5,2,3:2:0:0:
233,67,99192,1,0,3:2:0:0:
222,255,99356,2,0,P|262:296|327:307,1,90,8|0,0:0|3:0,0:0:0:0:
337,302,99604,1,0,3:0:0:0:
337,302,99686,1,0,3:0:0:0:
312,119,99851,1,0,3:0:0:0:
143,202,100016,2,8,P|127:257|150:318,1,90,10|0,0:0|3:0,0:0:0:0:
416,354,100345,6,8,P|430:312|425:268,1,90,2|0,3:2|3:2,0:0:0:0:
312,119,100675,2,0,L|328:232,1,90,8|0,0:0|3:0,0:0:0:0:
331,252,100922,1,0,3:0:0:0:
331,252,101005,1,0,3:0:0:0:
401,106,101170,1,2,0:0:0:0:
210,42,101334,2,0,L|226:155,1,90,10|2,0:0|0:0,0:0:0:0:
389,17,101664,5,12,0:0:0:0:
247,308,101827,1,0,3:0:0:0:
300,30,101991,1,12,0:0:0:0:
337,296,102155,1,0,3:0:0:0:
478,4,102319,1,12,0:0:0:0:
325,207,102483,1,8,0:0:0:0:
325,207,102565,1,8,0:0:0:0:
325,207,102647,1,8,0:0:0:0:
389,17,102811,1,8,0:0:0:0:
413,194,102975,6,0,L|433:324,1,90,4|0,0:1|3:0,0:0:0:0:
234,220,103304,1,8,0:0:0:0:
312,119,103469,2,0,L|332:249,1,90,0|2,3:0|3:2,0:0:0:0:
133,144,103799,1,0,3:0:0:0:
211,43,103964,2,0,L|231:173,1,90,8|0,0:0|0:0,0:0:0:0:
160,321,104293,5,2,3:2:0:0:
146,232,104457,1,0,3:0:0:0:
248,340,104623,1,10,0:0:0:0:
262,251,104787,1,0,3:0:0:0:
364,359,104953,1,2,3:2:0:0:
350,270,105117,1,0,3:0:0:0:
452,378,105282,1,10,0:0:0:0:
466,289,105446,1,0,3:0:0:0:
336,181,105612,6,0,L|354:297,1,90,2|0,3:2|3:0,0:0:0:0:
406,124,105942,1,10,0:0:0:0:
253,150,106106,1,2,3:2:0:0:
393,36,106271,1,2,3:2:0:0:
240,62,106436,1,0,3:0:0:0:
419,212,106601,2,0,L|406:124,1,90,8|0,0:0|3:0,0:0:0:0:
164,164,106931,6,0,L|177:252,1,90,2|0,3:2|3:0,0:0:0:0:
253,150,107260,1,8,0:0:0:0:
151,75,107425,1,0,3:2:0:0:
266,238,107590,1,2,3:2:0:0:
240,62,107755,1,2,3:2:0:0:
89,266,107920,2,0,P|104:307|139:336,1,90,10|2,0:0|3:2,0:0:0:0:
236,319,108167,1,0,0:0:0:0:
236,319,108249,6,0,P|260:281|265:237,1,90,6|0,3:2|0:0,0:0:0:0:
164,164,108579,1,8,0:0:0:0:
338,82,108744,2,0,P|362:119|367:163,1,90,0|0,3:2|3:2,0:0:0:0:
265,237,109073,1,0,3:0:0:0:
271,29,109238,2,0,P|308:2|354:-2,1,90,8|2,0:0|0:0,0:0:0:0:
434,216,109568,6,0,P|397:243|351:247,1,90,2|0,3:2|3:0,0:0:0:0:
164,164,109898,1,8,0:0:0:0:
334,112,110062,1,0,3:0:0:0:
209,313,110227,1,0,3:2:0:0:
249,138,110391,1,0,3:2:0:0:
380,260,110557,1,8,0:0:0:0:
334,112,110722,1,0,3:2:0:0:
294,285,110887,6,0,P|317:324|363:348,1,90,2|2,3:2|3:2,0:0:0:0:
400,174,111216,1,8,0:0:0:0:
249,138,111381,1,0,3:2:0:0:
419,86,111546,1,2,3:2:0:0:
315,200,111711,1,0,3:2:0:0:
485,148,111876,2,0,P|509:93|504:48,1,90,8|0,0:0|3:2,0:0:0:0:
268,50,112205,5,2,3:2:0:0:
230,226,112370,1,0,3:0:0:0:
400,174,112535,1,14,0:0:0:0:
249,138,112700,1,0,3:0:0:0:
293,286,112865,1,4,3:2:0:0:
334,112,113029,1,0,3:0:0:0:
334,112,113112,1,8,0:0:0:0:
334,112,113194,1,8,0:0:0:0:
164,164,113359,1,8,0:0:0:0:
380,260,113524,6,0,P|425:259|478:216,1,90,4|0,0:1|0:0,0:0:0:0:
334,112,113854,1,8,0:0:0:0:
293,286,114018,2,0,P|315:324|353:347,1,90,0|0,3:2|3:0,0:0:0:0:
400,174,114348,1,0,3:0:0:0:
230,226,114513,2,0,P|207:264|207:309,1,90,10|0,0:0|0:0,0:0:0:0:
226,54,114843,6,0,P|248:92|248:137,1,90,2|0,3:2|3:2,0:0:0:0:
70,121,115172,2,0,L|160:117,1,90,8|0,0:0|3:2,0:0:0:0:
186,203,115420,1,0,3:2:0:0:
186,203,115502,2,0,L|96:207,1,90,2|0,3:2|3:0,0:0:0:0:
326,203,115832,2,0,L|415:207,1,90,8|0,0:0|3:0,0:0:0:0:
441,121,116079,1,0,0:0:0:0:
441,121,116161,6,0,L|352:117,1,90,2|0,3:2|3:0,0:0:0:0:
300,285,116491,1,8,0:0:0:0:
326,203,116656,1,0,3:2:0:0:
186,203,116821,1,2,3:2:0:0:
213,286,116985,1,0,3:2:0:0:
255,151,117150,2,0,P|222:123|178:115,1,90,8|2,0:0|3:2,0:0:0:0:
128,269,117480,6,0,P|168:288|213:286,1,90,0|0,3:2|0:0,0:0:0:0:
333,115,117810,2,0,P|289:123|256:151,1,90,8|0,0:0|3:2,0:0:0:0:
326,203,118057,1,0,3:2:0:0:
326,203,118139,2,0,P|369:195|403:166,1,90,0|0,3:2|3:0,0:0:0:0:
340,29,118469,2,0,P|324:70|333:114,1,90,8|2,0:2|3:2,0:0:0:0:
319,288,118799,6,0,P|334:246|325:202,1,90,6|0,0:0|3:0,0:0:0:0:
256,151,119128,1,8,0:0:0:0:
166,274,119293,2,8,P|210:266|244:238,1,90,0|0,3:0|3:0,0:0:0:0:
256,151,119623,1,0,3:0:0:0:
101,135,119788,2,8,P|129:169|171:183,1,90,8|0,0:0|3:0,0:0:0:0:
340,118,120117,6,8,P|382:132|411:167,1,90,2|0,3:2|0:0,0:0:0:0:
329,301,120447,1,10,0:0:0:0:
331,210,120612,1,0,3:2:0:0:
488,213,120777,1,2,3:2:0:0:
411,166,120942,1,2,3:2:0:0:
407,347,121106,1,8,0:0:0:0:
486,304,121271,1,2,3:2:0:0:
331,210,121436,5,2,0:0:0:0:
407,347,121601,1,0,3:2:0:0:
411,166,121766,1,8,0:0:0:0:
329,300,121931,1,0,3:2:0:0:
181,210,122095,1,2,3:2:0:0:
105,347,122260,1,0,3:2:0:0:
101,166,122425,1,8,0:0:0:0:
183,301,122590,1,0,3:2:0:0:
256,162,122755,5,2,3:2:0:0:
329,300,122920,1,2,3:2:0:0:
333,120,123084,1,8,0:0:0:0:
181,210,123249,1,2,3:2:0:0:
331,210,123414,1,0,3:2:0:0:
179,120,123579,1,2,3:2:0:0:
256,349,123744,1,12,0:0:0:0:
256,162,123909,1,0,0:2:0:0:
104,347,124073,6,0,P|61:354|19:339,1,90,4|0,0:0|0:0,0:0:0:0:
76,177,124403,2,0,P|83:220|68:262,1,90,10|0,0:0|3:0,0:0:0:0:
171,205,124650,1,0,3:0:0:0:
171,205,124733,2,0,P|163:161|178:119,1,90,0|0,3:0|3:0,0:0:0:0:
339,175,125062,2,0,P|295:183|254:168,1,90,8|0,0:0|0:0,0:0:0:0:
422,139,125392,6,0,P|429:182|414:224,1,90,2|0,3:2|3:0,0:0:0:0:
326,352,125722,2,0,P|318:308|334:267,1,90,8|0,0:0|3:2,0:0:0:0:
244,255,125969,1,0,3:0:0:0:
244,255,126051,2,8,P|202:239|173:205,1,90,2|0,3:2|3:0,0:0:0:0:
108,65,126381,2,0,P|116:109|101:151,1,90,8|0,0:0|3:2,0:0:0:0:
35,292,126711,6,0,L|136:281,1,90,2|0,3:2|0:0,0:0:0:0:
263,215,127040,2,0,L|173:205,1,90,8|0,0:0|3:0,0:0:0:0:
223,129,127288,1,0,3:0:0:0:
223,129,127370,2,0,L|324:118,1,90,2|0,3:2|3:0,0:0:0:0:
451,52,127700,2,0,L|350:41,1,90,8|0,0:0|3:0,0:0:0:0:
431,230,128029,6,0,L|441:141,1,90,0|0,3:0|3:0,0:0:0:0:
262,214,128359,2,0,L|272:304,1,90,8|0,0:0|3:0,0:0:0:0:
358,331,128606,1,0,0:0:0:0:
358,331,128689,2,0,L|348:241,1,90,0|0,3:0|3:0,0:0:0:0:
177,188,129018,2,0,L|186:277,1,90,12|0,0:0|3:0,0:0:0:0:
444,358,129348,6,0,L|434:268,1,90,6|0,0:0|0:0,0:0:0:0:
341,142,129678,2,0,L|423:178,1,90,8|0,0:0|3:0,0:0:0:0:
423,178,129925,1,0,0:0:0:0:
423,178,130007,1,2,3:2:0:0:
331,52,130172,1,0,3:0:0:0:
268,195,130337,2,0,L|350:231,1,90,10|0,0:0|3:0,0:0:0:0:
252,102,130667,6,0,P|212:122|185:157,1,90,0|0,3:0|3:0,0:0:0:0:
39,148,130996,2,0,P|79:168|107:204,1,90,8|0,0:0|3:0,0:0:0:0:
105,249,131244,1,0,0:0:0:0:
105,249,131326,1,2,3:2:0:0:
185,157,131491,1,0,3:0:0:0:
286,325,131656,1,10,0:0:0:0:
297,204,131821,1,0,3:2:0:0:
168,353,131985,6,0,L|38:383,1,90,2|2,3:2|3:2,0:0:0:0:
297,204,132315,2,0,L|384:224,1,90,12|0,0:0|3:0,0:0:0:0:
390,245,132562,1,0,3:0:0:0:
396,267,132644,1,2,3:2:0:0:
358,138,132810,1,0,3:2:0:0:
235,269,132975,1,14,0:2:0:0:
183,97,133139,1,0,3:0:0:0:
322,289,133304,5,2,3:2:0:0:
271,118,133469,1,0,3:0:0:0:
173,334,133634,1,12,0:0:0:0:
209,183,133799,1,8,0:0:0:0:
209,183,133881,1,8,0:0:0:0:
209,183,133964,1,12,0:0:0:0:
261,355,134128,1,8,0:3:0:0:
297,204,134293,1,4,0:3:0:0:
101,190,134458,6,0,B|25:141|25:141|85:91|149:77|149:77|194:99|194:99|310:-35|505:25|505:25|462:226|286:258|286:258|282:309|282:309|239:357|164:383|164:383|161:296|161:296|105:382|61:309|8:375|8:375|0:281|91:266,1,1575,4|0,0:1|0:0,0:0:0:0:
