osu file format v14

[General]
AudioFilename: audio.mp3
AudioLeadIn: 0
PreviewTime: 75950
Countdown: 0
SampleSet: Soft
StackLeniency: 0.3
Mode: 0
LetterboxInBreaks: 0
EpilepsyWarning: 1
WidescreenStoryboard: 1

[Editor]
Bookmarks: 4742,15951,37050,42324,63423,92434,102984,124083,133808
DistanceSpacing: 1.4
BeatDivisor: 4
GridSize: 32
TimelineZoom: 2.100001

[Metadata]
Title:Hikari
TitleUnicode:光
Artist:RADWIMPS
ArtistUnicode:RADWIMPS
Creator:Haruto
Version:Milan-'s Hard
Source:
Tags:Light Human Bloom 人間開花 Ningen kaika short cut version haruto_aizawa monstrata ipas newipas appleeaterx milan- rizen kalibe sotarks sytarno irohas mugiwarasekai a q p w a_q_p_w kimi no na wa nawa 君の名は。 your name
BeatmapID:1173979
BeatmapSetID:547714

[Difficulty]
HPDrainRate:5
CircleSize:3.4
OverallDifficulty:6
ApproachRate:8
SliderMultiplier:1.4
SliderTickRate:1

[Events]
//Background and Video events
0,0,"7374744.jpg",0,0
//Break Periods
//Storyboard Layer 0 (Background)
//Storyboard Layer 1 (Fail)
//Storyboard Layer 2 (Pass)
//Storyboard Layer 3 (Foreground)
//Storyboard Sound Samples

[TimingPoints]
120,331.491712707182,4,2,2,60,1,0
4762,315.789473684211,4,2,2,60,1,0
5387,329.789923818528,4,2,2,60,1,0
15940,-125,4,2,2,50,0,0
42324,329.67032967033,4,2,2,50,1,0
42324,-125,4,2,2,50,0,0
73972,-83.3333333333333,4,2,2,60,0,0
76609,-100,4,2,2,75,0,1
101664,327.868852459016,4,2,2,75,1,1
102975,329.67032967033,4,2,2,75,1,0
134293,-100,4,2,0,75,0,0
134458,-344.827586206897,4,2,2,65,0,0
134540,-344.827586206897,4,2,2,5,0,0

[Colours]
Combo1 : 248,243,97
Combo2 : 122,145,205
Combo3 : 240,175,145
Combo4 : 80,163,186

[HitObjects]
492,123,4762,6,0,P|442:118|400:162,1,105,12|0,0:0|0:0,0:0:0:0:
400,173,5077,2,0,L|426:223,3,35,8|0|8|8,0:0|0:0|0:0|0:0,0:0:0:0:
412,224,5387,5,4,3:0:0:0:
314,219,5551,1,0,3:0:0:0:
217,202,5716,2,0,L|111:220,1,105,8|0,0:0|3:0,0:0:0:0:
113,219,6046,2,0,L|132:298,1,70,0|0,3:3|3:0,0:0:0:0:
11,228,6376,2,0,L|27:159,1,70,8|0,0:0|3:0,0:0:0:0:
79,44,6706,6,0,P|110:29|145:32,1,70,2|2,3:2|3:2,0:0:0:0:
169,128,7035,2,0,P|200:142|235:139,1,70,8|8,0:0|3:2,0:0:0:0:
323,95,7365,1,0,3:2:0:0:
412,135,7530,1,0,3:2:0:0:
333,193,7695,2,0,P|321:232|325:272,1,70,10|2,0:0|3:2,0:0:0:0:
334,271,7942,1,0,0:0:0:0:
349,276,8025,6,0,L|444:262,1,70,2|2,3:2|3:2,0:0:0:0:
396,371,8355,2,0,L|262:365,1,105,8|0,0:0|0:0,0:0:0:0:
291,366,8684,2,0,L|221:376,1,70,2|2,3:2|3:2,0:0:0:0:
129,339,9014,1,8,0:0:0:0:
129,339,9344,5,2,3:2:0:0:
166,248,9509,1,0,0:0:0:0:
68,260,9674,1,8,0:0:0:0:
107,170,9839,1,0,3:2:0:0:
107,170,9921,1,0,0:0:0:0:
106,170,10004,2,0,P|109:135|100:101,1,70,2|2,3:2|3:2,0:0:0:0:
166,248,10333,2,0,P|192:224|210:195,1,70,8|2,0:0|3:2,0:0:0:0:
223,330,10663,5,4,0:1:0:0:
223,330,10828,1,0,0:0:0:0:
320,341,10993,2,0,L|426:323,1,105,8|0,0:0|3:2,0:0:0:0:
424,324,11323,2,0,L|405:245,1,70,0|2,3:2|3:2,0:0:0:0:
314,225,11653,2,0,L|333:146,1,70,8|2,0:2|3:2,0:0:0:0:
396,65,11982,6,0,P|361:71|328:62,1,70,2|2,3:2|3:2,0:0:0:0:
236,96,12312,2,0,P|202:87|168:93,1,70,8|8,0:2|3:2,0:0:0:0:
70,77,12642,1,2,3:2:0:0:
52,173,12807,1,2,3:2:0:0:
139,216,12972,2,0,P|151:255|147:295,1,70,8|8,0:0|0:0,0:0:0:0:
138,294,13219,1,0,0:0:0:0:
123,299,13302,6,0,L|135:367,1,70,2|2,3:2|3:2,0:0:0:0:
262,357,13631,2,0,L|240:227,1,105,8|0,0:0|0:0,0:0:0:0:
244,253,13961,2,0,L|256:185,1,70,2|2,3:2|3:2,0:0:0:0:
337,127,14291,1,8,0:0:0:0:
341,131,14621,5,2,3:2:0:0:
341,131,14786,1,2,3:2:0:0:
215,97,14951,1,8,0:2:0:0:
215,97,15116,1,8,0:0:0:0:
159,228,15280,2,0,L|166:269,4,35,0|0|8|8|8,3:0|3:3|3:2|3:2|0:0,0:0:0:0:
159,228,15940,6,0,L|272:218,1,112,4|8,0:1|0:0,0:0:0:0:
354,250,16435,1,0,3:2:0:0:
421,190,16600,2,0,L|427:128,1,56,2|2,3:2|3:2,0:0:0:0:
336,142,16929,2,0,L|332:26,2,112,10|0|8,0:0|3:0|0:0,0:0:0:0:
248,122,17754,1,0,3:0:0:0:
248,122,17836,1,0,0:0:0:0:
248,122,17919,2,0,L|170:136,1,56,2|2,3:2|3:2,0:0:0:0:
71,149,18249,1,10,0:0:0:0:
142,203,18413,1,2,3:2:0:0:
101,283,18578,6,0,P|164:260|227:283,1,112,4|8,0:0|0:0,0:0:0:0:
281,219,19073,1,0,3:2:0:0:
336,289,19238,2,0,L|323:363,1,56,2|2,3:2|3:2,0:0:0:0:
414,361,19568,2,0,L|423:305,1,56,10|0,0:0|3:2,0:0:0:0:
398,219,19898,2,0,P|452:227|503:205,1,112,0|8,3:2|0:0,0:0:0:0:
442,139,20392,1,0,3:0:0:0:
442,139,20475,1,0,0:0:0:0:
442,139,20557,2,0,L|453:71,1,56,2|2,3:2|3:2,0:0:0:0:
347,9,20887,1,10,0:0:0:0:
348,98,21052,1,0,3:0:0:0:
267,136,21217,6,0,L|150:115,1,112,0|8,3:2|0:0,0:0:0:0:
76,158,21711,1,0,3:0:0:0:
32,79,21876,2,0,L|23:10,1,56,2|2,3:2|3:2,0:0:0:0:
114,27,22206,2,0,L|231:6,2,112,10|0|8,0:0|3:3|0:0,0:0:0:0:
32,79,23031,1,0,3:0:0:0:
32,79,23113,1,0,0:0:0:0:
32,79,23196,2,0,L|39:134,1,56,2|2,3:2|3:2,0:0:0:0:
13,249,23525,1,10,0:0:0:0:
92,207,23690,1,0,3:2:0:0:
165,258,23855,6,0,P|235:257|263:219,1,112,0|8,3:2|0:0,0:0:0:0:
316,158,24350,1,0,3:2:0:0:
228,140,24515,2,0,L|237:84,1,56,2|2,3:2|3:2,0:0:0:0:
314,13,24845,2,0,L|323:68,1,56,10|0,0:0|3:0,0:0:0:0:
316,158,25174,2,0,P|356:121|410:128,1,112,0|8,3:0|0:0,0:0:0:0:
474,191,25669,1,0,0:0:0:0:
410,253,25834,2,0,L|354:247,1,56,2|6,3:2|3:2,0:0:0:0:
444,335,26164,1,10,0:0:0:0:
361,369,26329,1,0,3:0:0:0:
361,369,26411,1,0,0:0:0:0:
361,369,26494,6,0,L|232:353,1,112,4|8,0:1|0:0,0:0:0:0:
212,273,26988,1,0,0:0:0:0:
126,297,27153,2,0,L|137:374,1,56,2|2,3:2|3:2,0:0:0:0:
37,335,27483,2,0,P|27:294|46:226,2,112,10|0|8,0:0|3:2|0:0,0:0:0:0:
126,297,28307,1,0,3:0:0:0:
126,297,28390,1,0,0:0:0:0:
126,297,28472,2,0,L|204:283,1,56,2|2,3:2|3:2,0:0:0:0:
217,166,28802,1,10,0:0:0:0:
274,235,28967,1,0,3:2:0:0:
355,197,29132,6,0,P|381:131|366:76,1,112,0|8,3:0|0:0,0:0:0:0:
298,42,29627,1,0,3:0:0:0:
215,74,29791,2,0,L|137:65,1,56,2|2,3:2|3:2,0:0:0:0:
137,155,30121,2,0,L|59:146,1,56,10|0,0:0|0:0,0:0:0:0:
11,204,30451,2,0,P|77:211|117:255,1,112,2|8,3:2|0:0,0:0:0:0:
210,233,30946,1,0,3:2:0:0:
210,233,31028,1,0,0:0:0:0:
210,233,31111,2,0,L|272:221,1,56,2|6,3:2|3:2,0:0:0:0:
380,140,31440,1,10,0:0:0:0:
357,226,31605,1,0,3:2:0:0:
442,200,31770,6,0,P|500:256|501:295,1,112,4|8,0:1|0:0,0:0:0:0:
421,323,32265,1,0,3:0:0:0:
337,353,32430,2,0,L|264:344,1,56,2|2,3:2|3:2,0:0:0:0:
214,285,32760,2,0,L|88:316,2,112,10|0|8,0:0|3:0|0:0,0:0:0:0:
274,218,33584,1,2,3:2:0:0:
274,218,33667,1,0,0:0:0:0:
274,218,33749,2,0,L|266:162,1,56,2|2,3:2|3:2,0:0:0:0:
277,46,34079,1,10,0:0:0:0:
202,96,34244,1,0,3:2:0:0:
122,55,34409,6,0,P|54:70|19:118,1,112,0|8,3:2|0:0,0:0:0:0:
87,167,34903,1,0,3:2:0:0:
68,254,35068,2,0,L|134:243,1,56,2|0,3:2|3:2,0:0:0:0:
212,241,35398,2,0,L|207:318,1,56,10|0,0:0|0:0,0:0:0:0:
247,378,35728,2,0,P|315:363|350:315,1,112,4|8,3:3|0:0,0:0:0:0:
426,301,36223,1,0,3:2:0:0:
377,224,36387,2,0,P|374:183|385:142,1,84,6|0,3:2|3:2,0:0:0:0:
385,142,36717,2,0,P|390:113|384:76,1,56,8|0,0:0|3:0,0:0:0:0:
283,196,37047,6,0,P|242:205|178:155,1,112,4|10,0:1|0:0,0:0:0:0:
141,91,37542,2,0,P|100:82|36:132,1,112,2|2,3:2|3:2,0:0:0:0:
12,201,38036,1,10,0:0:0:0:
12,200,38366,6,0,P|65:209|88:257,1,112,2|10,3:2|0:0,0:0:0:0:
140,331,38861,2,0,P|187:336|239:283,1,112,2|2,3:2|3:2,0:0:0:0:
323,291,39356,1,8,0:0:0:0:
323,291,39685,6,0,P|346:239|408:221,1,112,4|10,0:1|0:0,0:0:0:0:
462,161,40180,2,0,L|475:118,2,28,0|0|2,3:0|0:0|3:2,0:0:0:0:
377,129,40510,1,2,0:0:0:0:
292,98,40675,2,0,L|222:106,1,56,8|2,0:0|0:0,0:0:0:0:
167,8,41005,6,0,L|237:16,1,56,2|2,3:2|3:2,0:0:0:0:
141,101,41334,2,0,P|115:150|123:213,1,112,12|6,0:0|3:2,0:0:0:0:
212,259,41829,1,8,0:0:0:0:
212,259,41912,1,8,0:0:0:0:
212,259,41994,2,0,L|249:257,3,28,8|8|8|8,0:0|0:0|0:0|0:0,0:0:0:0:
261,264,42324,6,0,L|381:252,1,112,4|8,0:1|0:0,0:0:0:0:
438,191,42818,1,0,0:0:0:0:
457,278,42983,2,0,L|451:340,1,56,2|2,3:2|3:2,0:0:0:0:
438,191,43313,2,0,L|434:79,2,112,10|0|8,0:0|3:0|0:0,0:0:0:0:
372,252,44137,1,0,3:0:0:0:
372,252,44219,1,0,3:0:0:0:
372,252,44302,2,0,L|294:238,1,56,2|2,3:2|3:2,0:0:0:0:
195,225,44631,1,10,0:0:0:0:
266,171,44796,1,0,3:0:0:0:
184,134,44961,6,0,P|117:128|62:166,1,112,2|8,3:2|0:0,0:0:0:0:
8,204,45455,1,0,3:0:0:0:
63,274,45620,2,0,L|50:348,1,56,2|2,3:2|3:2,0:0:0:0:
143,325,45950,2,0,L|152:269,1,56,8|0,0:0|3:2,0:0:0:0:
232,231,46280,2,0,P|298:225|353:263,1,112,0|10,3:2|0:0,0:0:0:0:
434,229,46774,1,0,3:0:0:0:
434,229,46856,1,0,3:0:0:0:
434,229,46939,2,0,L|423:297,1,56,2|2,3:2|3:2,0:0:0:0:
306,329,47269,1,10,0:0:0:0:
337,245,47433,1,0,3:0:0:0:
248,261,47598,6,0,P|193:267|141:247,1,112,0|8,3:0|3:2,0:0:0:0:
63,293,48093,1,0,0:3:0:0:
63,203,48258,2,0,L|69:135,1,56,2|2,3:2|3:2,0:0:0:0:
112,69,48587,2,0,P|63:92|-5:90,2,112,10|0|8,0:0|3:0|0:0,0:0:0:0:
205,42,49411,1,0,0:0:0:0:
205,42,49494,1,0,0:0:0:0:
205,42,49576,2,0,L|198:97,1,56,2|2,3:2|3:2,0:0:0:0:
210,221,49906,1,10,0:0:0:0:
275,160,50071,1,0,3:2:0:0:
351,206,50236,6,0,P|421:205|449:167,1,112,0|8,3:2|0:0,0:0:0:0:
509,239,50730,1,0,3:0:0:0:
441,297,50895,2,0,L|432:353,1,56,2|2,3:2|3:2,0:0:0:0:
347,383,51225,2,0,L|338:328,1,56,10|0,0:0|0:0,0:0:0:0:
263,277,51554,2,0,P|223:314|169:307,1,112,0|8,3:0|0:0,0:0:0:0:
93,258,52049,1,2,3:2:0:0:
120,172,52214,2,0,L|176:178,1,56,2|6,3:2|3:2,0:0:0:0:
93,85,52543,1,8,0:0:0:0:
179,51,52708,1,2,0:0:0:0:
179,51,52791,1,0,0:0:0:0:
179,51,52873,6,0,L|308:67,1,112,4|8,0:1|0:0,0:0:0:0:
343,137,53367,1,0,3:2:0:0:
414,83,53532,2,0,L|403:6,1,56,2|2,3:2|3:2,0:0:0:0:
500,37,53862,2,0,P|512:90|493:142,2,112,10|0|8,0:0|3:0|0:0,0:0:0:0:
406,27,54686,1,0,3:0:0:0:
406,27,54769,1,0,3:0:0:0:
406,27,54851,2,0,L|328:41,1,56,2|2,3:2|3:2,0:0:0:0:
291,134,55181,1,10,0:0:0:0:
233,65,55345,1,0,3:0:0:0:
204,149,55510,6,0,P|178:215|193:270,1,112,0|8,0:0|0:0,0:0:0:0:
212,340,56005,1,0,3:0:0:0:
293,304,56170,2,0,L|371:313,1,56,2|2,3:2|3:2,0:0:0:0:
383,226,56499,2,0,L|461:235,1,56,10|2,0:0|0:0,0:0:0:0:
509,177,56829,2,0,P|443:170|403:126,1,112,0|8,0:0|0:0,0:0:0:0:
321,152,57324,1,0,3:0:0:0:
321,152,57406,1,0,0:0:0:0:
321,152,57488,2,0,L|259:164,1,56,2|2,3:2|3:2,0:0:0:0:
152,238,57818,1,10,0:0:0:0:
175,152,57983,1,0,3:0:0:0:
90,178,58148,6,0,P|32:122|31:83,1,112,0|8,3:0|0:0,0:0:0:0:
86,24,58642,1,0,0:0:0:0:
174,35,58807,2,0,L|247:44,1,56,2|2,3:2|3:2,0:0:0:0:
301,96,59137,2,0,L|427:65,2,112,10|0|8,0:0|3:0|0:0,0:0:0:0:
238,166,59961,1,0,3:0:0:0:
238,166,60043,1,0,3:0:0:0:
238,166,60126,2,0,L|246:222,1,56,2|2,3:2|3:2,0:0:0:0:
235,338,60455,1,10,0:0:0:0:
310,288,60620,1,0,3:0:0:0:
390,329,60785,6,0,P|458:314|493:266,1,112,0|8,3:2|0:0,0:0:0:0:
425,217,61280,1,0,3:2:0:0:
444,130,61444,2,0,L|378:141,1,56,2|2,3:2|3:2,0:0:0:0:
300,143,61774,2,0,L|305:66,1,56,10|0,0:0|3:0,0:0:0:0:
195,39,62104,6,0,L|204:118,1,56,6|2,0:3|3:2,0:0:0:0:
220,207,62433,2,0,P|176:174|121:178,1,112,12|8,0:0|0:0,0:0:0:0:
47,229,62928,1,8,0:0:0:0:
47,229,63010,1,0,3:0:0:0:
47,229,63093,2,0,L|55:270,3,28,0|8|8|0,3:0|3:0|3:0|3:0,0:0:0:0:
50,288,63422,6,0,P|93:320|148:316,1,112,4|8,0:1|0:0,0:0:0:0:
235,293,63917,2,0,L|236:220,2,56,2|0|2,3:2|3:0|3:2,0:0:0:0:
304,350,64411,1,8,0:0:0:0:
304,349,64741,6,0,P|329:302|382:292,1,112,2|10,3:2|0:0,0:0:0:0:
471,288,65236,2,0,L|525:268,2,56,0|2|2,3:0|3:2|3:2,0:0:0:0:
419,213,65730,1,8,0:0:0:0:
419,213,66060,6,0,P|443:148|422:110,1,112,4|10,0:0|0:0,0:0:0:0:
354,58,66554,2,0,L|359:-9,2,56,2|0|2,3:2|3:2|3:2,0:0:0:0:
273,135,67049,2,0,L|262:67,1,56,8|0,0:0|3:2,0:0:0:0:
191,167,67378,6,0,L|131:158,1,56,2|0,0:0|3:2,0:0:0:0:
75,266,67708,2,0,L|135:257,1,56,10|2,0:0|0:0,0:0:0:0:
215,288,68038,2,0,L|222:318,2,28,2|0|2,3:0|0:0|3:2,0:0:0:0:
278,224,68367,1,12,0:2:0:0:
278,223,68697,6,0,P|322:191|377:196,1,112,4|8,0:1|3:2,0:0:0:0:
459,234,69192,2,0,P|466:203|460:161,2,56,2|0|2,3:2|3:0|0:2,0:0:0:0:
386,288,69686,1,10,0:0:0:0:
386,288,70016,6,0,P|323:292|292:337,1,112,2|10,3:2|0:2,0:0:0:0:
205,335,70510,2,0,P|206:315|217:280,2,56,0|2|2,3:2|3:2|3:2,0:0:0:0:
121,369,71005,1,2,3:2:0:0:
121,369,71334,6,0,P|100:306|45:293,1,112,4|8,0:1|0:2,0:0:0:0:
2,223,71829,2,0,L|12:160,2,56,2|2|2,3:2|3:2|3:2,0:0:0:0:
107,188,72324,2,0,L|97:125,1,56,8|2,0:2|3:2,0:0:0:0:
131,14,72653,6,0,L|186:22,1,56,2|2,3:2|0:2,0:0:0:0:
238,96,72983,2,0,L|293:87,1,56,8|2,3:2|3:2,0:0:0:0:
372,45,73313,2,0,L|375:16,2,28,2|0|0,3:2|0:0|3:2,0:0:0:0:
374,135,73642,1,10,0:2:0:0:
374,135,73972,6,0,L|461:146,1,83.9999974365235,12|0,0:2|3:2,0:0:0:0:
348,224,74302,2,0,L|431:234,1,83.9999974365235,12|0,0:2|3:2,0:0:0:0:
276,281,74631,2,0,L|189:292,1,83.9999974365235,12|0,0:2|3:2,0:0:0:0:
302,370,74961,2,0,L|218:380,1,83.9999974365235,12|0,0:2|3:2,0:0:0:0:
93,314,75290,6,0,L|103:259,3,41.9999987182618,8|8|8|2,3:0|3:0|3:0|3:2,0:0:0:0:
84,252,75620,2,0,L|76:210,3,41.9999987182618,0|8|8|0,3:0|3:0|3:3|3:2,0:0:0:0:
92,189,75950,5,12,0:0:0:0:
0,98,76115,1,12,0:2:0:0:
0,98,76609,6,0,P|51:103|93:74,1,105,12|0,0:1|0:0,0:0:0:0:
105,56,76939,2,0,P|156:50|198:79,1,105,10|0,0:0|3:0,0:0:0:0:
205,99,77269,1,2,3:2:0:0:
295,61,77433,1,0,3:0:0:0:
370,123,77598,2,0,L|439:126,1,70,10|0,0:0|0:0,0:0:0:0:
311,197,77928,6,0,P|297:264|329:324,2,140,2|8|0,3:2|0:0|3:2,0:0:0:0:
247,122,78752,1,0,3:2:0:0:
247,122,78834,1,0,0:0:0:0:
247,122,78917,2,0,L|160:129,1,70,10|2,0:2|3:2,0:0:0:0:
72,213,79247,6,0,L|159:220,1,70,2|0,3:2|3:0,0:0:0:0:
240,226,79576,2,0,P|272:286|258:353,1,140,10|0,0:2|3:0,0:0:0:0:
334,290,80071,1,0,3:0:0:0:
422,331,80236,2,0,P|459:333|512:313,1,70,10|2,0:0|0:0,0:0:0:0:
509,227,80565,6,0,P|449:216|398:145,2,140,2|10|2,3:2|0:0|3:2,0:0:0:0:
499,129,81389,1,0,3:2:0:0:
429,59,81554,2,0,P|388:53|337:66,1,70,10|0,0:0|0:0,0:0:0:0:
309,164,81884,6,0,P|258:168|216:139,1,105,4|0,0:1|0:0,0:0:0:0:
203,122,82214,2,0,P|152:115|110:145,1,105,10|0,3:2|0:0,0:0:0:0:
103,164,82543,1,2,3:2:0:0:
14,127,82708,1,0,3:0:0:0:
24,224,82873,2,0,L|37:302,1,70,10|0,0:0|3:0,0:0:0:0:
102,365,83203,6,0,P|169:362|220:317,2,140,2|10|0,0:0|0:0|3:0,0:0:0:0:
135,272,84027,1,0,3:0:0:0:
135,272,84109,1,0,0:0:0:0:
135,272,84192,2,0,L|146:186,1,70,10|2,0:0|3:2,0:0:0:0:
277,205,84521,6,0,L|260:132,1,70,2|2,3:2|3:2,0:0:0:0:
192,65,84851,2,0,P|265:90|328:54,1,140,8|0,0:0|3:2,0:0:0:0:
410,27,85345,1,0,3:0:0:0:
482,92,85510,2,0,L|466:160,1,70,10|2,0:0|3:2,0:0:0:0:
334,187,85840,6,0,L|351:260,1,70,2|2,3:2|3:2,0:0:0:0:
419,327,86170,2,0,P|346:302|283:338,1,140,10|4,0:0|3:0,0:0:0:0:
199,295,86664,1,8,0:0:0:0:
199,295,86747,1,8,0:0:0:0:
199,295,86829,2,0,L|155:304,3,35,8|8|8|8,0:0|0:0|0:0|0:0,0:0:0:0:
148,315,87159,6,0,P|153:264|124:222,1,105,12|0,0:1|0:0,0:0:0:0:
106,210,87488,2,0,P|100:159|129:117,1,105,10|0,0:2|3:0,0:0:0:0:
149,110,87818,1,2,3:2:0:0:
209,33,87983,1,0,3:0:0:0:
297,74,88148,2,0,L|366:77,1,70,10|0,0:0|3:0,0:0:0:0:
254,158,88477,6,0,P|240:225|272:285,2,140,2|10|0,3:2|0:0|3:0,0:0:0:0:
345,215,89302,1,0,3:0:0:0:
345,215,89384,1,0,0:0:0:0:
345,215,89466,2,0,L|432:208,1,70,10|2,0:0|3:2,0:0:0:0:
367,303,89796,6,0,L|454:310,1,70,2|2,3:2|3:2,0:0:0:0:
508,240,90126,2,0,P|522:172|490:112,1,140,10|0,0:0|3:0,0:0:0:0:
395,84,90620,1,0,3:0:0:0:
317,143,90785,2,0,P|283:151|248:149,1,70,10|2,0:0|3:2,0:0:0:0:
173,47,91115,6,0,P|139:38|104:40,1,70,2|2,3:2|3:2,0:0:0:0:
8,20,91444,2,0,P|72:84|63:153,1,140,10|0,0:0|3:0,0:0:0:0:
30,217,91939,1,0,3:0:0:0:
108,276,92104,2,0,B|152:252|152:252|221:253,1,105,10|0,0:0|0:0,0:0:0:0:
225,264,92433,6,0,P|239:305|237:346,2,70,4|2|8,0:1|3:2|3:2,0:0:0:0:
273,178,92928,2,0,P|274:132|366:57,1,140,2|2,3:2|3:2,0:0:0:0:
427,91,93422,2,0,L|505:75,1,70,10|0,0:0|0:0,0:0:0:0:
502,190,93752,6,0,P|437:181|368:237,2,140,2|8|0,3:2|0:0|3:0,0:0:0:0:
458,278,94576,1,0,3:0:0:0:
368,318,94741,2,0,L|286:302,1,70,10|0,0:0|0:0,0:0:0:0:
191,220,95071,6,0,L|43:257,2,140,2|8|0,3:2|0:0|3:0,0:0:0:0:
374,74,96060,1,8,0:0:0:0:
292,127,96225,1,0,0:0:0:0:
200,91,96389,6,0,P|190:60|189:-4,1,70,2|2,3:2|3:2,0:0:0:0:
86,0,96719,2,0,P|82:34|72:68,1,70,8|2,0:0|3:2,0:0:0:0:
0,156,97049,1,2,3:2:0:0:
86,203,97214,1,4,3:0:0:0:
180,181,97378,2,0,B|175:235|175:235|143:280,1,105,10|0,0:0|0:0,0:0:0:0:
154,296,97708,6,0,P|168:337|166:378,2,70,6|0|10,0:0|3:0|3:2,0:0:0:0:
256,313,98203,2,0,P|302:312|377:220,1,140,2|4,3:2|3:0,0:0:0:0:
425,171,98697,2,0,L|411:95,1,70,10|0,0:0|0:0,0:0:0:0:
337,37,99027,6,0,P|269:46|223:97,2,140,2|8|0,3:2|0:0|3:0,0:0:0:0:
412,102,99851,1,0,3:0:0:0:
362,186,100016,2,0,L|285:177,1,70,10|0,0:0|3:0,0:0:0:0:
223,97,100345,6,0,L|75:134,2,140,2|8|0,3:2|0:0|3:0,0:0:0:0:
195,190,101170,1,2,0:0:0:0:
292,177,101334,2,0,L|362:186,1,70,10|2,0:0|0:0,0:0:0:0:
261,276,101664,6,0,P|250:310|250:345,1,70,12|0,0:0|3:0,0:0:0:0:
157,271,101991,2,0,P|146:304|146:339,1,70,12|0,0:0|3:0,0:0:0:0:
60,258,102319,1,12,0:0:0:0:
96,167,102483,2,0,L|92:129,2,35,8|8|8,0:0|0:0|0:0,0:0:0:0:
195,190,102811,1,8,0:0:0:0:
195,190,102893,1,0,0:0:0:0:
195,190,102975,6,0,L|291:170,1,70,4|0,0:1|3:0,0:0:0:0:
281,79,103304,2,0,L|387:61,1,105,8|0,0:0|0:0,0:0:0:0:
384,61,103634,2,0,P|400:95|400:129,1,70,2|0,3:2|3:0,0:0:0:0:
494,154,103964,2,0,P|494:187|478:223,1,70,8|0,0:0|0:0,0:0:0:0:
433,340,104293,6,0,P|402:355|367:352,1,70,2|0,3:2|3:0,0:0:0:0:
343,256,104623,2,0,P|312:242|277:245,1,70,10|0,0:0|3:0,0:0:0:0:
189,289,104953,1,2,3:2:0:0:
100,249,105117,1,0,3:0:0:0:
179,191,105282,2,0,P|191:152|187:112,1,70,10|0,0:0|3:0,0:0:0:0:
178,113,105529,1,0,0:0:0:0:
163,108,105612,6,0,L|68:122,1,70,2|0,3:2|3:0,0:0:0:0:
116,13,105942,2,0,L|250:19,1,105,10|0,0:0|0:0,0:0:0:0:
221,18,106271,2,0,L|291:8,1,70,2|0,3:2|3:0,0:0:0:0:
383,45,106601,1,8,0:0:0:0:
383,45,106931,5,2,3:2:0:0:
346,136,107095,1,0,3:0:0:0:
444,124,107260,1,8,0:0:0:0:
405,214,107425,1,0,3:2:0:0:
405,214,107507,1,0,0:0:0:0:
406,214,107590,2,0,P|403:249|412:283,1,70,2|2,3:2|3:2,0:0:0:0:
346,136,107920,2,0,P|320:160|302:189,1,70,10|2,0:0|3:2,0:0:0:0:
289,54,108249,5,6,3:2:0:0:
289,54,108414,1,0,0:0:0:0:
192,43,108579,2,0,L|86:61,1,105,8|0,0:0|0:0,0:0:0:0:
88,60,108909,2,0,L|107:139,1,70,0|0,3:2|3:0,0:0:0:0:
198,159,109238,2,0,L|179:238,1,70,8|2,0:0|0:0,0:0:0:0:
116,319,109568,6,0,P|151:313|184:322,1,70,2|0,3:2|3:0,0:0:0:0:
276,288,109898,2,0,P|310:297|344:291,1,70,8|0,0:0|3:0,0:0:0:0:
442,307,110227,1,0,3:2:0:0:
460,211,110392,1,0,3:2:0:0:
373,168,110557,2,0,P|361:129|365:89,1,70,8|0,0:0|3:2,0:0:0:0:
374,90,110804,1,0,0:0:0:0:
388,85,110887,6,0,P|358:25|292:24,1,140,2|8,3:2|0:0,0:0:0:0:
194,21,111381,1,0,3:2:0:0:
240,107,111546,2,0,L|228:175,1,70,2|0,3:2|3:2,0:0:0:0:
143,227,111876,2,0,L|131:159,1,70,8|0,0:0|3:2,0:0:0:0:
27,132,112205,6,0,P|93:131|123:71,1,140,2|14,3:2|0:0,0:0:0:0:
205,17,112700,1,0,3:0:0:0:
286,71,112865,2,0,L|281:148,1,70,4|0,3:2|3:0,0:0:0:0:
378,157,113194,2,0,L|388:190,3,35,8|0|8|0,0:0|0:0|0:0|3:0,0:0:0:0:
381,212,113524,6,0,L|474:193,1,70,4|0,0:1|0:0,0:0:0:0:
456,315,113854,2,0,L|335:303,1,105,8|0,0:0|0:0,0:0:0:0:
351,304,114183,2,0,P|338:332|334:372,1,70,0|0,3:0|3:0,0:0:0:0:
245,310,114513,2,0,L|152:329,1,70,10|0,0:0|0:0,0:0:0:0:
67,281,114843,6,0,P|116:255|126:223,1,70,2|0,3:2|3:2,0:0:0:0:
193,177,115172,2,0,P|194:127|178:97,1,70,8|0,0:0|3:2,0:0:0:0:
223,17,115502,1,2,3:2:0:0:
125,26,115667,1,0,3:0:0:0:
87,116,115832,2,0,L|4:105,1,70,8|0,0:0|3:0,0:0:0:0:
6,119,116079,1,0,0:0:0:0:
1,136,116161,6,0,L|23:284,1,140,2|8,3:2|0:0,0:0:0:0:
116,249,116656,1,0,3:2:0:0:
190,312,116821,2,0,P|215:261|211:216,1,70,2|0,3:2|3:2,0:0:0:0:
290,185,117150,2,0,P|265:134|269:89,1,70,8|2,0:0|3:2,0:0:0:0:
381,127,117480,6,0,P|349:176|359:271,1,140,0|8,3:2|0:0,0:0:0:0:
432,349,117975,1,0,3:2:0:0:
432,349,118057,1,0,3:2:0:0:
431,349,118139,2,0,L|353:346,1,70,0|0,3:2|3:0,0:0:0:0:
281,257,118469,2,0,L|359:254,1,70,8|2,0:2|3:2,0:0:0:0:
458,201,118799,5,6,0:0:0:0:
458,201,118964,1,0,3:0:0:0:
373,150,119128,2,0,P|326:126|267:132,1,105,8|0,0:0|0:0,0:0:0:0:
275,128,119458,2,0,L|294:49,1,70,0|0,3:0|3:0,0:0:0:0:
198,28,119788,2,0,L|181:96,1,70,8|0,0:0|3:0,0:0:0:0:
113,185,120117,6,0,P|78:191|45:182,1,70,2|0,3:2|0:0,0:0:0:0:
13,274,120447,2,0,P|47:268|80:277,1,70,10|0,0:0|3:2,0:0:0:0:
163,330,120777,1,2,3:2:0:0:
247,281,120942,1,2,3:2:0:0:
345,284,121106,2,0,P|357:245|353:205,1,70,8|2,0:0|3:2,0:0:0:0:
344,206,121354,1,0,0:0:0:0:
329,201,121436,6,0,L|341:133,1,70,2|0,0:0|3:2,0:0:0:0:
442,79,121766,2,0,L|464:209,1,105,8|0,0:0|0:0,0:0:0:0:
460,183,122095,2,0,L|543:163,1,70,2|0,3:2|3:2,0:0:0:0:
442,79,122425,1,8,0:0:0:0:
446,83,122755,5,2,3:2:0:0:
446,83,122920,1,2,3:2:0:0:
326,71,123084,1,8,0:0:0:0:
326,71,123249,1,2,3:2:0:0:
248,161,123414,2,0,L|242:248,1,70,0|2,3:2|3:2,0:0:0:0:
180,56,123744,2,0,P|130:39|79:47,1,105,12|0,0:0|0:0,0:0:0:0:
79,47,124073,6,0,L|89:131,1,70,4|0,0:0|0:0,0:0:0:0:
47,206,124403,2,0,P|99:164|178:189,1,140,10|0,0:0|3:0,0:0:0:0:
234,106,124898,1,0,3:0:0:0:
234,106,125062,2,0,P|286:148|365:123,1,140,8|2,0:0|3:2,0:0:0:0:
392,223,125557,1,0,3:0:0:0:
392,223,125722,2,0,P|444:181|523:206,1,140,8|2,0:0|3:2,0:0:0:0:
504,305,126216,1,0,3:0:0:0:
504,305,126381,2,0,P|471:318|437:318,1,70,8|0,0:0|3:2,0:0:0:0:
313,275,126711,6,0,P|278:274|246:261,1,70,2|0,3:2|0:0,0:0:0:0:
181,185,127040,2,0,P|133:167|35:203,1,140,8|2,0:0|3:2,0:0:0:0:
4,276,127535,1,0,3:0:0:0:
4,276,127700,2,0,P|52:294|150:258,1,140,8|0,0:0|3:0,0:0:0:0:
240,269,128194,1,0,3:0:0:0:
240,269,128359,2,0,P|288:251|386:287,1,140,8|0,0:0|3:0,0:0:0:0:
483,253,128854,1,0,3:0:0:0:
483,253,128936,1,0,0:0:0:0:
483,253,129018,2,0,B|489:206|489:206|461:132,1,105,12|0,0:0|0:0,0:0:0:0:
468,152,129348,6,0,L|379:141,1,70,6|0,0:0|0:0,0:0:0:0:
337,66,129678,2,0,P|282:102|212:68,1,140,8|2,0:0|3:2,0:0:0:0:
137,20,130172,1,0,3:0:0:0:
137,20,130337,2,0,P|173:75|139:145,1,140,10|0,0:0|3:0,0:0:0:0:
95,222,130832,1,0,3:0:0:0:
95,222,130996,2,0,P|150:186|220:220,1,140,8|2,0:0|3:2,0:0:0:0:
298,261,131491,1,0,3:0:0:0:
376,202,131656,2,0,P|428:189|453:172,1,70,10|0,0:0|3:2,0:0:0:0:
450,165,131903,1,0,0:0:0:0:
458,149,131985,6,0,L|462:238,1,70,2|2,3:2|3:2,0:0:0:0:
464,316,132315,2,0,P|396:305|342:346,1,140,12|2,0:0|3:2,0:0:0:0:
267,281,132810,1,0,3:2:0:0:
267,281,132975,2,0,P|218:300|182:292,1,70,14|0,0:2|3:0,0:0:0:0:
116,250,133304,2,0,P|85:233|50:232,2,70,2|0|12,3:2|3:0|0:0,0:0:0:0:
190,185,133799,1,8,0:0:0:0:
190,185,133881,1,8,0:0:0:0:
190,185,133964,1,12,0:0:0:0:
147,97,134128,1,8,0:3:0:0:
219,30,134293,1,4,0:3:0:0:
49,84,134458,5,4,0:1:0:0:
256,192,134540,12,0,138578,0:0:0:0:
