osu file format v14

[General]
AudioFilename: audio.mp3
AudioLeadIn: 0
PreviewTime: 75950
Countdown: 0
SampleSet: Soft
StackLeniency: 0.2
Mode: 0
LetterboxInBreaks: 0
EpilepsyWarning: 1
WidescreenStoryboard: 1

[Editor]
Bookmarks: 15951,26500,37050,42324,52874,63423
DistanceSpacing: 1.3
BeatDivisor: 4
GridSize: 8
TimelineZoom: 1.800001

[Metadata]
Title:Hikari
TitleUnicode:光
Artist:RADWIMPS
ArtistUnicode:RADWIMPS
Creator:Haruto
Version:Kalitarks' Insane
Source:
Tags:Light Human Bloom 人間開花 Ningen kaika short cut version haruto_aizawa monstrata ipas newipas appleeaterx milan- rizen kalibe sotarks sytarno irohas mugiwarasekai a q p w a_q_p_w kimi no na wa nawa 君の名は。 your name
BeatmapID:1184238
BeatmapSetID:547714

[Difficulty]
HPDrainRate:6
CircleSize:3.2
OverallDifficulty:7.5
ApproachRate:9
SliderMultiplier:1.72
SliderTickRate:1

[Events]
//Background and Video events
0,0,"7374744.jpg",0,0
//Break Periods
//Storyboard Layer 0 (Background)
//Storyboard Layer 1 (Fail)
//Storyboard Layer 2 (Pass)
//Storyboard Layer 3 (Foreground)
//Storyboard Sound Samples

[TimingPoints]
120,331.491712707182,4,2,1,60,1,0
4762,315.789473684211,4,2,1,60,1,0
5387,329.789923818528,4,2,1,60,1,0
15610,-83.3333333333333,4,2,1,60,0,0
15858,-83.3333333333333,4,2,1,60,0,0
15940,-108.695652173913,4,2,1,50,0,0
42324,329.67032967033,4,2,1,50,1,0
42324,-108.695652173913,4,2,1,50,0,0
71334,-100,4,2,1,60,0,0
75620,-76.9230769230769,4,2,1,60,0,0
76444,-142.857142857143,4,2,1,60,0,0
76609,-90.9090909090909,4,2,1,75,0,1
101664,327.868852459016,4,2,1,75,1,1
101664,-90.9090909090909,4,2,1,75,0,1
102975,329.67032967033,4,2,1,65,1,0
102975,-100,4,2,1,65,0,0
123744,-76.9230769230769,4,2,1,65,0,0
124073,-100,4,2,1,65,0,0
129018,-76.9230769230769,4,2,1,65,0,0
129348,-100,4,2,1,65,0,0
134458,-344.827586206897,4,2,1,65,0,0
134540,-344.827586206897,4,2,1,5,0,0

[Colours]
Combo1 : 248,243,97
Combo2 : 122,145,205
Combo3 : 240,175,145
Combo4 : 80,163,186

[HitObjects]
211,144,4760,5,0,0:0:0:0:
297,236,4919,1,0,3:0:0:0:
297,236,4998,1,0,0:0:0:0:
297,236,5077,2,0,L|303:179,1,43,8|0,0:0|0:0,0:0:0:0:
390,141,5235,2,0,L|399:204,1,43,8|8,0:0|0:0,0:0:0:0:
370,314,5387,6,0,P|316:330|198:272,2,172,4|8|0,3:0|0:0|3:3,0:0:0:0:
297,236,6211,1,0,3:0:0:0:
129,324,6376,2,0,P|124:274|130:227,1,86,8|0,0:0|3:0,0:0:0:0:
193,144,6706,5,2,3:2:0:0:
211,276,6871,1,2,3:2:0:0:
43,255,7035,2,0,L|129:238,1,86,8|8,0:0|3:2,0:0:0:0:
372,224,7365,2,0,L|286:207,1,86,0|0,3:2|3:2,0:0:0:0:
162,63,7695,2,0,P|186:123|199:166,1,86,10|2,0:0|3:2,0:0:0:0:
199,289,8025,5,2,3:2:0:0:
107,159,8190,1,2,3:2:0:0:
125,343,8355,2,0,B|108:293|108:293|114:242,1,86,8|2,0:0|3:2,0:0:0:0:
197,152,8684,1,2,3:2:0:0:
206,299,8849,1,2,3:2:0:0:
117,115,9014,2,0,P|155:76|205:64,1,86,8|2,0:0|3:2,0:0:0:0:
353,201,9344,6,0,P|296:203|191:145,1,172,2|8,3:2|0:0,0:0:0:0:
299,86,9839,1,0,3:2:0:0:
428,256,10004,2,0,P|444:194|437:159,2,86,2|2|8,3:2|3:2|0:0,0:0:0:0:
312,352,10498,1,2,3:2:0:0:
184,203,10663,6,0,B|245:194|245:194|293:207|293:207|374:198,1,172,4|8,0:1|0:0,0:0:0:0:
235,283,11158,1,8,3:2:0:0:
300,122,11323,2,0,L|309:31,1,86,0|2,3:2|3:2,0:0:0:0:
174,117,11653,2,0,L|182:202,1,86,8|2,0:2|3:2,0:0:0:0:
388,227,11982,6,0,P|304:233|219:306,1,172,2|8,3:2|0:2,0:0:0:0:
332,315,12477,1,8,3:2:0:0:
263,133,12642,1,2,3:2:0:0:
229,298,12807,1,2,3:2:0:0:
167,103,12972,1,8,0:0:0:0:
374,221,13137,1,8,0:0:0:0:
133,228,13302,6,0,P|192:214|240:212,1,86,2|2,3:2|3:2,0:0:0:0:
433,146,13631,2,0,P|374:132|326:130,1,86,8|8,0:0|0:0,0:0:0:0:
208,301,13961,1,2,3:2:0:0:
260,116,14126,1,2,3:2:0:0:
298,330,14291,6,0,P|292:273|279:229,1,86,8|8,0:0|0:0,0:0:0:0:
158,97,14621,1,2,3:2:0:0:
208,288,14786,1,2,3:2:0:0:
361,162,14951,2,0,P|296:151|189:191,1,172,8|0,0:2|3:0,0:0:0:0:
164,212,15363,1,0,3:3:0:0:
129,236,15445,1,8,3:2:0:0:
85,243,15528,1,8,3:2:0:0:
39,236,15610,6,0,P|7:191|88:167,1,154.799995275879,8|0,0:0|0:0,0:0:0:0:
129,236,15940,6,0,P|184:243|280:163,2,158.239994687988,4|8|2,0:1|0:0|3:2,0:0:0:0:
77,156,16765,1,2,3:2:0:0:
190,62,16929,2,0,L|174:145,1,79.1199973439942,10|0,0:0|3:0,0:0:0:0:
104,311,17259,6,0,P|89:231|76:151,1,158.239994687988,0|8,3:0|0:0,0:0:0:0:
190,62,17754,1,0,3:0:0:0:
267,190,17919,2,0,P|258:225|248:270,2,79.1199973439942,2|2|10,3:2|3:2|0:0,0:0:0:0:
360,256,18413,1,2,3:2:0:0:
242,350,18578,6,0,P|146:350|95:292,1,158.239994687988,4|8,0:0|0:0,0:0:0:0:
26,219,19073,1,0,3:2:0:0:
26,219,19156,1,0,0:0:0:0:
26,219,19238,2,0,L|106:191,1,79.1199973439942,2|2,3:2|3:2,0:0:0:0:
177,101,19568,2,0,L|98:83,1,79.1199973439942,10|0,0:0|3:2,0:0:0:0:
103,309,19898,6,0,P|199:279|275:288,1,158.239994687988,0|8,3:2|0:0,0:0:0:0:
362,335,20392,1,0,3:0:0:0:
362,335,20557,2,0,P|404:328|463:318,1,79.1199973439942,2|2,3:2|3:2,0:0:0:0:
368,216,20887,1,10,0:0:0:0:
255,283,21052,1,0,3:0:0:0:
120,200,21217,6,0,P|113:105|159:43,1,158.239994687988,0|8,3:2|0:0,0:0:0:0:
291,75,21711,1,0,3:0:0:0:
291,75,21794,1,0,0:0:0:0:
291,75,21876,2,0,P|329:67|374:61,1,79.1199973439942,2|2,3:2|3:2,0:0:0:0:
488,144,22206,2,0,P|449:152|409:156,1,79.1199973439942,10|0,0:0|0:3,0:0:0:0:
260,245,22536,6,0,B|349:217|320:277|431:241,1,158.239994687988,0|8,3:3|0:0,0:0:0:0:
382,360,23031,1,0,3:0:0:0:
382,360,23113,1,0,0:0:0:0:
382,360,23196,2,0,L|299:337,1,79.1199973439942,2|2,3:2|3:2,0:0:0:0:
316,159,23525,2,0,L|400:143,1,79.1199973439942,10|0,0:0|3:2,0:0:0:0:
256,257,23855,6,0,P|158:240|74:231,1,158.239994687988,0|8,3:2|0:0,0:0:0:0:
156,337,24350,1,0,3:2:0:0:
156,337,24515,1,2,3:2:0:0:
256,257,24680,1,2,3:2:0:0:
124,158,24845,2,0,P|108:195|97:245,1,79.1199973439942,10|0,0:0|3:0,0:0:0:0:
232,376,25174,6,0,P|316:360|419:349,1,158.239994687988,0|8,3:0|0:0,0:0:0:0:
280,256,25669,1,0,0:0:0:0:
280,256,25751,1,0,0:0:0:0:
280,256,25833,1,2,3:2:0:0:
216,368,25999,1,6,3:2:0:0:
88,334,26164,2,0,P|153:318|219:302,1,118.679996015991,10|0,0:0|0:0,0:0:0:0:
282,255,26494,6,0,P|328:262|377:275,1,79.1199973439942,4|0,0:1|0:0,0:0:0:0:
501,332,26823,2,0,P|455:339|406:352,1,79.1199973439942,8|0,0:0|0:0,0:0:0:0:
282,255,27153,1,2,3:2:0:0:
432,216,27318,1,2,3:2:0:0:
316,67,27483,2,0,P|304:107|311:149,1,79.1199973439942,10|0,0:0|3:2,0:0:0:0:
471,95,27813,6,0,L|295:63,1,158.239994687988,0|8,3:2|0:0,0:0:0:0:
162,172,28307,1,0,3:0:0:0:
162,172,28390,1,0,0:0:0:0:
162,172,28472,2,0,P|224:165|256:165,1,79.1199973439942,2|2,3:2|3:2,0:0:0:0:
329,266,28802,2,0,P|267:259|235:259,1,79.1199973439942,10|0,0:0|3:2,0:0:0:0:
52,214,29132,6,0,L|88:376,1,158.239994687988,0|8,3:0|0:0,0:0:0:0:
160,216,29626,1,0,3:0:0:0:
224,352,29791,1,2,3:2:0:0:
224,352,29956,1,2,3:2:0:0:
407,259,30121,2,0,P|339:263|299:274,1,79.1199973439942,10|0,0:0|0:0,0:0:0:0:
186,225,30451,6,0,P|288:231|342:287,1,158.239994687988,2|8,3:2|0:0,0:0:0:0:
282,141,30946,1,0,3:2:0:0:
282,141,31028,1,0,0:0:0:0:
282,141,31111,2,0,P|273:90|267:54,1,79.1199973439942,2|6,3:2|3:2,0:0:0:0:
186,225,31440,1,10,0:0:0:0:
139,136,31605,2,0,L|191:131,1,39.5599986719971,0|0,3:2|0:0,0:0:0:0:
283,297,31770,6,0,P|293:232|279:134,1,158.239994687988,4|8,0:1|0:0,0:0:0:0:
192,242,32265,1,0,3:0:0:0:
192,242,32347,1,0,0:0:0:0:
192,242,32430,2,0,L|96:238,1,79.1199973439942,2|2,3:2|3:2,0:0:0:0:
59,139,32760,2,0,L|155:135,1,79.1199973439942,10|0,0:0|0:0,0:0:0:0:
336,188,33089,6,0,B|276:191|276:191|173:252,1,158.239994687988,0|8,3:0|0:0,0:0:0:0:
305,277,33584,1,2,3:2:0:0:
170,149,33749,1,2,3:2:0:0:
137,322,33914,1,2,3:2:0:0:
262,120,34079,2,0,P|316:100|352:98,1,79.1199973439942,10|0,0:0|3:2,0:0:0:0:
486,229,34409,6,0,P|422:221|325:181,1,158.239994687988,0|8,3:2|0:0,0:0:0:0:
433,134,34903,1,0,3:2:0:0:
433,134,34986,1,0,0:0:0:0:
433,134,35068,1,2,3:2:0:0:
444,314,35233,1,0,3:2:0:0:
335,187,35398,2,0,P|324:249|324:285,1,79.1199973439942,10|0,0:0|0:0,0:0:0:0:
223,369,35728,6,0,P|214:285|181:201,2,158.239994687988,4|8|6,3:3|0:0|3:2,0:0:0:0:
106,256,36552,2,0,P|107:199|109:188,1,39.5599986719971,0|0,3:2|3:2,0:0:0:0:
138,127,36717,1,8,0:0:0:0:
138,127,36882,1,0,3:0:0:0:
302,246,37047,6,0,P|235:225|177:212,1,118.679996015991,4|0,0:1|3:0,0:0:0:0:
187,214,37377,1,10,0:0:0:0:
28,271,37542,2,0,P|65:265|119:251,1,79.1199973439942,2|0,3:2|0:0,0:0:0:0:
223,369,37872,2,0,P|183:362|145:353,1,79.1199973439942,2|10,3:2|0:0,0:0:0:0:
22,152,38201,1,0,3:0:0:0:
22,152,38284,1,0,0:0:0:0:
22,152,38366,6,0,P|78:140|151:123,1,118.679996015991,2|0,3:2|3:0,0:0:0:0:
169,114,38696,1,10,0:0:0:0:
243,206,38861,2,0,P|281:215|340:233,1,79.1199973439942,2|0,3:2|3:2,0:0:0:0:
484,133,39191,2,0,P|445:138|407:146,1,79.1199973439942,2|8,3:2|0:0,0:0:0:0:
256,64,39521,1,0,0:0:0:0:
256,64,39603,1,0,0:0:0:0:
256,64,39685,6,0,P|219:144|249:212,1,158.239994687988,4|10,0:1|0:0,0:0:0:0:
337,276,40180,1,0,3:0:0:0:
224,360,40345,2,0,L|142:345,1,79.1199973439942,2|2,3:2|0:0,0:0:0:0:
0,280,40674,2,0,L|82:265,1,79.1199973439942,8|2,0:0|0:0,0:0:0:0:
112,264,40921,1,0,0:0:0:0:
112,264,41004,5,2,3:2:0:0:
21,188,41170,1,2,3:2:0:0:
105,104,41335,2,0,P|164:132|219:117,1,118.679996015991,12|0,0:0|0:0,0:0:0:0:
246,100,41663,1,6,3:2:0:0:
368,64,41828,1,8,0:0:0:0:
377,94,41912,1,8,0:0:0:0:
376,124,41993,1,8,0:0:0:0:
365,153,42077,1,8,0:0:0:0:
357,183,42159,1,8,0:0:0:0:
361,214,42242,1,8,0:0:0:0:
371,243,42324,6,0,P|452:274|515:229,2,158.239994687988,4|8|2,0:1|0:0|3:2,0:0:0:0:
283,107,43148,1,2,3:2:0:0:
262,246,43313,2,0,P|211:229|165:222,1,79.1199973439942,10|0,0:0|3:0,0:0:0:0:
40,344,43643,6,0,L|197:326,1,158.239994687988,0|8,3:0|0:0,0:0:0:0:
358,350,44137,2,0,L|355:307,1,39.5599986719971,0|0,3:0|3:0,0:0:0:0:
281,240,44302,2,0,L|365:222,1,79.1199973439942,2|2,3:2|3:2,0:0:0:0:
432,327,44632,2,0,L|348:309,1,79.1199973439942,10|0,0:0|3:0,0:0:0:0:
345,89,44962,6,0,P|382:146|398:239,2,158.239994687988,2|8|0,3:2|0:0|0:0,0:0:0:0:
214,61,45786,1,2,3:2:0:0:
223,202,45951,2,0,P|298:183|327:164,1,79.1199973439942,8|0,0:0|3:2,0:0:0:0:
150,129,46280,2,0,B|122:243|122:243|137:291,1,158.239994687988,0|10,3:2|0:0,0:0:0:0:
289,351,46775,1,0,3:0:0:0:
289,351,46857,1,0,3:0:0:0:
289,351,46940,2,0,P|281:296|279:254,1,79.1199973439942,2|2,3:2|3:2,0:0:0:0:
393,195,47269,2,0,P|389:234|383:273,1,79.1199973439942,10|0,0:0|3:0,0:0:0:0:
314,128,47599,6,0,P|367:107|481:134,2,158.239994687988,0|8|2,3:0|3:2|3:2,0:0:0:0:
245,198,48423,1,2,3:2:0:0:
122,77,48588,2,0,P|144:128|147:179,1,79.1199973439942,10|0,0:0|3:2,0:0:0:0:
80,303,48918,6,0,B|36:201|36:201|34:149,1,158.239994687988,0|8,3:0|0:0,0:0:0:0:
197,278,49412,2,0,L|204:330,1,39.5599986719971,0|0,0:0|0:0,0:0:0:0:
154,182,49577,2,0,L|235:183,1,79.1199973439942,2|2,3:2|3:2,0:0:0:0:
281,316,49907,2,0,L|200:317,1,79.1199973439942,10|0,0:0|3:2,0:0:0:0:
338,203,50236,5,0,3:2:0:0:
376,350,50401,1,0,0:0:0:0:
455,172,50566,1,8,0:0:0:0:
486,265,50731,1,0,3:0:0:0:
486,265,50813,1,0,0:0:0:0:
486,265,50896,2,0,P|434:265|387:239,1,79.1199973439942,2|2,3:2|3:2,0:0:0:0:
427,81,51225,2,0,P|479:81|526:107,1,79.1199973439942,10|0,0:0|0:0,0:0:0:0:
338,203,51555,6,0,B|248:230|274:170|149:208,1,158.239994687988,0|8,3:0|0:0,0:0:0:0:
97,269,52050,1,2,3:2:0:0:
224,285,52214,1,2,3:2:0:0:
136,110,52379,1,6,3:2:0:0:
233,296,52544,1,8,0:0:0:0:
72,355,52709,1,2,0:0:0:0:
0,240,52874,6,0,P|68:293|139:277,1,158.239994687988,4|8,0:1|0:0,0:0:0:0:
230,198,53368,1,0,3:2:0:0:
230,198,53451,1,0,0:0:0:0:
230,198,53533,2,0,P|222:154|212:102,2,79.1199973439942,2|2|10,3:2|3:2|0:0,0:0:0:0:
252,323,54028,1,0,3:0:0:0:
346,266,54192,6,0,P|379:272|428:283,1,79.1199973439942,0|0,3:0|3:0,0:0:0:0:
496,168,54522,2,0,P|457:176|418:183,1,79.1199973439942,8|0,0:0|3:0,0:0:0:0:
302,124,54852,1,2,3:2:0:0:
415,67,55017,1,2,3:2:0:0:
288,0,55181,2,0,P|270:35|268:81,1,79.1199973439942,10|0,0:0|3:0,0:0:0:0:
325,187,55511,6,0,B|237:159|256:215|167:177,1,158.239994687988,0|8,0:0|0:0,0:0:0:0:
80,88,56006,1,0,3:0:0:0:
80,88,56088,1,0,0:0:0:0:
80,88,56170,2,0,P|133:86|166:72,1,79.1199973439942,2|2,3:2|3:2,0:0:0:0:
8,208,56499,1,10,0:0:0:0:
144,288,56664,1,2,0:0:0:0:
64,368,56830,6,0,P|147:339|224:336,1,158.239994687988,0|8,0:0|0:0,0:0:0:0:
331,291,57324,1,0,3:0:0:0:
331,291,57407,1,0,0:0:0:0:
331,291,57489,1,2,3:2:0:0:
192,232,57654,2,0,L|212:323,1,79.1199973439942,2|10,3:2|0:0,0:0:0:0:
272,160,57984,1,0,3:0:0:0:
272,160,58065,1,0,0:0:0:0:
272,160,58148,6,0,P|176:184|128:152,2,158.239994687988,0|8|2,3:0|0:0|3:2,0:0:0:0:
376,56,58973,1,2,3:2:0:0:
376,56,59137,2,0,L|467:71,1,79.1199973439942,10|0,0:0|3:0,0:0:0:0:
277,7,59467,6,0,B|265:60|265:60|283:106|283:106|271:163,1,158.239994687988,0|8,3:0|0:0,0:0:0:0:
188,245,59962,1,0,3:0:0:0:
66,208,60127,1,2,3:2:0:0:
66,208,60291,1,2,3:2:0:0:
188,245,60456,2,0,P|181:204|173:166,1,79.1199973439942,10|0,0:0|3:0,0:0:0:0:
40,48,60786,6,0,P|116:88|186:64,1,158.239994687988,0|8,3:2|0:0,0:0:0:0:
299,22,61280,1,0,3:2:0:0:
299,22,61363,1,0,0:0:0:0:
299,22,61445,2,0,L|393:39,1,79.1199973439942,2|2,3:2|3:2,0:0:0:0:
512,120,61775,2,0,L|434:134,1,79.1199973439942,10|0,0:0|3:0,0:0:0:0:
173,167,62105,6,0,P|218:176|271:190,1,79.1199973439942,6|2,0:3|3:2,0:0:0:0:
384,240,62434,1,12,0:0:0:0:
208,280,62599,5,0,3:2:0:0:
208,280,62681,1,0,0:0:0:0:
208,280,62764,2,0,L|257:293,1,39.5599986719971,8|8,0:0|0:0,0:0:0:0:
329,315,62929,2,0,L|387:329,1,39.5599986719971,8|0,0:0|3:0,0:0:0:0:
452,342,63094,2,0,P|464:305|457:263,1,79.1199973439942,0|8,3:0|3:0,0:0:0:0:
432,240,63341,1,0,3:0:0:0:
432,240,63423,6,0,L|296:208,1,118.679996015991,4|0,0:1|3:0,0:0:0:0:
277,202,63753,1,8,0:0:0:0:
389,134,63918,1,2,3:2:0:0:
389,134,64000,1,0,3:0:0:0:
389,134,64083,2,0,P|394:66|394:56,1,79.1199973439942,0|2,3:0|3:2,0:0:0:0:
216,123,64412,2,0,P|160:114|102:64,1,118.679996015991,8|0,0:0|0:0,0:0:0:0:
93,39,64742,5,2,3:2:0:0:
74,184,64907,1,0,3:2:0:0:
194,38,65072,2,0,L|299:31,1,79.1199973439942,10|0,0:0|3:0,0:0:0:0:
306,29,65319,1,0,0:0:0:0:
306,29,65401,1,2,3:2:0:0:
379,180,65566,1,2,3:2:0:0:
479,33,65731,2,0,L|489:120,1,79.1199973439942,8|0,0:0|0:0,0:0:0:0:
478,214,65978,1,0,0:0:0:0:
478,214,66061,6,0,P|445:250|327:261,1,158.239994687988,4|0,0:0|0:0,0:0:0:0:
162,243,66555,1,2,3:2:0:0:
162,243,66637,1,0,0:0:0:0:
162,243,66720,2,0,P|226:234|267:226,1,79.1199973439942,0|2,3:2|3:2,0:0:0:0:
385,182,67050,2,0,P|321:173|280:165,1,79.1199973439942,8|0,0:0|3:2,0:0:0:0:
264,150,67297,1,0,0:0:0:0:
264,150,67379,5,2,0:0:0:0:
350,87,67544,1,0,3:2:0:0:
348,270,67709,2,0,L|349:363,1,79.1199973439942,10|2,0:0|0:0,0:0:0:0:
173,201,68039,2,0,L|173:121,1,79.1199973439942,2|2,3:0|3:2,0:0:0:0:
260,308,68368,2,0,P|166:311|154:307,1,79.1199973439942,12|0,0:2|0:3,0:0:0:0:
16,225,68698,6,0,P|107:207|189:199,1,158.239994687988,4|8,0:1|3:2,0:0:0:0:
351,245,69192,2,0,P|290:220|261:210,1,79.1199973439942,2|0,3:2|3:0,0:0:0:0:
133,290,69522,1,2,0:2:0:0:
138,86,69687,2,0,P|150:140|181:221,1,118.679996015991,10|0,0:0|0:0,0:0:0:0:
197,229,70017,5,2,3:2:0:0:
231,109,70181,1,0,3:2:0:0:
303,273,70345,2,0,L|288:168,1,79.1199973439942,10|0,0:2|3:2,0:0:0:0:
345,111,70593,1,0,0:0:0:0:
345,111,70675,2,0,P|399:104|437:84,1,79.1199973439942,2|2,3:2|3:2,0:0:0:0:
258,19,71005,2,0,P|208:20|174:29,1,79.1199973439942,2|2,3:2|3:2,0:0:0:0:
48,142,71334,6,0,P|166:136|248:102,2,172,4|8|2,0:1|0:2|3:2,0:0:0:0:
100,53,72159,1,2,3:2:0:0:
160,218,72324,2,0,L|167:312,1,86,8|2,0:2|3:2,0:0:0:0:
260,136,72653,6,0,L|253:230,1,86,2|2,3:2|0:2,0:0:0:0:
361,349,72983,1,8,3:2:0:0:
344,244,73148,1,2,3:2:0:0:
266,311,73313,1,2,3:2:0:0:
266,311,73395,1,0,0:0:0:0:
266,311,73477,1,0,3:2:0:0:
136,152,73642,2,0,P|205:129|274:140,1,129,10|0,0:2|0:0,0:0:0:0:
296,160,73972,5,12,0:2:0:0:
195,36,74137,1,0,3:2:0:0:
174,241,74302,5,12,0:2:0:0:
389,189,74466,1,0,3:2:0:0:
169,148,74631,5,12,0:2:0:0:
340,44,74796,1,0,3:2:0:0:
255,304,74961,6,0,P|268:242|274:200,1,86,12|0,0:2|3:2,0:0:0:0:
118,51,75291,5,8,3:0:0:0:
96,88,75373,1,8,3:0:0:0:
82,128,75455,1,8,3:0:0:0:
76,171,75538,1,2,3:2:0:0:
78,214,75620,2,0,P|80:279|82:294,1,55.8999974411012,0|8,3:0|3:0,0:0:0:0:
253,359,75785,2,0,P|254:331|254:303,1,55.8999974411012,8|0,3:3|3:2,0:0:0:0:
178,159,75950,5,12,0:0:0:0:
104,356,76115,1,12,0:2:0:0:
104,356,76444,1,0,0:0:0:0:
196,240,76609,6,0,B|280:200|280:288|384:232,1,189.200005773926,4|10,0:1|0:0,0:0:0:0:
320,167,77104,1,0,3:0:0:0:
464,104,77269,2,0,P|414:94|370:81,1,94.600002886963,2|0,3:2|3:0,0:0:0:0:
256,16,77598,2,0,P|210:18|158:31,1,94.600002886963,10|0,0:0|0:0,0:0:0:0:
18,123,77928,6,0,P|61:157|161:147,1,141.900004330444,2|0,3:2|0:0,0:0:0:0:
174,133,78258,2,0,B|152:191|152:191|169:249|169:249|149:313,1,189.200005773926,8|0,0:0|3:2,0:0:0:0:
48,240,78752,1,0,3:2:0:0:
144,155,78917,1,10,0:2:0:0:
264,208,79082,1,2,3:2:0:0:
418,141,79247,6,0,P|364:125|320:111,1,94.600002886963,2|0,3:2|3:0,0:0:0:0:
202,23,79576,2,0,P|219:89|240:171,1,141.900004330444,10|0,0:2|0:0,0:0:0:0:
247,200,79906,1,0,3:0:0:0:
327,113,80071,1,0,3:0:0:0:
408,248,80236,2,0,P|396:293|385:341,1,94.600002886963,10|2,0:0|0:0,0:0:0:0:
235,299,80565,6,0,P|223:253|212:207,1,94.600002886963,2|0,3:2|0:3,0:0:0:0:
79,284,80895,2,0,P|172:336|237:294,1,189.200005773926,10|2,0:0|3:2,0:0:0:0:
342,220,81389,1,0,3:2:0:0:
200,160,81554,1,10,0:0:0:0:
312,88,81719,1,0,0:0:0:0:
160,248,81884,6,0,L|320:224,1,141.900004330444,4|0,0:1|0:0,0:0:0:0:
342,220,82214,2,0,P|346:278|331:315,1,94.600002886963,10|0,3:2|3:2,0:0:0:0:
160,248,82543,2,0,P|153:201|169:157,1,94.600002886963,2|0,3:2|3:0,0:0:0:0:
288,96,82873,2,0,L|447:126,1,141.900004330444,10|0,0:0|0:0,0:0:0:0:
464,104,83203,5,2,0:0:0:0:
368,8,83367,1,0,3:0:0:0:
248,112,83532,2,0,L|271:293,1,141.900004330444,10|0,0:0|3:0,0:0:0:0:
270,291,83862,2,0,P|314:271|371:260,1,94.600002886963,0|0,3:0|3:0,0:0:0:0:
480,312,84192,1,10,0:0:0:0:
344,366,84356,1,2,3:2:0:0:
344,366,84439,1,0,0:0:0:0:
344,366,84521,6,0,L|196:338,1,141.900004330444,2|0,3:2|0:0,0:0:0:0:
160,352,84851,2,0,P|127:291|160:231,1,141.900004330444,8|0,0:0|3:2,0:0:0:0:
200,216,85181,1,0,3:2:0:0:
72,160,85345,1,0,3:0:0:0:
200,104,85510,2,0,B|214:57|214:57|194:8,1,94.600002886963,10|2,0:0|3:2,0:0:0:0:
40,48,85840,6,0,B|26:95|26:95|46:144,1,94.600002886963,2|2,3:2|3:2,0:0:0:0:
158,232,86170,2,0,P|233:222|314:214,1,141.900004330444,10|0,0:0|0:0,0:0:0:0:
344,232,86499,1,4,3:0:0:0:
456,200,86664,1,8,0:0:0:0:
504,320,86829,1,8,0:0:0:0:
475,303,86911,1,8,0:0:0:0:
440,299,86994,1,8,0:0:0:0:
407,304,87076,1,8,0:0:0:0:
377,319,87159,6,0,P|297:340|241:304,1,141.900004330444,4|0,0:1|0:0,0:0:0:0:
227,287,87488,2,0,B|220:220|220:220|252:172|252:172|243:107,1,189.200005773926,10|2,0:2|3:2,0:0:0:0:
144,32,87983,1,0,3:0:0:0:
24,80,88148,1,10,0:0:0:0:
136,152,88313,1,0,3:0:0:0:
24,208,88477,6,0,P|36:255|45:300,1,94.600002886963,2|0,3:2|3:0,0:0:0:0:
205,379,88807,2,0,P|214:332|226:286,1,94.600002886963,10|0,0:0|3:0,0:0:0:0:
226,286,89054,1,0,0:0:0:0:
226,286,89137,1,0,3:0:0:0:
336,224,89302,1,0,3:0:0:0:
403,349,89466,2,0,L|297:323,1,94.600002886963,10|2,0:0|3:2,0:0:0:0:
128,240,89797,6,0,L|240:224,1,94.600002886963,2|2,3:2|3:2,0:0:0:0:
343,202,90127,2,0,P|354:126|325:64,1,141.900004330444,10|0,0:0|0:0,0:0:0:0:
304,40,90456,1,0,3:0:0:0:
187,80,90621,1,0,3:0:0:0:
256,178,90786,2,0,P|296:202|348:200,1,94.600002886963,10|2,0:0|3:2,0:0:0:0:
496,112,91116,6,0,P|440:112|400:128,1,94.600002886963,2|2,3:2|3:2,0:0:0:0:
243,200,91445,2,0,P|299:236|387:220,1,141.900004330444,10|0,0:0|3:0,0:0:0:0:
368,256,91775,2,0,L|353:319,1,47.3000014434815,0|0,3:0|0:0,0:0:0:0:
332,384,91940,2,0,P|287:366|236:352,1,94.600002886963,0|10,3:0|0:0,0:0:0:0:
80,384,92269,1,0,3:0:0:0:
80,384,92352,1,0,0:0:0:0:
80,384,92434,6,0,B|104:320|58:317|91:238,1,141.900004330444,4|0,0:1|0:0,0:0:0:0:
112,216,92764,1,8,3:2:0:0:
224,160,92929,2,0,L|273:172,2,47.3000014434815,2|0|0,3:2|0:0|3:0,0:0:0:0:
99,122,93258,2,0,P|106:171|112:225,1,94.600002886963,2|10,3:2|0:0,0:0:0:0:
176,344,93588,1,0,0:0:0:0:
176,344,93670,1,0,0:0:0:0:
176,344,93753,6,0,B|244:353|244:353|286:317|286:317|368:328,1,189.200005773926,2|8,3:2|0:0,0:0:0:0:
488,296,94247,1,0,3:0:0:0:
376,208,94412,2,0,P|366:151|394:103,1,94.600002886963,0|0,3:0|3:0,0:0:0:0:
474,39,94742,1,10,0:0:0:0:
474,39,95072,6,0,B|363:68|398:0|290:27,1,189.200005773926,2|0,3:2|0:0,0:0:0:0:
179,79,95566,1,0,3:0:0:0:
179,79,95648,1,0,0:0:0:0:
179,79,95731,2,0,L|121:65,2,47.3000014434815,0|0|0,3:0|0:0|3:0,0:0:0:0:
304,144,96061,1,8,0:0:0:0:
120,184,96225,1,0,0:0:0:0:
199,295,96390,6,0,L|221:196,1,94.600002886963,2|2,3:2|3:2,0:0:0:0:
56,104,96720,2,0,L|76:196,1,94.600002886963,8|2,0:0|3:2,0:0:0:0:
84,224,96967,1,0,0:0:0:0:
84,224,97050,1,2,3:2:0:0:
170,310,97214,1,4,3:0:0:0:
304,256,97379,2,0,P|359:262|400:288,1,94.600002886963,10|2,0:0|3:2,0:0:0:0:
416,320,97627,1,0,0:0:0:0:
416,320,97709,6,0,L|389:166,1,141.900004330444,6|0,0:0|0:0,0:0:0:0:
384,144,98039,1,10,3:2:0:0:
264,184,98203,1,2,3:2:0:0:
160,96,98368,2,0,P|164:32|182:-12,1,94.600002886963,0|4,3:2|3:0,0:0:0:0:
370,51,98698,2,0,P|383:96|383:143,1,94.600002886963,10|0,0:0|0:0,0:0:0:0:
248,64,99028,5,2,3:2:0:0:
248,64,99192,1,0,3:2:0:0:
128,104,99357,2,0,L|112:207,1,94.600002886963,8|0,0:0|3:0,0:0:0:0:
113,197,99605,1,0,3:0:0:0:
113,197,99687,1,0,3:0:0:0:
256,168,99852,1,0,3:0:0:0:
328,312,100017,2,0,P|263:267|202:273,1,141.900004330444,10|0,0:0|0:0,0:0:0:0:
160,376,100346,6,0,L|184:272,1,94.600002886963,2|0,3:2|3:2,0:0:0:0:
304,192,100676,2,0,L|325:284,1,94.600002886963,8|0,0:0|3:0,0:0:0:0:
435,228,101006,1,0,3:0:0:0:
327,169,101170,1,2,0:0:0:0:
328,312,101335,1,10,0:0:0:0:
203,272,101500,1,2,0:0:0:0:
112,384,101664,6,0,L|207:371,1,94.600002886963,12|0,0:0|3:0,0:0:0:0:
384,344,101991,2,0,L|479:331,1,94.600002886963,12|0,0:0|3:0,0:0:0:0:
240,240,102319,5,12,0:0:0:0:
408,168,102483,1,8,0:0:0:0:
408,168,102565,1,8,0:0:0:0:
408,168,102647,1,8,0:0:0:0:
288,32,102811,2,0,L|264:88,1,47.3000014434815,8|0,0:0|0:0,0:0:0:0:
230,177,102975,6,0,P|310:217|390:185,1,172,4|8,0:1|0:0,0:0:0:0:
264,296,103469,2,0,L|160:304,1,86,0|2,3:0|3:2,0:0:0:0:
88,216,103799,1,0,3:0:0:0:
203,95,103964,2,0,P|227:164|236:209,1,86,8|0,0:0|0:0,0:0:0:0:
90,53,104293,6,0,B|206:41|206:41|273:55,1,172,2|10,3:2|0:0,0:0:0:0:
396,144,104788,2,0,L|402:203,1,43,0|0,3:0|0:0,0:0:0:0:
229,176,104953,2,0,L|224:218,1,43,2|0,3:2|0:0,0:0:0:0:
300,290,105117,1,0,3:0:0:0:
145,334,105282,1,10,0:0:0:0:
241,368,105447,1,0,3:0:0:0:
135,234,105612,6,0,P|71:239|36:245,1,86,2|0,3:2|3:0,0:0:0:0:
229,176,105942,2,0,P|293:181|328:187,1,86,10|2,0:0|3:2,0:0:0:0:
395,239,106189,1,0,0:0:0:0:
395,239,106271,2,0,P|408:191|398:152,1,86,2|0,3:2|3:0,0:0:0:0:
220,90,106601,2,0,L|229:180,1,86,8|0,0:0|3:0,0:0:0:0:
155,258,106848,1,0,0:0:0:0:
155,258,106931,6,0,P|143:208|70:94,1,172,2|8,3:2|0:0,0:0:0:0:
54,208,107425,1,0,3:2:0:0:
232,185,107590,1,2,3:2:0:0:
152,267,107755,1,2,3:2:0:0:
178,91,107920,1,10,0:0:0:0:
235,319,108084,1,2,3:2:0:0:
232,185,108249,6,0,B|310:158|324:213|424:176,1,172,6|8,3:2|0:0,0:0:0:0:
422,37,108744,2,0,P|379:76|351:119,1,86,0|0,3:2|3:2,0:0:0:0:
359,280,109073,1,0,3:0:0:0:
232,185,109238,2,0,L|130:180,1,86,8|2,0:0|0:0,0:0:0:0:
10,285,109568,6,0,L|112:280,1,86,2|0,3:2|3:0,0:0:0:0:
232,185,109898,1,8,0:0:0:0:
54,189,110062,1,0,3:0:0:0:
54,189,110145,1,0,0:0:0:0:
54,189,110227,1,0,3:2:0:0:
132,360,110392,1,0,3:2:0:0:
140,149,110557,2,0,L|148:272,1,86,8|0,0:0|3:2,0:0:0:0:
219,300,110804,1,0,0:0:0:0:
219,300,110887,6,0,P|295:278|394:278,1,172,2|8,3:2|0:0,0:0:0:0:
273,195,111381,1,0,3:2:0:0:
273,195,111464,1,0,0:0:0:0:
273,195,111546,2,0,P|260:128|257:81,1,86,2|0,3:2|3:2,0:0:0:0:
364,46,111876,2,0,P|358:88|349:130,1,86,8|0,0:0|3:2,0:0:0:0:
272,26,112205,6,0,B|146:20|146:20|106:55,1,172,2|14,3:2|0:0,0:0:0:0:
150,240,112700,1,0,3:0:0:0:
182,105,112865,1,4,3:2:0:0:
31,181,113029,2,0,L|83:173,1,43,0|8,3:0|0:0,0:0:0:0:
234,187,113194,1,8,0:0:0:0:
107,246,113359,2,0,L|165:239,1,43,8|0,0:0|3:0,0:0:0:0:
299,268,113524,6,0,P|357:274|417:271,1,86,4|0,0:1|0:0,0:0:0:0:
486,167,113854,2,0,P|428:173|368:170,1,86,8|0,0:0|3:2,0:0:0:0:
303,99,114101,1,0,0:0:0:0:
303,99,114183,2,0,P|245:93|185:96,1,86,0|0,3:0|3:0,0:0:0:0:
81,188,114513,2,0,P|123:187|166:182,1,86,10|0,0:0|0:0,0:0:0:0:
291,224,114760,1,0,0:0:0:0:
291,224,114843,6,0,L|297:312,1,86,2|0,3:2|3:2,0:0:0:0:
75,273,115172,2,0,L|80:187,1,86,8|0,0:0|3:2,0:0:0:0:
142,75,115420,1,0,3:2:0:0:
142,75,115502,2,0,B|189:90|189:90|248:84,1,86,2|0,3:2|3:0,0:0:0:0:
408,156,115832,2,0,B|361:171|361:171|302:165,1,86,8|0,0:0|3:0,0:0:0:0:
300,161,116079,1,0,0:0:0:0:
274,155,116161,5,2,3:2:0:0:
346,77,116326,1,0,3:0:0:0:
391,258,116491,1,8,0:0:0:0:
196,238,116656,1,0,3:2:0:0:
419,153,116821,1,2,3:2:0:0:
294,273,116985,1,0,3:2:0:0:
245,63,117150,1,8,0:0:0:0:
316,148,117315,1,2,3:2:0:0:
116,151,117480,6,0,B|192:123|205:185|307:145,1,172,0|8,3:2|0:0,0:0:0:0:
161,237,117975,2,0,P|153:286|151:298,1,43,0|0,3:2|3:2,0:0:0:0:
293,237,118139,2,0,P|289:181|278:124,1,86,0|0,3:2|3:0,0:0:0:0:
124,65,118469,2,0,P|117:107|115:150,1,86,8|2,0:2|3:2,0:0:0:0:
251,67,118799,6,0,B|314:59|314:59|409:129,2,172,6|8|0,0:0|0:0|3:0,0:0:0:0:
300,157,119623,1,0,3:0:0:0:
167,41,119788,2,0,L|157:148,1,86,8|0,0:0|3:0,0:0:0:0:
308,242,120117,6,0,L|299:156,1,86,2|0,3:2|0:0,0:0:0:0:
271,338,120447,2,0,P|332:343|365:335,1,86,10|0,0:0|3:2,0:0:0:0:
308,242,120694,1,0,0:0:0:0:
308,242,120777,2,0,L|211:225,1,86,2|2,3:2|3:2,0:0:0:0:
97,319,121106,2,0,L|194:302,1,86,8|2,0:0|3:2,0:0:0:0:
151,55,121436,6,0,P|137:134|133:237,1,172,2|8,0:0|0:0,0:0:0:0:
240,112,121931,1,0,3:2:0:0:
240,112,122013,1,0,0:0:0:0:
240,112,122095,2,0,P|295:105|360:102,1,86,2|0,3:2|3:2,0:0:0:0:
425,201,122425,2,0,P|370:194|305:191,1,86,8|0,0:0|3:2,0:0:0:0:
249,270,122672,1,0,0:0:0:0:
249,270,122755,6,0,L|236:361,1,86,2|2,3:2|3:2,0:0:0:0:
105,254,123084,2,0,L|92:168,1,86,8|2,0:0|3:2,0:0:0:0:
152,67,123332,1,0,0:0:0:0:
152,67,123414,2,0,P|228:61|274:62,1,86,0|2,3:2|3:2,0:0:0:0:
386,157,123744,6,0,B|325:141|325:141|209:181,1,167.699992323304,12|0,0:0|0:0,0:0:0:0:
326,232,124073,6,0,P|333:287|336:321,1,86,4|0,0:0|0:0,0:0:0:0:
123,233,124403,2,0,P|127:190|132:147,1,86,10|0,0:0|3:0,0:0:0:0:
217,89,124650,1,0,3:0:0:0:
217,89,124733,2,0,P|222:131|226:174,1,86,0|0,3:0|3:0,0:0:0:0:
107,346,125062,2,0,L|25:300,1,86,8|0,0:0|0:0,0:0:0:0:
123,244,125310,1,0,0:0:0:0:
123,244,125392,6,0,P|168:258|229:259,1,86,2|0,3:2|3:0,0:0:0:0:
327,160,125722,2,0,P|284:163|243:176,1,86,8|0,0:0|3:2,0:0:0:0:
308,251,125969,1,0,3:0:0:0:
308,251,126051,2,0,L|315:305,1,43,2|0,3:2|0:0,0:0:0:0:
216,280,126216,1,0,3:0:0:0:
402,262,126381,2,0,L|503:228,1,86,8|0,0:0|3:2,0:0:0:0:
392,85,126711,6,0,B|330:72|330:72|284:80|284:80|201:66,2,172,2|8|2,3:2|0:0|3:2,0:0:0:0:
327,160,127535,1,0,3:0:0:0:
139,114,127700,2,0,L|123:216,1,86,8|0,0:0|3:0,0:0:0:0:
167,291,127947,1,0,3:0:0:0:
167,291,128029,6,0,P|244:284|291:286,1,86,0|0,3:0|3:0,0:0:0:0:
400,344,128359,2,0,P|477:351|524:349,1,86,8|0,0:0|3:0,0:0:0:0:
356,170,128689,2,0,L|339:275,1,86,0|0,3:0|3:0,0:0:0:0:
433,104,129018,6,0,P|398:79|280:110,1,167.699992323304,12|0,0:0|0:0,0:0:0:0:
240,185,129348,6,0,L|147:165,1,86,6|0,0:0|0:0,0:0:0:0:
36,29,129678,2,0,P|34:103|28:151,1,86,8|0,0:0|3:0,0:0:0:0:
75,219,129925,1,0,0:0:0:0:
75,219,130007,2,0,P|75:261|78:304,1,86,2|0,3:2|3:0,0:0:0:0:
266,282,130337,2,0,P|193:269|160:268,1,86,10|0,0:0|3:0,0:0:0:0:
232,370,130584,1,0,0:0:0:0:
232,370,130667,6,0,L|333:361,1,86,0|0,3:0|3:0,0:0:0:0:
468,215,130996,2,0,L|367:206,1,86,8|0,0:0|3:0,0:0:0:0:
285,113,131326,1,2,3:2:0:0:
258,209,131491,1,0,3:0:0:0:
404,124,131656,1,10,0:0:0:0:
187,135,131821,1,0,3:2:0:0:
187,135,131903,1,0,0:0:0:0:
187,135,131985,6,0,P|132:141|18:102,1,172,2|12,3:2|0:0,0:0:0:0:
118,57,132480,1,0,3:0:0:0:
132,225,132645,2,0,L|137:323,1,86,2|0,3:2|3:2,0:0:0:0:
272,192,132975,2,0,L|276:106,1,86,14|0,0:2|3:0,0:0:0:0:
364,48,133222,1,0,0:0:0:0:
364,48,133304,6,0,P|378:101|397:148,1,86,2|0,3:2|3:0,0:0:0:0:
457,294,133634,2,0,P|471:253|481:211,1,86,12|8,0:0|0:0,0:0:0:0:
483,171,133881,1,8,0:0:0:0:
474,130,133964,1,12,0:0:0:0:
391,221,134128,1,8,0:3:0:0:
290,93,134293,1,4,0:3:0:0:
208,268,134458,5,4,0:1:0:0:
256,192,134540,12,0,141215,0:0:0:0:
