osu file format v14

[General]
AudioFilename: audio.mp3
AudioLeadIn: 0
PreviewTime: 75950
Countdown: 0
SampleSet: Soft
StackLeniency: 0.4
Mode: 0
LetterboxInBreaks: 0
EpilepsyWarning: 1
WidescreenStoryboard: 1

[Editor]
Bookmarks: 4742,7695,15940,26500,37047,42324,52874,63423,71334,73973,92433,94083,110887,124073,133799,134458,141216
DistanceSpacing: 0.2
BeatDivisor: 4
GridSize: 32
TimelineZoom: 3.499999

[Metadata]
Title:Hikari
TitleUnicode:光
Artist:RADWIMPS
ArtistUnicode:RADWIMPS
Creator:Haruto
Version:Irohas' Insane
Source:
Tags:Light Human Bloom 人間開花 Ningen kaika short cut version haruto_aizawa monstrata ipas newipas appleeaterx milan- rizen kalibe sotarks sytarno irohas mugiwarasekai a q p w a_q_p_w kimi no na wa nawa 君の名は。 your name
BeatmapID:1175465
BeatmapSetID:547714

[Difficulty]
HPDrainRate:5.5
CircleSize:4
OverallDifficulty:6
ApproachRate:9
SliderMultiplier:1.6
SliderTickRate:1

[Events]
//Background and Video events
0,0,"7374744.jpg",0,0
//Break Periods
//Storyboard Layer 0 (Background)
//Storyboard Layer 1 (Fail)
//Storyboard Layer 2 (Pass)
//Storyboard Layer 3 (Foreground)
//Storyboard Sound Samples

[TimingPoints]
120,331.491712707182,4,2,1,60,1,0
4762,315.789473684211,4,2,1,60,1,0
4762,-100,4,2,1,60,0,0
5387,329.789923818528,4,2,1,60,1,0
5387,-100,4,2,1,60,0,0
15775,-100,4,2,1,60,0,0
15940,-105.263157894737,4,2,1,60,0,0
42324,329.67032967033,4,2,1,60,1,0
42324,-105.263157894737,4,2,1,60,0,0
75291,-100,4,2,1,60,0,0
75950,-100,4,2,1,60,0,0
76609,-100,4,2,1,60,0,1
101664,327.868852459016,4,2,1,60,1,1
101664,-100,4,2,1,60,0,1
102975,329.67032967033,4,2,1,60,1,0
102975,-100,4,2,1,60,0,0
134293,-100,4,2,1,60,0,0
134458,-100,4,2,1,60,0,0
141216,-100,4,2,1,60,0,0

[Colours]
Combo1 : 252,236,188
Combo2 : 182,203,243
Combo3 : 245,204,184
Combo4 : 176,234,189

[HitObjects]
68,21,4762,6,0,P|77:62|91:119,1,80,12|0,0:0|3:0,0:0:0:0:
148,158,4998,1,0,0:0:0:0:
139,167,5077,2,8,P|134:188|125:219,3,40,8|0|8|8,0:0|0:0|0:0|0:0,0:0:0:0:
78,261,5387,6,0,P|155:250|253:235,1,160,4|8,3:0|0:0,0:0:0:0:
343,173,5881,1,8,3:2:0:0:
423,283,6046,2,0,P|384:274|332:260,1,80,0|0,3:3|3:0,0:0:0:0:
264,155,6376,2,0,P|274:115|294:65,1,80,8|0,0:0|3:0,0:0:0:0:
249,250,6706,6,0,P|173:264|109:206,1,160,2|8,3:2|0:0,0:0:0:0:
17,97,7200,1,8,3:2:0:0:
124,59,7365,2,0,P|111:101|94:152,1,80,0|0,3:2|3:2,0:0:0:0:
12,211,7695,2,0,P|23:258|35:307,1,80,10|2,0:0|3:2,0:0:0:0:
105,139,8025,5,2,3:2:0:0:
229,250,8190,2,0,P|187:243|142:232,1,80,2|8,3:2|0:0,0:0:0:0:
25,122,8520,1,2,3:2:0:0:
140,62,8685,2,0,P|126:103|107:157,1,80,2|2,3:2|3:2,0:0:0:0:
229,250,9014,2,0,P|219:209|209:161,1,80,8|2,0:0|3:2,0:0:0:0:
297,28,9344,6,0,P|366:22|419:90,1,160,2|8,3:2|0:0,0:0:0:0:
433,213,9839,1,0,3:2:0:0:
330,109,10004,2,0,P|319:148|303:203,1,80,2|2,3:2|3:2,0:0:0:0:
444,331,10333,5,8,0:0:0:0:
414,219,10498,1,2,3:2:0:0:
453,343,10663,6,0,P|380:332|287:316,1,160,4|8,0:1|0:0,0:0:0:0:
128,358,11158,1,8,3:2:0:0:
177,220,11323,2,0,P|185:260|195:307,1,80,0|2,3:2|3:2,0:0:0:0:
293,126,11653,2,0,P|285:165|274:214,1,80,8|2,0:2|3:2,0:0:0:0:
71,115,11982,6,0,P|115:63|207:73,1,160,2|8,3:2|0:2,0:0:0:0:
76,212,12477,1,8,3:2:0:0:
175,242,12642,2,0,P|165:198|153:150,1,80,2|2,3:2|3:2,0:0:0:0:
288,65,12972,2,0,P|281:104|271:149,1,80,8|8,0:0|0:0,0:0:0:0:
308,307,13302,5,2,3:2:0:0:
407,206,13467,2,0,P|364:219|314:232,1,80,2|8,3:2|0:0,0:0:0:0:
144,320,13796,1,8,0:0:0:0:
237,356,13961,2,0,P|228:316|217:263,1,80,2|2,3:2|3:2,0:0:0:0:
98,216,14291,2,0,P|107:172|119:120,1,80,8|8,0:0|0:0,0:0:0:0:
240,30,14621,6,0,P|229:107|214:201,1,160,2|8,3:2|0:2,0:0:0:0:
321,105,15116,1,8,0:0:0:0:
236,23,15280,2,8,P|211:26|188:30,3,40,0|0|8|8,3:0|3:3|3:2|3:2,0:0:0:0:
120,14,15610,5,8,0:0:0:0:
195,136,15775,1,0,0:0:0:0:
26,91,15940,6,0,P|42:159|64:247,2,151.999995941162,4|8|2,0:1|0:0|3:2,0:0:0:0:
111,21,16765,1,2,3:2:0:0:
178,100,16929,2,0,P|225:92|273:83,1,75.9999979705811,10|0,0:0|3:0,0:0:0:0:
406,229,17259,6,0,P|341:241|281:183,2,151.999995941162,0|8|2,3:0|0:0|3:2,0:0:0:0:
366,151,18084,1,2,3:2:0:0:
487,101,18249,2,0,P|479:142|470:190,1,75.9999979705811,10|2,0:0|3:2,0:0:0:0:
311,332,18578,6,0,P|235:349|171:288,1,151.999995941162,4|8,0:0|0:0,0:0:0:0:
216,220,19073,1,0,3:2:0:0:
99,336,19238,2,0,P|55:330|11:325,1,75.9999979705811,2|2,3:2|3:2,0:0:0:0:
216,220,19568,2,0,P|261:216|300:209,1,75.9999979705811,10|0,0:0|3:2,0:0:0:0:
90,89,19898,6,0,P|104:163|126:258,1,151.999995941162,0|8,3:2|0:0,0:0:0:0:
268,328,20392,1,0,3:0:0:0:
173,365,20557,2,0,P|181:323|189:276,1,75.9999979705811,2|2,3:2|3:2,0:0:0:0:
293,230,20887,2,0,P|286:194|277:148,1,75.9999979705811,10|0,0:0|3:0,0:0:0:0:
50,166,21217,6,0,P|106:188|180:135,1,151.999995941162,0|8,3:2|0:0,0:0:0:0:
148,56,21711,1,0,3:0:0:0:
292,80,21876,2,0,P|285:118|277:157,1,75.9999979705811,2|2,3:2|3:2,0:0:0:0:
407,258,22206,1,10,0:0:0:0:
379,152,22371,1,0,0:3:0:0:
365,331,22536,6,0,B|414:346|414:346|458:321|458:321|513:338,2,151.999995941162,0|8|2,3:3|0:0|3:2,0:0:0:0:
266,289,23360,1,2,3:2:0:0:
325,208,23525,2,0,P|318:170|312:132,1,75.9999979705811,10|0,0:0|3:2,0:0:0:0:
174,61,23855,6,0,P|105:55|50:117,1,151.999995941162,0|8,3:2|0:0,0:0:0:0:
134,235,24350,1,0,3:2:0:0:
224,162,24515,2,0,P|180:154|131:140,1,75.9999979705811,2|2,3:2|3:2,0:0:0:0:
299,100,24845,2,0,P|343:92|382:80,1,75.9999979705811,10|0,0:0|3:0,0:0:0:0:
507,258,25174,6,0,P|435:276|373:234,1,151.999995941162,0|8,3:0|0:0,0:0:0:0:
365,75,25669,1,0,0:0:0:0:
453,183,25834,1,2,3:2:0:0:
447,26,25999,5,6,3:2:0:0:
293,145,26164,2,0,P|331:154|376:164,1,75.9999979705811,10|0,0:0|3:0,0:0:0:0:
222,64,26494,6,0,P|253:104|216:210,2,151.999995941162,4|8|2,0:1|0:0|3:2,0:0:0:0:
122,48,27318,1,2,3:2:0:0:
74,149,27483,2,0,P|121:141|166:132,1,75.9999979705811,10|0,0:0|3:2,0:0:0:0:
330,30,27813,6,0,P|384:43|493:64,2,151.999995941162,0|8|2,3:2|0:0|3:2,0:0:0:0:
247,80,28637,1,2,3:2:0:0:
304,153,28802,2,0,P|296:193|285:247,1,75.9999979705811,10|0,0:0|3:2,0:0:0:0:
201,342,29132,6,0,P|125:359|69:296,1,151.999995941162,0|8,3:0|0:0,0:0:0:0:
159,261,29627,1,0,3:0:0:0:
276,374,29791,2,0,P|322:365|365:355,1,75.9999979705811,2|2,3:2|3:2,0:0:0:0:
506,291,30121,2,0,P|467:285|418:277,1,75.9999979705811,10|0,0:0|0:0,0:0:0:0:
322,120,30451,6,0,P|334:189|351:280,1,151.999995941162,2|8,3:2|0:0,0:0:0:0:
181,337,30946,1,0,3:2:0:0:
276,374,31111,2,0,P|268:336|259:292,1,75.9999979705811,2|6,3:2|3:2,0:0:0:0:
156,239,31441,2,0,P|164:201|176:152,1,75.9999979705811,10|0,0:0|3:2,0:0:0:0:
298,46,31770,6,0,P|367:40|419:106,1,151.999995941162,4|8,0:1|0:0,0:0:0:0:
436,213,32265,1,0,3:0:0:0:
336,121,32430,2,0,P|325:160|319:206,1,75.9999979705811,2|2,3:2|3:2,0:0:0:0:
408,317,32760,1,10,0:0:0:0:
436,213,32925,1,0,0:0:0:0:
245,226,33089,6,0,P|260:299|280:385,2,151.999995941162,0|8|2,3:0|0:0|3:2,0:0:0:0:
183,133,33914,1,2,3:2:0:0:
102,196,34079,2,0,P|55:188|7:178,1,75.9999979705811,10|0,0:0|3:2,0:0:0:0:
117,330,34409,6,0,P|193:347|249:290,1,151.999995941162,0|8,3:2|0:0,0:0:0:0:
406,220,34903,1,0,3:2:0:0:
307,186,35068,2,0,P|318:233|331:283,1,75.9999979705811,2|0,3:2|3:2,0:0:0:0:
215,135,35398,2,0,P|224:92|231:57,1,75.9999979705811,10|0,0:0|0:0,0:0:0:0:
206,255,35728,6,0,P|131:277|75:230,1,151.999995941162,4|8,3:3|0:0,0:0:0:0:
37,56,36223,1,0,3:2:0:0:
140,143,36388,1,6,3:2:0:0:
0,202,36552,5,0,3:2:0:0:
150,143,36717,2,0,P|115:138|68:129,1,75.9999979705811,8|0,0:0|3:0,0:0:0:0:
231,35,37047,6,0,P|283:19|343:55,1,113.999996955872,4|0,0:1|3:0,0:0:0:0:
338,52,37377,2,0,P|329:92|317:134,1,75.9999979705811,10|2,0:0|3:2,0:0:0:0:
381,272,37707,1,0,0:0:0:0:
428,174,37872,1,2,3:2:0:0:
242,171,38036,2,0,P|248:208|255:251,1,75.9999979705811,10|0,0:0|3:0,0:0:0:0:
120,364,38366,6,0,P|130:320|149:240,1,113.999996955872,2|0,3:2|3:0,0:0:0:0:
150,245,38696,2,0,P|142:205|133:167,1,75.9999979705811,10|2,0:0|3:2,0:0:0:0:
9,65,39026,1,0,3:2:0:0:
44,155,39191,1,2,3:2:0:0:
106,28,39356,2,0,P|140:34|196:43,1,75.9999979705811,8|0,0:0|0:0,0:0:0:0:
375,157,39685,6,0,P|299:179|244:132,1,151.999995941162,4|10,0:1|0:0,0:0:0:0:
284,52,40180,1,0,3:0:0:0:
151,110,40345,2,0,P|158:149|169:195,1,75.9999979705811,2|2,3:2|0:0,0:0:0:0:
61,284,40675,2,0,P|68:246|75:209,1,75.9999979705811,8|2,0:0|0:0,0:0:0:0:
257,161,41005,6,0,P|242:235|223:318,1,151.999995941162,2|12,3:2|0:0,0:0:0:0:
220,315,41499,1,0,3:0:0:0:
161,175,41664,5,6,3:2:0:0:
312,280,41829,1,8,0:0:0:0:
314,287,41912,1,8,0:0:0:0:
317,293,41994,6,8,P|343:285|372:277,1,37.9999989852906,8|8,0:0|0:0,0:0:0:0:
392,209,42159,2,8,P|410:213|431:217,1,37.9999989852906,8|8,0:0|0:0,0:0:0:0:
512,256,42324,6,0,P|498:184|484:103,2,151.999995941162,4|8|2,0:1|0:0|3:2,0:0:0:0:
432,299,43148,1,2,3:2:0:0:
379,218,43312,2,0,P|344:230|300:243,1,75.9999979705811,10|0,0:0|3:0,0:0:0:0:
91,155,43642,6,0,P|142:102|214:112,2,151.999995941162,0|8|2,3:0|0:0|3:2,0:0:0:0:
74,252,44466,1,2,3:2:0:0:
185,271,44631,2,0,P|176:234|164:183,1,75.9999979705811,10|0,0:0|3:0,0:0:0:0:
255,39,44961,6,0,P|331:22|395:83,1,151.999995941162,2|8,3:2|0:0,0:0:0:0:
310,112,45455,1,0,3:0:0:0:
170,21,45620,2,0,P|129:34|84:50,1,75.9999979705811,2|2,3:2|3:2,0:0:0:0:
229,150,45950,2,0,P|191:143|151:132,1,75.9999979705811,8|0,0:0|3:2,0:0:0:0:
29,293,46280,6,0,P|105:310|169:249,1,151.999995941162,0|10,3:2|0:0,0:0:0:0:
6,171,46774,1,0,3:0:0:0:
111,123,46939,2,0,P|103:160|93:201,1,75.9999979705811,2|2,3:2|3:2,0:0:0:0:
154,321,47269,2,0,P|196:311|244:299,1,75.9999979705811,10|0,0:0|3:0,0:0:0:0:
361,365,47598,6,0,P|347:295|334:214,1,151.999995941162,0|8,3:0|3:2,0:0:0:0:
291,141,48093,1,0,0:3:0:0:
421,189,48258,2,0,P|460:180|495:173,1,75.9999979705811,2|2,3:2|3:2,0:0:0:0:
359,26,48587,1,10,0:0:0:0:
451,76,48752,1,0,3:2:0:0:
291,141,48917,6,0,B|219:132|130:121,2,151.999995941162,0|8|2,3:0|0:0|3:2,0:0:0:0:
381,186,49741,1,2,3:2:0:0:
315,260,49906,2,0,P|306:297|297:337,1,75.9999979705811,10|0,0:0|3:2,0:0:0:0:
167,366,50236,6,0,P|157:296|146:215,1,151.999995941162,0|8,3:2|0:0,0:0:0:0:
0,115,50730,1,0,3:0:0:0:
93,85,50895,2,0,P|84:130|76:168,1,75.9999979705811,2|2,3:2|3:2,0:0:0:0:
175,273,51225,2,0,P|182:235|189:196,1,75.9999979705811,10|0,0:0|0:0,0:0:0:0:
291,56,51554,6,0,P|360:45|417:95,1,151.999995941162,0|8,3:0|0:0,0:0:0:0:
284,259,52049,1,2,3:2:0:0:
333,133,52214,1,2,3:2:0:0:
422,224,52378,5,6,3:2:0:0:
327,126,52543,2,0,P|287:137|239:150,1,75.9999979705811,8|2,0:0|0:0,0:0:0:0:
104,79,52873,6,0,P|115:148|133:241,2,151.999995941162,4|8|2,0:1|0:0|3:2,0:0:0:0:
190,10,53698,1,2,3:2:0:0:
276,72,53862,2,0,P|323:64|368:56,1,75.9999979705811,10|0,0:0|3:0,0:0:0:0:
467,209,54192,6,0,P|415:156|343:166,2,151.999995941162,0|8|2,3:0|0:0|3:2,0:0:0:0:
382,253,55016,1,2,3:2:0:0:
437,342,55181,2,0,P|484:334|529:323,1,75.9999979705811,10|0,0:0|3:0,0:0:0:0:
382,253,55510,6,0,P|313:243|222:228,1,151.999995941162,0|8,0:0|0:0,0:0:0:0:
260,143,56005,1,0,3:0:0:0:
128,159,56170,2,0,P|139:208|150:249,1,75.9999979705811,2|0,3:2|3:2,0:0:0:0:
0,105,56499,1,10,0:0:0:0:
40,194,56664,1,2,0:0:0:0:
116,59,56829,6,0,P|188:49|244:99,1,151.999995941162,0|8,0:0|0:0,0:0:0:0:
109,242,57324,1,0,3:0:0:0:
171,130,57488,2,0,P|182:179|194:227,1,75.9999979705811,2|0,3:2|3:2,0:0:0:0:
282,267,57818,2,0,P|271:316|259:363,1,75.9999979705811,10|0,0:0|3:0,0:0:0:0:
441,310,58148,6,0,P|432:234|420:159,1,151.999995941162,0|8,3:0|0:0,0:0:0:0:
512,199,58642,1,0,0:0:0:0:
357,278,58807,2,0,P|318:273|274:265,1,75.9999979705811,2|2,3:2|3:2,0:0:0:0:
133,207,59137,1,10,0:0:0:0:
175,301,59302,1,0,3:0:0:0:
31,214,59466,6,0,P|42:143|56:54,2,151.999995941162,0|8|2,3:0|0:0|3:2,0:0:0:0:
95,304,60291,1,2,3:2:0:0:
186,220,60455,2,0,P|224:214|270:207,1,75.9999979705811,10|0,0:0|3:0,0:0:0:0:
337,74,60785,6,0,P|409:63|460:116,1,151.999995941162,0|8,3:2|0:0,0:0:0:0:
358,247,61280,1,0,3:2:0:0:
305,163,61445,2,0,P|349:155|395:147,1,75.9999979705811,2|2,3:2|3:2,0:0:0:0:
512,248,61774,2,0,P|468:240|422:229,1,75.9999979705811,10|0,0:0|3:0,0:0:0:0:
298,356,62104,6,0,B|369:343|451:325,1,151.999995941162,6|12,0:3|0:0,0:0:0:0:
358,247,62598,1,0,3:2:0:0:
285,360,62763,2,8,L|247:354,3,37.9999989852906,8|8|8|0,0:0|0:0|0:0|3:0,0:0:0:0:
192,295,63093,2,8,L|154:300,3,37.9999989852906,0|8|8|0,3:0|3:0|3:0|3:0,0:0:0:0:
61,327,63422,6,0,P|70:278|84:205,1,113.999996955872,4|0,0:1|3:0,0:0:0:0:
89,210,63752,2,0,P|85:172|78:126,1,75.9999979705811,8|2,0:0|3:2,0:0:0:0:
247,50,64082,1,0,3:0:0:0:
159,17,64247,1,2,3:2:0:0:
233,146,64411,2,0,P|275:137|321:127,1,75.9999979705811,8|0,0:0|0:0,0:0:0:0:
429,16,64741,6,0,P|418:92|401:184,1,151.999995941162,2|10,3:2|0:0,0:0:0:0:
256,274,65236,1,0,3:0:0:0:
354,304,65400,2,0,P|347:266|341:218,1,75.9999979705811,2|2,3:2|3:2,0:0:0:0:
228,157,65730,2,0,P|236:118|248:62,1,75.9999979705811,8|0,0:0|0:0,0:0:0:0:
403,106,66060,6,0,P|358:112|311:121,1,75.9999979705811,4|2,0:0|0:0,0:0:0:0:
143,195,66389,1,10,0:0:0:0:
239,232,66554,2,0,P|233:194|226:146,1,75.9999979705811,2|0,3:2|3:2,0:0:0:0:
111,81,66884,1,2,3:2:0:0:
38,170,67049,2,0,P|77:179|118:188,1,75.9999979705811,8|0,0:0|3:2,0:0:0:0:
208,63,67378,6,0,P|245:56|282:49,1,75.9999979705811,2|0,0:0|3:2,0:0:0:0:
365,129,67708,2,0,P|402:132|440:136,1,75.9999979705811,10|2,0:0|0:0,0:0:0:0:
289,273,68038,6,0,P|326:266|370:258,1,75.9999979705811,2|2,3:0|3:2,0:0:0:0:
205,164,68367,2,0,P|244:174|289:185,1,75.9999979705811,12|0,0:2|0:3,0:0:0:0:
198,337,68697,6,0,P|138:347|88:309,1,113.999996955872,4|0,0:1|3:0,0:0:0:0:
91,312,69027,2,0,P|98:272|109:215,1,75.9999979705811,8|2,3:2|3:2,0:0:0:0:
38,96,69356,1,0,3:0:0:0:
0,186,69521,1,2,0:2:0:0:
189,184,69686,2,0,P|180:148|166:92,1,75.9999979705811,10|0,0:0|0:0,0:0:0:0:
178,296,70016,6,0,P|229:311|303:251,1,151.999995941162,2|10,3:2|0:2,0:0:0:0:
406,156,70510,1,0,3:2:0:0:
468,263,70675,2,0,P|429:254|378:241,1,75.9999979705811,2|2,3:2|3:2,0:0:0:0:
265,169,71005,2,0,P|274:129|287:83,1,75.9999979705811,2|2,3:2|3:2,0:0:0:0:
134,29,71334,6,0,P|146:105|159:194,1,151.999995941162,4|8,0:1|0:2,0:0:0:0:
49,99,71829,1,2,3:2:0:0:
136,23,71994,2,0,P|176:32|212:38,1,75.9999979705811,2|2,3:2|3:2,0:0:0:0:
301,96,72324,2,0,P|338:89|386:79,1,75.9999979705811,8|2,0:2|3:2,0:0:0:0:
475,202,72653,6,0,P|437:195|396:188,1,75.9999979705811,2|2,3:2|0:2,0:0:0:0:
282,321,72983,2,0,P|358:330|411:269,1,151.999995941162,8|2,3:2|3:2,0:0:0:0:
316,175,73477,1,0,3:2:0:0:
193,269,73642,1,10,0:2:0:0:
193,269,73972,6,0,P|189:231|180:183,1,75.9999979705811,12|0,0:2|3:2,0:0:0:0:
44,266,74302,2,0,P|48:228|57:180,1,75.9999979705811,12|0,0:2|3:2,0:0:0:0:
208,256,74631,6,0,P|204:218|195:170,1,75.9999979705811,12|0,0:2|3:2,0:0:0:0:
21,252,74961,2,0,P|25:214|34:166,1,75.9999979705811,12|0,0:2|3:2,0:0:0:0:
129,76,75291,5,8,3:0:0:0:
159,49,75373,1,8,3:0:0:0:
197,39,75455,1,8,3:0:0:0:
236,48,75538,1,2,3:2:0:0:
264,76,75620,2,0,P|261:105|258:130,3,40,0|8|8|0,3:0|3:0|3:3|3:2,0:0:0:0:
198,170,75950,5,12,0:0:0:0:
358,277,76115,1,12,0:2:0:0:
358,277,76609,6,0,P|368:230|383:156,1,120,4|0,0:1|0:0,0:0:0:0:
397,154,76939,2,0,P|389:117|375:62,1,80,10|0,0:0|3:0,0:0:0:0:
313,30,77186,1,0,3:0:0:0:
302,37,77269,2,0,P|259:33|213:27,1,80,2|0,3:2|3:0,0:0:0:0:
113,152,77598,2,0,P|152:147|192:143,1,80,10|0,0:0|0:0,0:0:0:0:
358,277,77928,6,0,P|284:290|224:232,2,160,2|8|0,3:2|0:0|3:2,0:0:0:0:
334,184,78752,1,0,3:2:0:0:
471,184,78917,2,0,P|460:228|447:271,1,80,10|2,0:2|3:2,0:0:0:0:
334,184,79247,6,0,P|346:143|356:104,1,80,2|0,3:2|3:0,0:0:0:0:
200,19,79576,2,0,P|213:97|227:186,1,160,10|0,0:2|3:0,0:0:0:0:
64,248,80071,1,0,3:0:0:0:
160,284,80235,2,0,P|151:245|140:196,1,80,10|2,0:0|0:0,0:0:0:0:
80,32,80565,5,2,3:2:0:0:
53,125,80730,1,0,0:3:0:0:
200,19,80895,2,0,P|213:97|227:186,1,160,10|2,0:0|3:2,0:0:0:0:
306,78,81389,1,0,3:2:0:0:
359,160,81554,2,0,P|349:198|339:242,1,80,10|0,0:0|0:0,0:0:0:0:
203,347,81884,6,0,P|191:285|181:225,1,120,4|0,0:1|0:0,0:0:0:0:
170,219,82214,2,0,P|209:208|251:195,1,80,10|0,3:2|3:2,0:0:0:0:
323,121,82461,1,0,0:0:0:0:
314,112,82543,2,0,P|274:103|233:93,1,80,2|0,3:2|3:0,0:0:0:0:
100,50,82873,2,0,P|109:88|120:130,1,80,10|0,0:0|3:0,0:0:0:0:
285,273,83203,6,0,P|359:286|419:228,2,160,2|10|0,0:0|0:0|3:0,0:0:0:0:
313,193,84027,1,0,3:0:0:0:
216,324,84192,2,0,P|176:315|132:303,1,80,10|2,0:0|3:2,0:0:0:0:
137,140,84521,5,2,3:2:0:0:
186,225,84686,1,2,3:2:0:0:
34,313,84851,2,0,P|44:246|57:141,1,160,8|0,0:0|3:2,0:0:0:0:
220,83,85345,1,0,3:0:0:0:
116,49,85510,2,0,P|124:89|133:132,1,80,10|2,0:0|3:2,0:0:0:0:
311,150,85840,5,2,3:2:0:0:
220,83,86005,1,2,3:2:0:0:
267,238,86170,2,0,B|319:253|319:253|370:223|370:223|420:239,1,160,10|4,0:0|3:0,0:0:0:0:
311,150,86664,6,8,L|320:94,1,40,8|8,0:0|0:0,0:0:0:0:
214,43,86829,2,8,L|219:82,1,40,8|8,0:0|0:0,0:0:0:0:
127,162,86994,2,8,L|136:106,1,40
16,67,87159,6,0,P|27:123|40:190,1,120,4|0,0:1|0:0,0:0:0:0:
50,196,87488,2,0,L|30:286,1,80,10|0,0:2|0:0,0:0:0:0:
86,351,87736,1,0,3:0:0:0:
94,341,87818,2,0,P|139:332|184:321,1,80,2|0,3:2|3:0,0:0:0:0:
299,246,88148,2,0,P|256:240|210:232,1,80,10|0,0:0|3:0,0:0:0:0:
89,114,88477,6,0,P|145:61|221:73,2,160,2|10|0,3:2|0:0|3:0,0:0:0:0:
131,185,89302,1,0,3:0:0:0:
18,268,89466,2,0,P|10:228|2:184,1,80,10|2,0:0|3:2,0:0:0:0:
113,106,89796,6,0,P|122:144|130:184,1,80,2|2,3:2|3:2,0:0:0:0:
144,337,90126,2,0,P|218:350|278:292,1,160,10|0,0:0|3:0,0:0:0:0:
340,150,90620,1,0,3:0:0:0:
397,245,90785,2,0,P|352:237|316:229,1,80,10|2,0:0|3:2,0:0:0:0:
190,255,91115,5,2,3:2:0:0:
205,151,91280,1,2,3:2:0:0:
144,337,91444,2,0,P|220:349|276:296,1,160,10|0,0:0|3:0,0:0:0:0:
205,151,91939,1,0,3:0:0:0:
110,247,92104,2,0,P|155:252|202:256,1,80,10|0,0:0|3:0,0:0:0:0:
423,94,92433,6,0,P|379:56|310:66,1,120,4|0,0:1|0:0,0:0:0:0:
306,56,92763,2,0,P|299:96|290:140,1,80,8|2,3:2|3:2,0:0:0:0:
367,273,93093,1,0,3:0:0:0:
394,184,93258,1,2,3:2:0:0:
208,183,93422,2,0,P|215:223|221:265,1,80,10|0,0:0|0:0,0:0:0:0:
48,324,93752,6,0,P|60:247|73:164,1,160,2|8,3:2|0:0,0:0:0:0:
169,14,94247,1,0,3:0:0:0:
87,89,94411,2,0,P|126:96|172:104,1,80,0|0,3:0|3:0,0:0:0:0:
262,176,94741,2,0,P|303:170|344:165,1,80,10|0,0:0|0:0,0:0:0:0:
472,304,95071,6,0,P|396:316|340:263,1,160,2|8,3:2|0:0,0:0:0:0:
376,168,95565,1,0,3:0:0:0:
255,277,95730,2,0,P|213:272|173:266,1,80,0|0,3:0|3:0,0:0:0:0:
104,136,96060,2,0,P|141:129|185:121,1,80,8|0,0:0|0:0,0:0:0:0:
376,168,96389,5,2,3:2:0:0:
298,59,96554,2,0,P|287:105|273:159,1,80,2|8,3:2|0:0,0:0:0:0:
359,307,96884,1,2,3:2:0:0:
456,228,97049,2,0,P|419:221|368:212,1,80,2|4,3:2|3:0,0:0:0:0:
192,237,97378,1,10,0:0:0:0:
222,133,97543,1,2,3:2:0:0:
228,323,97708,6,0,P|154:336|107:298,1,120,6|0,0:0|3:0,0:0:0:0:
105,308,98038,2,0,P|110:268|117:229,1,80,10|2,3:2|3:2,0:0:0:0:
67,72,98367,1,0,3:2:0:0:
36,168,98532,1,4,3:0:0:0:
208,188,98697,2,0,P|204:150|196:99,1,80,10|0,0:0|0:0,0:0:0:0:
350,32,99027,6,0,P|335:115|322:196,1,160,2|8,3:2|0:0,0:0:0:0:
173,292,99521,1,0,3:0:0:0:
268,329,99686,2,0,P|258:288|247:241,1,80,0|0,3:0|3:0,0:0:0:0:
148,194,100016,2,0,P|157:156|169:105,1,80,10|0,0:0|3:0,0:0:0:0:
35,310,100345,6,0,P|107:335|172:292,1,160,2|8,3:2|0:0,0:0:0:0:
148,194,100840,1,0,3:0:0:0:
282,250,101005,2,0,P|275:289|267:330,1,80,0|2,3:0|0:0,0:0:0:0:
371,180,101334,2,0,P|363:141|353:96,1,80,10|2,0:0|0:0,0:0:0:0:
169,86,101664,5,12,0:0:0:0:
281,174,101827,1,0,3:0:0:0:
154,88,101991,5,12,0:0:0:0:
274,10,102155,1,0,3:0:0:0:
190,173,102319,5,12,0:0:0:0:
353,99,102483,1,8,0:0:0:0:
353,99,102565,1,8,0:0:0:0:
353,99,102647,2,0,P|313:93|271:88,1,80,8|8,0:0|0:0,0:0:0:0:
169,74,102893,1,0,0:0:0:0:
154,88,102975,6,0,P|167:168|182:264,1,160,4|8,0:1|0:0,0:0:0:0:
281,174,103469,1,0,3:0:0:0:
337,254,103634,2,0,P|327:292|318:332,1,80,2|0,3:2|3:0,0:0:0:0:
416,151,103964,2,0,P|425:192|433:229,1,80,8|0,0:0|0:0,0:0:0:0:
318,331,104293,6,0,P|246:356|181:313,1,160,2|10,3:2|0:0,0:0:0:0:
34,196,104788,1,0,3:0:0:0:
142,173,104953,2,0,P|131:220|119:271,1,80,2|0,3:2|3:0,0:0:0:0:
236,124,105283,2,0,P|227:84|219:45,1,80,10|0,0:0|3:0,0:0:0:0:
131,171,105612,5,2,3:2:0:0:
215,245,105777,2,2,P|252:237|295:228,1,80,0|10,3:0|0:0,0:0:0:0:
465,267,106106,1,2,3:2:0:0:
372,321,106271,2,2,P|380:279|388:232,1,80,2|0,3:2|3:0,0:0:0:0:
498,185,106601,2,2,P|489:147|481:105,1,80,8|0,0:0|3:0,0:0:0:0:
300,41,106931,6,0,P|313:122|328:205,1,160,2|8,3:2|0:0,0:0:0:0:
175,306,107425,1,0,3:2:0:0:
266,318,107590,2,0,P|257:276|249:239,1,80,2|2,3:2|3:2,0:0:0:0:
128,65,107920,5,10,0:0:0:0:
157,221,108084,1,2,3:2:0:0:
45,149,108249,6,0,B|95:158|95:158|158:136|158:136|214:141,1,160,6|8,3:2|0:0,0:0:0:0:
378,79,108744,1,0,3:2:0:0:
284,68,108909,2,0,P|293:106|304:152,1,80,0|0,3:2|3:0,0:0:0:0:
394,244,109238,2,0,P|400:202|407:157,1,80,8|2,0:0|0:0,0:0:0:0:
210,337,109568,6,0,P|277:359|344:311,1,160,2|8,3:2|0:0,0:0:0:0:
179,216,110062,1,0,3:0:0:0:
286,168,110227,2,0,P|276:206|266:251,1,80,0|0,3:2|3:2,0:0:0:0:
441,248,110557,2,0,P|404:223|364:205,1,80,8|0,0:0|3:2,0:0:0:0:
221,320,110887,5,2,3:2:0:0:
310,353,111051,2,0,P|355:343|410:331,1,80,2|8,3:2|0:0,0:0:0:0:
512,194,111381,1,0,3:2:0:0:
421,170,111546,2,0,P|431:212|441:250,1,80,2|0,3:2|3:2,0:0:0:0:
318,125,111876,2,0,P|327:86|338:42,1,80,8|0,0:0|3:2,0:0:0:0:
178,27,112205,6,0,P|193:100|214:191,1,160,2|14,3:2|0:0,0:0:0:0:
40,258,112700,1,0,3:0:0:0:
150,313,112865,2,0,P|140:278|128:234,1,80,4|0,3:2|3:0,0:0:0:0:
130,228,113111,1,8,0:0:0:0:
132,220,113194,5,8,0:0:0:0:
259,62,113359,1,8,0:0:0:0:
262,69,113442,1,0,3:0:0:0:
266,75,113524,6,0,P|254:155|239:243,1,160,4|8,0:1|0:0,0:0:0:0:
350,138,114018,1,0,3:2:0:0:
402,227,114183,2,2,P|440:220|492:207,1,80,0|0,3:0|3:0,0:0:0:0:
327,314,114513,2,2,P|287:308|248:299,1,80,10|0,0:0|0:0,0:0:0:0:
67,153,114843,6,0,P|124:104|204:134,1,160,2|8,3:2|0:0,0:0:0:0:
171,303,115337,1,0,3:2:0:0:
124,228,115502,2,2,P|166:217|224:209,1,80,2|0,3:2|3:0,0:0:0:0:
288,97,115832,2,2,P|327:103|366:113,1,80,8|0,0:0|3:0,0:0:0:0:
500,213,116161,5,2,3:2:0:0:
406,253,116326,2,0,P|416:211|427:163,1,80,0|8,3:0|0:0,0:0:0:0:
390,15,116656,1,0,3:2:0:0:
491,106,116821,2,2,P|452:97|398:83,1,80,2|0,3:2|3:2,0:0:0:0:
305,14,117150,2,2,P|264:21|226:28,1,80,8|2,0:0|3:2,0:0:0:0:
91,30,117480,6,0,P|107:105|126:204,1,160,0|8,3:2|0:0,0:0:0:0:
203,90,117975,1,0,3:2:0:0:
258,171,118140,2,0,P|248:209|236:254,1,80,0|0,3:2|3:0,0:0:0:0:
380,364,118469,1,8,0:2:0:0:
346,248,118634,1,2,3:2:0:0:
373,371,118799,6,0,P|311:363|206:346,1,160,6|8,0:0|0:0,0:0:0:0:
41,319,119293,1,0,3:0:0:0:
123,256,119458,2,0,P|130:295|136:336,1,80,0|0,3:0|3:0,0:0:0:0:
251,170,119788,2,0,P|243:209|233:256,1,80,8|0,0:0|3:0,0:0:0:0:
19,128,120117,6,0,P|63:76|155:86,1,160,2|10,3:2|0:0,0:0:0:0:
24,226,120612,1,0,3:2:0:0:
123,256,120777,2,0,P|113:214|103:166,1,80,2|2,3:2|3:2,0:0:0:0:
233,72,121106,2,0,P|225:114|217:151,1,80,8|2,0:0|3:2,0:0:0:0:
298,330,121436,5,2,0:0:0:0:
366,225,121601,2,0,P|322:234|272:244,1,80,0|8,3:2|0:0,0:0:0:0:
100,297,121931,1,0,3:2:0:0:
205,337,122095,2,0,P|196:295|188:253,1,80,2|0,3:2|3:2,0:0:0:0:
49,200,122425,2,0,P|60:158|72:109,1,80,8|0,0:0|3:2,0:0:0:0:
230,173,122755,6,0,L|140:154,1,80,2|2,3:2|3:2,0:0:0:0:
260,51,123084,2,0,L|338:67,1,80,8|2,0:0|3:2,0:0:0:0:
411,231,123414,1,0,3:2:0:0:
316,153,123579,1,2,3:2:0:0:
446,97,123744,2,0,P|434:154|418:235,1,120,12|0,0:0|0:0,0:0:0:0:
404,221,124073,6,0,P|418:294|436:386,2,160,4|10|0,0:0|0:0|3:0,0:0:0:0:
316,153,124898,1,0,3:0:0:0:
242,221,125062,2,0,P|200:215|158:210,1,80,8|0,0:0|0:0,0:0:0:0:
36,98,125392,5,2,3:2:0:0:
136,59,125557,2,0,P|125:106|115:152,1,80,0|8,3:0|0:0,0:0:0:0:
216,318,125887,1,0,3:2:0:0:
246,223,126051,1,2,3:2:0:0:
246,223,126216,1,0,3:0:0:0:
96,270,126381,2,0,P|107:317|120:367,1,80,8|0,0:0|3:2,0:0:0:0:
369,314,126711,6,0,B|283:279|305:355|207:314,2,160,2|8|2,3:2|0:0|3:2,0:0:0:0:
456,284,127535,1,0,3:0:0:0:
379,218,127700,2,0,P|392:179|407:132,1,80,8|0,0:0|3:0,0:0:0:0:
378,0,128029,5,0,3:0:0:0:
512,90,128194,2,0,P|471:80|431:70,1,80,0|8,3:0|0:0,0:0:0:0:
214,66,128524,1,0,3:0:0:0:
290,5,128689,1,0,3:0:0:0:
290,5,128854,1,0,3:0:0:0:
262,163,129018,2,0,P|219:153|177:144,1,80,12|0,0:0|3:0,0:0:0:0:
91,87,129348,6,0,P|102:162|117:253,2,160,6|8|2,0:0|0:0|3:2,0:0:0:0:
185,26,130172,1,0,3:0:0:0:
236,108,130337,2,0,P|226:146|219:186,1,80,10|0,0:0|3:0,0:0:0:0:
322,342,130667,5,0,3:0:0:0:
373,246,130832,2,0,P|331:240|290:236,1,80,0|8,3:0|0:0,0:0:0:0:
142,359,131161,1,0,3:0:0:0:
234,296,131326,1,2,3:2:0:0:
234,296,131491,1,0,3:0:0:0:
124,190,131656,2,0,P|132:234|146:285,1,80,10|0,0:0|3:2,0:0:0:0:
373,246,131985,6,0,B|333:255|291:240|291:240|262:208|207:219,2,160,2|12|2,3:2|0:0|3:2,0:0:0:0:
355,159,132810,1,0,3:2:0:0:
477,148,132975,2,0,P|468:190|456:244,1,80,14|0,0:2|3:0,0:0:0:0:
298,322,133304,5,2,3:2:0:0:
391,348,133469,2,0,P|384:308|376:269,1,80,0|12,3:0|0:0,0:0:0:0:
249,114,133799,2,0,P|253:79|258:49,2,40,8|8|12,0:0|0:0|0:0,0:0:0:0:
213,230,134128,1,8,0:3:0:0:
262,109,134293,1,4,0:3:0:0:
200,240,134458,5,4,0:1:0:0:
256,192,134540,12,0,141216,0:0:0:0:
