osu file format v14

[General]
AudioFilename: audio.mp3
AudioLeadIn: 0
PreviewTime: 75950
Countdown: 0
SampleSet: Soft
StackLeniency: 0.3
Mode: 0
LetterboxInBreaks: 0
EpilepsyWarning: 1
WidescreenStoryboard: 1

[Editor]
Bookmarks: 4762,15940,110896,141225
DistanceSpacing: 1.2
BeatDivisor: 4
GridSize: 4
TimelineZoom: 1.200001

[Metadata]
Title:Hikari
TitleUnicode:光
Artist:RADWIMPS
ArtistUnicode:RADWIMPS
Creator:Haruto
Version:Ipas' Expert
Source:
Tags:Light Human Bloom 人間開花 Ningen kaika short cut version haruto_aizawa monstrata ipas newipas appleeaterx milan- rizen kalibe sotarks sytarno irohas mugiwarasekai a q p w a_q_p_w kimi no na wa nawa 君の名は。 your name
BeatmapID:1171123
BeatmapSetID:547714

[Difficulty]
HPDrainRate:6
CircleSize:3.3
OverallDifficulty:8.3
ApproachRate:9.2
SliderMultiplier:1.74
SliderTickRate:1

[Events]
//Background and Video events
0,0,"7374744.jpg",0,0
//Break Periods
//Storyboard Layer 0 (Background)
//Storyboard Layer 1 (Fail)
//Storyboard Layer 2 (Pass)
//Storyboard Layer 3 (Foreground)
//Storyboard Sound Samples

[TimingPoints]
120,331.491712707182,4,2,2,60,1,0
4762,315.789473684211,4,2,2,50,1,0
5387,329.789923818528,4,2,2,50,1,0
15940,-103.092783505155,4,2,2,50,0,0
42324,329.67032967033,4,2,2,50,1,0
42324,-103.092783505155,4,2,2,50,0,0
71334,-100,4,2,2,60,0,0
76609,-86.9565217391304,4,2,2,75,0,1
101664,327.868852459016,4,2,2,75,1,1
101664,-86.9565217391304,4,2,2,75,0,1
102975,329.67032967033,4,2,2,65,1,0
102975,-100,4,2,2,65,0,0
134293,-100,4,2,2,65,0,0
134540,-100,4,2,2,5,0,0

[Colours]
Combo1 : 248,243,97
Combo2 : 122,145,205
Combo3 : 240,175,145
Combo4 : 80,163,186

[HitObjects]
88,264,4762,6,0,P|132:256|176:252,1,87,12|0,0:0|3:0,0:0:0:0:
220,280,4998,1,0,0:0:0:0:
256,280,5077,1,8,0:0:0:0:
292,280,5156,1,0,0:0:0:0:
320,300,5235,1,8,0:0:0:0:
356,300,5314,1,8,0:0:0:0:
388,299,5387,6,0,P|419:220|392:140,1,174,4|8,3:0|0:0,0:0:0:0:
276,132,5881,1,8,3:2:0:0:
432,48,6046,2,0,P|392:44|344:52,1,87,0|0,3:3|3:0,0:0:0:0:
264,240,6376,2,0,L|260:152,1,87,8|0,0:0|3:0,0:0:0:0:
180,308,6706,6,0,B|224:320|268:300|268:300|308:280|352:296,1,174,2|8,3:2|0:0,0:0:0:0:
432,360,7200,1,8,3:2:0:0:
452,180,7365,2,0,L|436:268,1,87,0|0,3:2|3:2,0:0:0:0:
432,360,7695,1,10,0:0:0:0:
352,200,7860,1,2,3:2:0:0:
240,352,8025,6,0,B|184:348|184:348|132:320|132:320|72:316,1,174,2|8,3:2|0:0,0:0:0:0:
73,316,8520,1,2,3:2:0:0:
84,128,8684,2,0,P|96:168|92:216,1,87,2|2,3:2|3:2,0:0:0:0:
73,316,9014,1,8,0:0:0:0:
0,184,9179,1,2,3:2:0:0:
200,244,9344,6,0,L|384:232,1,174,2|8,3:2|0:0,0:0:0:0:
416,328,9839,1,0,3:2:0:0:
296,276,10004,1,2,3:2:0:0:
364,116,10168,1,2,3:2:0:0:
284,304,10333,1,8,0:0:0:0:
208,200,10498,1,2,3:2:0:0:
412,212,10663,6,0,B|408:152|408:152|424:112|424:112|420:40,1,174,4|8,0:1|0:0,0:0:0:0:
236,100,11158,2,0,P|280:108|320:100,1,87,8|0,3:2|3:2,0:0:0:0:
160,32,11488,1,2,3:2:0:0:
260,208,11653,2,0,P|217:199|175:207,1,87,8|2,0:2|3:2,0:0:0:0:
360,188,11982,6,0,P|340:276|268:312,1,174,2|8,3:2|0:2,0:0:0:0:
100,344,12477,2,0,B|144:328|144:328|184:331,1,87,8|2,3:2|3:2,0:0:0:0:
36,268,12807,1,2,3:2:0:0:
240,240,12972,2,0,B|284:256|284:256|324:252,1,87,8|8,0:0|0:0,0:0:0:0:
484,356,13301,6,0,B|404:324|404:324|318:343,1,174,2|8,3:2|0:0,0:0:0:0:
144,244,13796,2,0,P|152:200|176:160,1,87,8|2,0:0|3:2,0:0:0:0:
256,116,14126,1,2,3:2:0:0:
104,340,14291,2,0,P|148:332|192:340,1,87,8|8,0:0|0:0,0:0:0:0:
312,224,14621,5,2,3:2:0:0:
284,344,14786,1,2,3:2:0:0:
320,188,14950,1,8,0:2:0:0:
432,280,15115,1,8,0:0:0:0:
424,80,15280,1,0,3:0:0:0:
428,104,15363,1,0,3:3:0:0:
432,128,15445,1,8,3:2:0:0:
328,292,15610,1,8,0:0:0:0:
160,192,15775,1,0,0:0:0:0:
228,256,15940,6,0,B|252:212|252:212|240:93,1,168.780003991837,4|8,0:1|0:0,0:0:0:0:
240,93,16434,1,0,3:2:0:0:
72,128,16599,2,0,P|112:144|156:144,1,84.3900019959183,2|2,3:2|3:2,0:0:0:0:
320,76,16930,2,0,P|278:77|240:93,1,84.3900019959183,10|0,0:0|3:0,0:0:0:0:
264,216,17259,5,0,3:0:0:0:
232,64,17424,1,0,0:0:0:0:
272,244,17589,2,0,L|288:328,1,84.3900019959183,8|0,0:0|3:0,0:0:0:0:
336,148,17919,1,2,3:2:0:0:
300,352,18083,1,2,3:2:0:0:
380,232,18248,1,10,0:0:0:0:
248,160,18413,1,2,3:2:0:0:
384,76,18578,6,0,B|328:64|328:64|272:72|272:72|216:60,1,168.780003991837,4|8,0:0|0:0,0:0:0:0:
72,160,19073,1,0,3:2:0:0:
191,202,19238,1,2,3:2:0:0:
56,44,19403,1,2,3:2:0:0:
164,282,19567,2,0,P|179:243|191:203,1,84.3900019959183,10|0,0:0|3:2,0:0:0:0:
56,44,19897,5,0,3:2:0:0:
160,120,20062,1,0,0:0:0:0:
104,236,20227,2,0,L|112:324,1,84.3900019959183,8|0,0:0|3:0,0:0:0:0:
340,312,20557,1,2,3:2:0:0:
236,236,20722,1,2,3:2:0:0:
292,120,20887,2,0,L|284:32,1,84.3900019959183,10|0,0:0|3:0,0:0:0:0:
448,136,21216,6,0,L|460:304,1,168.780003991837,0|8,3:2|0:0,0:0:0:0:
320,356,21711,1,0,3:0:0:0:
368,260,21876,2,0,L|360:172,1,84.3900019959183,2|2,3:2|3:2,0:0:0:0:
224,223,22206,2,0,P|215:265|222:306,1,84.3900019959183,10|0,0:0|0:3,0:0:0:0:
276,140,22536,6,0,L|192:124,1,84.3900019959183,0|0,3:3|0:0,0:0:0:0:
356,32,22866,2,0,L|272:48,1,84.3900019959183,8|0,0:0|3:0,0:0:0:0:
96,104,23195,1,2,3:2:0:0:
193,124,23360,1,2,3:2:0:0:
76,16,23525,2,0,P|72:60|76:100,1,84.3900019959183,10|0,0:0|3:2,0:0:0:0:
192,316,23855,6,0,P|199:232|188:148,1,168.780003991837,0|8,3:2|0:0,0:0:0:0:
252,72,24349,1,0,3:2:0:0:
128,40,24514,1,2,3:2:0:0:
252,72,24679,1,2,3:2:0:0:
116,216,24844,1,10,0:0:0:0:
188,148,25009,1,0,3:0:0:0:
36,160,25174,6,0,B|20:212|20:212|48:328,1,168.780003991837,0|8,3:0|0:0,0:0:0:0:
223,244,25669,1,0,0:0:0:0:
223,244,25833,2,0,P|254:214|289:191,1,84.3900019959183,2|6,3:2|3:2,0:0:0:0:
464,308,26164,2,0,P|423:295|385:277,1,84.3900019959183,10|0,0:0|3:0,0:0:0:0:
228,167,26493,6,0,L|236:336,1,168.780003991837,4|8,0:1|0:0,0:0:0:0:
340,360,26988,1,0,0:0:0:0:
480,260,27153,2,0,L|488:176,1,84.3900019959183,2|2,3:2|3:2,0:0:0:0:
420,336,27482,2,0,P|378:328|339:312,1,84.3900019959183,10|0,0:0|3:2,0:0:0:0:
176,284,27813,6,0,P|215:268|256:260,1,84.3900019959183,0|0,3:2|3:2,0:0:0:0:
360,132,28142,2,0,P|354:173|340:213,1,84.3900019959183,8|0,0:0|3:0,0:0:0:0:
236,360,28472,1,2,3:2:0:0:
216,172,28637,1,2,3:2:0:0:
168,284,28802,1,10,0:0:0:0:
320,304,28966,1,0,3:2:0:0:
92,360,29131,6,0,P|68:280|100:204,1,168.780003991837,0|8,3:0|0:0,0:0:0:0:
272,112,29626,1,0,3:0:0:0:
184,235,29792,2,0,P|225:227|263:207,1,84.3900019959183,2|2,3:2|3:2,0:0:0:0:
102,107,30122,2,0,P|61:115|23:135,1,84.3900019959183,10|0,0:0|0:0,0:0:0:0:
176,260,30451,6,0,L|260:248,1,84.3900019959183,2|0,3:2|0:0,0:0:0:0:
416,172,30781,2,0,L|332:184,1,84.3900019959183,8|0,0:0|3:2,0:0:0:0:
312,324,31110,1,2,3:2:0:0:
336,152,31275,1,6,3:2:0:0:
204,232,31440,1,10,0:0:0:0:
336,340,31605,1,0,3:2:0:0:
184,212,31770,6,0,B|144:200|108:216|108:216|60:232|16:216,1,168.780003991837,4|8,0:1|0:0,0:0:0:0:
56,44,32264,1,0,3:0:0:0:
56,44,32429,2,0,P|64:92|56:132,1,84.3900019959183,2|2,3:2|3:2,0:0:0:0:
144,336,32760,2,0,P|136:288|144:248,1,84.3900019959183,10|0,0:0|0:0,0:0:0:0:
28,268,33089,5,0,3:0:0:0:
176,164,33254,1,0,0:0:0:0:
136,360,33419,2,0,L|224:344,1,84.3900019959183,8|2,0:0|3:2,0:0:0:0:
184,188,33748,2,0,L|96:204,1,84.3900019959183,2|2,3:2|3:2,0:0:0:0:
292,288,34078,2,0,P|288:248|272:208,1,84.3900019959183,10|0,0:0|3:2,0:0:0:0:
80,320,34408,5,0,3:2:0:0:
184,192,34573,1,0,3:2:0:0:
56,340,34738,1,8,0:0:0:0:
132,84,34903,1,0,3:2:0:0:
176,292,35068,1,2,3:2:0:0:
132,84,35232,1,0,3:2:0:0:
264,248,35397,2,0,B|220:240|220:240|180:248,1,84.3900019959183,10|0,0:0|0:0,0:0:0:0:
4,160,35728,6,0,B|48:168|48:168|88:160,1,84.3900019959183,4|0,3:3|0:0,0:0:0:0:
276,152,36057,2,0,L|284:236,1,84.3900019959183,8|0,0:0|3:2,0:0:0:0:
100,340,36387,2,0,L|92:256,1,84.3900019959183,6|0,3:2|3:2,0:0:0:0:
100,244,36634,1,0,3:2:0:0:
108,232,36717,1,8,0:0:0:0:
4,348,36881,1,0,3:0:0:0:
216,328,37046,6,0,B|264:332|264:332|292:340|292:340|341:343,1,126.585002993877,4|0,0:1|3:0,0:0:0:0:
337,259,37376,2,0,B|345:303|345:303|341:343,1,84.3900019959183,10|2,0:0|3:2,0:0:0:0:
248,188,37706,2,0,B|240:144|240:144|244:104,1,84.3900019959183,0|2,0:0|3:2,0:0:0:0:
328,32,38036,1,10,0:0:0:0:
88,164,38201,1,0,3:0:0:0:
92,180,38283,1,0,0:0:0:0:
96,196,38365,6,0,B|124:160|124:160|112:79,1,126.585002993877,2|0,3:2|3:0,0:0:0:0:
192,58,38695,2,0,P|150:62|112:79,1,84.3900019959183,10|2,0:0|3:2,0:0:0:0:
320,144,39026,2,0,P|361:140|400:123,1,84.3900019959183,0|2,3:2|3:2,0:0:0:0:
220,156,39355,2,0,L|208:240,1,84.3900019959183,8|0,0:0|0:0,0:0:0:0:
400,124,39685,6,0,L|412:40,1,84.3900019959183,4|2,0:1|0:0,0:0:0:0:
448,224,40014,1,10,0:0:0:0:
274,141,40179,2,0,P|282:185|294:233,1,84.3900019959183,0|2,3:0|3:2,0:0:0:0:
384,344,40509,1,2,0:0:0:0:
292,224,40674,1,8,0:0:0:0:
156,344,40839,6,0,P|200:336|244:332,1,84.3900019959183,2|2,0:0|3:2,0:0:0:0:
239,332,41169,1,2,3:2:0:0:
148,192,41334,2,0,L|64:176,1,84.3900019959183,12|0,0:0|3:0,0:0:0:0:
239,332,41663,1,6,3:2:0:0:
472,288,41828,1,8,0:0:0:0:
452,260,41911,1,8,0:0:0:0:
424,244,41993,1,8,0:0:0:0:
392,240,42076,1,8,0:0:0:0:
360,248,42158,1,8,0:0:0:0:
336,272,42241,1,8,0:0:0:0:
324,304,42324,6,0,P|364:231|357:148,1,168.780003991837,4|8,0:1|0:0,0:0:0:0:
408,64,42818,1,0,0:0:0:0:
188,208,42983,2,0,L|276:200,1,84.3900019959183,2|2,3:2|3:2,0:0:0:0:
455,131,43313,2,0,P|436:93|407:63,1,84.3900019959183,10|0,0:0|3:0,0:0:0:0:
224,96,43642,5,0,3:0:0:0:
272,200,43807,1,0,0:0:0:0:
466,214,43972,2,0,L|454:126,1,84.3900019959183,8|0,0:0|3:0,0:0:0:0:
272,200,44302,1,2,3:2:0:0:
316,308,44466,1,2,3:2:0:0:
496,304,44631,2,0,L|484:216,1,84.3900019959183,10|0,0:0|3:0,0:0:0:0:
272,200,44961,6,0,P|187:207|104:218,1,168.780003991837,2|8,3:2|0:0,0:0:0:0:
92,80,45455,1,0,3:0:0:0:
172,184,45620,1,2,3:2:0:0:
196,88,45785,1,2,3:2:0:0:
72,176,45950,1,8,0:0:0:0:
72,176,46115,1,0,3:2:0:0:
302,257,46280,6,0,B|278:205|278:205|230:173|170:184,1,168.780003991837,0|10,3:2|0:0,0:0:0:0:
212,360,46774,1,0,3:0:0:0:
396,281,46939,2,0,B|400:240|400:240|384:200,1,84.3900019959183,2|2,3:2|3:2,0:0:0:0:
296,352,47269,2,0,L|212:360,1,84.3900019959183,10|0,0:0|3:0,0:0:0:0:
476,236,47598,6,0,L|308:224,1,168.780003991837,0|8,3:0|3:2,0:0:0:0:
96,280,48093,1,0,0:3:0:0:
248,312,48258,1,2,3:2:0:0:
156,368,48422,1,2,3:2:0:0:
82,249,48588,2,0,P|100:211|124:175,1,84.3900019959183,10|0,0:0|3:2,0:0:0:0:
282,130,48917,6,0,P|305:166|323:204,1,84.3900019959183,0|0,3:0|0:0,0:0:0:0:
124,328,49247,1,8,0:0:0:0:
172,196,49411,1,0,0:0:0:0:
112,360,49576,1,2,3:2:0:0:
180,168,49741,1,2,3:2:0:0:
344,324,49906,2,0,P|382:305|417:282,1,84.3900019959183,10|0,0:0|3:2,0:0:0:0:
264,80,50236,6,0,P|270:162|332:220,1,168.780003991837,0|8,3:2|0:0,0:0:0:0:
464,192,50730,1,0,3:0:0:0:
376,56,50895,1,2,3:2:0:0:
368,156,51060,1,2,3:2:0:0:
472,24,51225,2,0,L|480:112,1,84.3900019959183,10|0,0:0|0:0,0:0:0:0:
380,336,51555,6,0,L|388:248,1,84.3900019959183,0|0,3:0|0:0,0:0:0:0:
212,132,51884,2,0,L|204:220,1,84.3900019959183,8|2,0:0|3:2,0:0:0:0:
216,344,52214,1,2,3:2:0:0:
292,184,52378,1,6,3:2:0:0:
292,184,52543,1,8,0:0:0:0:
100,232,52708,1,2,0:0:0:0:
248,356,52873,6,0,B|300:364|300:364|368:348|368:348|413:354,1,168.780003991837,4|8,0:1|0:0,0:0:0:0:
264,264,53367,1,0,3:2:0:0:
59,296,53532,2,0,P|61:338|74:377,1,84.3900019959183,2|2,3:2|3:2,0:0:0:0:
160,252,53862,2,0,P|173:212|174:170,1,84.3900019959183,10|0,0:0|3:0,0:0:0:0:
48,24,54192,5,0,3:0:0:0:
184,64,54356,1,0,3:0:0:0:
256,276,54521,2,0,P|196:348|124:352,1,168.780003991837,8|2,0:0|3:2,0:0:0:0:
80,120,55016,1,2,3:2:0:0:
160,252,55181,1,10,0:0:0:0:
160,252,55345,1,0,3:0:0:0:
92,12,55510,6,0,L|84:96,1,84.3900019959183,0|0,0:0|0:0,0:0:0:0:
72,271,55840,2,0,P|150:243|232:259,1,168.780003991837,8|2,0:0|3:2,0:0:0:0:
480,328,56334,2,0,B|440:316|440:316|396:320,1,84.3900019959183,2|10,3:2|0:0,0:0:0:0:
136,320,56664,6,0,B|148:208|148:208|124:148,1,168.780003991837,2|0,0:0|0:0,0:0:0:0:
344,204,57159,2,0,B|384:216|384:216|428:212,1,84.3900019959183,8|0,0:0|3:0,0:0:0:0:
272,96,57488,1,2,3:2:0:0:
296,296,57653,1,2,3:2:0:0:
268,68,57818,1,10,0:0:0:0:
440,188,57983,1,0,3:0:0:0:
216,228,58148,6,0,B|168:212|112:232|112:232|136:208|136:176,1,168.780003991837,0|8,3:0|0:0,0:0:0:0:
76,16,58642,1,0,0:0:0:0:
24,184,58807,2,0,P|12:224|20:276,1,84.3900019959183,2|2,3:2|3:2,0:0:0:0:
184,372,59137,2,0,L|168:288,1,84.3900019959183,10|0,0:0|3:0,0:0:0:0:
336,72,59466,6,0,L|352:156,1,84.3900019959183,0|0,3:0|0:0,0:0:0:0:
192,184,59796,2,0,P|208:220|240:256,1,84.3900019959183,8|0,0:0|3:0,0:0:0:0:
228,80,60126,1,2,3:2:0:0:
112,168,60291,1,2,3:2:0:0:
40,40,60456,2,0,P|16:71|1:117,1,84.3900019959183,10|0,0:0|3:0,0:0:0:0:
140,356,60785,6,0,L|152:188,1,168.780003991837,0|8,3:2|0:0,0:0:0:0:
48,288,61280,1,0,3:2:0:0:
208,256,61444,1,2,3:2:0:0:
112,112,61609,1,2,3:2:0:0:
88,300,61774,2,0,L|172:288,1,84.3900019959183,10|0,0:0|3:0,0:0:0:0:
456,320,62104,6,0,P|432:284|404:248,1,84.3900019959183,6|2,0:3|3:2,0:0:0:0:
248,352,62433,2,0,L|332:340,1,84.3900019959183,12|0,0:0|3:2,0:0:0:0:
328,108,62763,1,8,0:0:0:0:
480,192,62928,1,8,0:0:0:0:
476,212,63010,1,0,3:0:0:0:
472,232,63093,1,0,3:0:0:0:
176,96,63258,1,8,3:0:0:0:
172,76,63340,1,0,3:0:0:0:
168,56,63423,5,4,0:1:0:0:
144,264,63587,1,0,0:0:0:0:
60,156,63752,1,8,0:0:0:0:
144,264,63917,2,0,L|136:356,1,84.3900019959183,2|0,3:2|3:0,0:0:0:0:
256,336,64247,1,2,3:2:0:0:
344,112,64411,2,0,P|312:88|268:80,1,84.3900019959183,8|0,0:0|0:0,0:0:0:0:
36,120,64741,6,0,P|100:170|180:154,1,168.780003991837,2|10,3:2|0:0,0:0:0:0:
392,72,65236,1,0,3:0:0:0:
288,28,65400,1,2,3:2:0:0:
196,168,65565,2,0,L|204:256,1,84.3900019959183,2|8,3:2|0:0,0:0:0:0:
112,104,65895,1,0,0:0:0:0:
292,200,66060,6,0,L|300:288,1,84.3900019959183,4|2,0:0|0:0,0:0:0:0:
140,352,66389,2,0,P|184:344|224:344,1,84.3900019959183,10|2,0:0|3:2,0:0:0:0:
400,312,66719,2,0,P|416:272|424:232,1,84.3900019959183,0|2,3:2|3:2,0:0:0:0:
340,52,67049,1,8,0:0:0:0:
340,52,67214,1,0,3:2:0:0:
164,184,67378,6,0,B|128:180|128:180|112:180|112:180|80:176,1,84.3900019959183,2|0,0:0|3:2,0:0:0:0:
284,248,67708,1,10,0:0:0:0:
284,248,67873,1,2,0:0:0:0:
56,188,68038,1,2,3:0:0:0:
56,212,68120,1,0,0:0:0:0:
56,232,68203,1,2,3:2:0:0:
264,360,68367,2,0,L|260:276,1,84.3900019959183,12|0,0:2|0:3,0:0:0:0:
292,84,68697,5,4,0:1:0:0:
372,192,68862,1,2,3:2:0:0:
496,80,69027,1,8,3:2:0:0:
372,192,69192,2,0,L|288:184,1,84.3900019959183,2|0,3:2|3:0,0:0:0:0:
148,208,69521,1,2,0:2:0:0:
92,16,69686,2,0,L|176:24,1,84.3900019959183,10|0,0:0|0:0,0:0:0:0:
416,56,70016,6,0,P|332:56|272:116,1,168.780003991837,2|10,3:2|0:2,0:0:0:0:
348,284,70510,1,0,3:2:0:0:
376,144,70675,1,2,3:2:0:0:
216,184,70840,1,2,3:2:0:0:
376,144,71005,1,2,3:2:0:0:
184,84,71170,1,2,3:2:0:0:
104,324,71334,6,0,B|136:288|136:288|120:164,1,174,4|8,0:1|0:2,0:0:0:0:
48,64,71829,1,2,3:2:0:0:
220,148,71994,1,2,3:2:0:0:
304,28,72159,1,2,3:2:0:0:
119,131,72324,2,0,L|139:215,1,87,8|2,0:2|3:2,0:0:0:0:
48,56,72653,5,2,3:2:0:0:
176,52,72818,1,2,0:2:0:0:
40,184,72983,2,0,L|60:268,1,87,8|2,3:2|3:2,0:0:0:0:
72,280,73230,1,0,0:0:0:0:
88,292,73313,1,2,3:2:0:0:
104,304,73395,1,0,0:0:0:0:
120,316,73477,1,0,3:2:0:0:
328,288,73642,2,0,P|320:330|317:374,1,87,10|0,0:2|3:2,0:0:0:0:
272,200,73972,5,12,0:2:0:0:
132,328,74137,1,0,3:2:0:0:
384,196,74302,5,12,0:2:0:0:
152,228,74466,1,0,3:2:0:0:
436,292,74631,5,12,0:2:0:0:
172,128,74796,1,0,3:2:0:0:
328,288,74961,5,12,0:2:0:0:
192,32,75126,1,0,3:2:0:0:
496,176,75291,5,8,3:0:0:0:
476,216,75373,1,8,3:0:0:0:
436,236,75455,1,8,3:0:0:0:
392,244,75538,1,2,3:2:0:0:
352,228,75620,1,0,3:0:0:0:
308,216,75703,1,8,3:0:0:0:
264,224,75785,1,8,3:3:0:0:
232,252,75867,1,0,3:2:0:0:
216,292,75950,1,12,0:0:0:0:
400,140,76115,5,12,0:2:0:0:
400,140,76444,1,0,0:0:0:0:
314,311,76609,6,0,L|215:291,1,100.050001908302,12|0,0:1|0:0,0:0:0:0:
8,352,76939,2,0,P|24:312|36:256,1,100.050001908302,10|0,0:0|3:0,0:0:0:0:
76,128,77186,1,0,3:0:0:0:
84,104,77269,2,0,L|184:88,1,100.050001908302,2|0,3:2|3:0,0:0:0:0:
408,208,77598,1,10,0:0:0:0:
204,212,77763,1,0,0:0:0:0:
288,56,77928,6,0,P|297:104|315:151,1,100.050001908302,2|0,3:2|3:0,0:0:0:0:
504,231,78258,2,0,P|456:215|407:207,1,100.050001908302,8|0,0:0|3:0,0:0:0:0:
300,264,78505,1,0,0:0:0:0:
288,284,78587,2,0,L|296:384,1,100.050001908302,0|0,3:2|3:2,0:0:0:0:
160,232,78917,1,10,0:2:0:0:
393,95,79082,1,2,3:2:0:0:
176,128,79247,5,2,3:2:0:0:
304,252,79411,1,0,3:0:0:0:
393,95,79576,2,0,L|296:119,1,100.050001908302,10|0,0:2|3:2,0:0:0:0:
172,128,79824,1,0,0:0:0:0:
184,104,79906,2,0,P|192:56|188:0,1,100.050001908302,0|0,3:0|3:0,0:0:0:0:
28,120,80236,2,0,P|24:169|32:219,1,100.050001908302,10|2,0:0|0:0,0:0:0:0:
264,360,80565,5,2,3:2:0:0:
216,228,80730,1,0,0:3:0:0:
36,360,80895,2,0,P|88:368|140:360,1,100.050001908302,10|0,0:0|3:0,0:0:0:0:
216,228,81142,1,0,0:0:0:0:
232,212,81225,2,0,P|236:163|228:113,1,100.050001908302,2|0,3:2|3:2,0:0:0:0:
312,300,81554,1,10,0:0:0:0:
136,168,81719,1,0,0:0:0:0:
396,244,81884,6,0,B|408:276|408:276|400:348,1,100.050001908302,4|0,0:1|3:0,0:0:0:0:
248,196,82214,2,0,B|240:130|240:130|252:98,1,100.050001908302,10|0,3:2|3:2,0:0:0:0:
184,32,82461,1,0,0:0:0:0:
164,20,82543,2,0,L|64:56,1,100.050001908302,2|0,3:2|3:0,0:0:0:0:
336,56,82873,2,0,L|436:20,1,100.050001908302,10|0,0:0|3:0,0:0:0:0:
212,260,83203,6,0,P|204:211|212:162,1,100.050001908302,2|0,0:0|3:0,0:0:0:0:
420,240,83532,1,10,0:0:0:0:
216,144,83697,1,0,3:0:0:0:
220,128,83780,1,0,3:0:0:0:
224,112,83862,1,0,3:0:0:0:
336,88,84027,1,0,3:0:0:0:
332,192,84192,1,10,0:0:0:0:
252,16,84356,1,2,3:2:0:0:
35,31,84521,6,0,L|99:107,1,100.050001908302,2|2,3:2|3:2,0:0:0:0:
96,236,84851,2,0,P|48:224|4:192,1,100.050001908302,8|0,0:0|3:2,0:0:0:0:
112,224,85098,1,0,3:2:0:0:
128,212,85181,2,0,P|141:259|135:313,1,100.050001908302,0|0,3:2|3:0,0:0:0:0:
252,356,85510,1,10,0:0:0:0:
264,244,85675,1,2,3:2:0:0:
7,195,85840,6,0,L|19:295,1,100.050001908302,2|2,3:2|3:2,0:0:0:0:
56,92,86170,1,10,0:0:0:0:
160,208,86334,1,0,0:0:0:0:
164,188,86417,1,0,0:0:0:0:
168,172,86499,1,4,3:0:0:0:
208,332,86664,1,8,0:0:0:0:
252,356,86747,1,8,0:0:0:0:
300,352,86829,1,8,0:0:0:0:
344,328,86911,1,8,0:0:0:0:
368,284,86994,1,8,0:0:0:0:
368,236,87076,1,8,0:0:0:0:
348,188,87159,6,0,L|448:176,1,100.050001908302,12|0,0:1|3:0,0:0:0:0:
280,104,87488,2,0,P|276:52|284:4,1,100.050001908302,10|0,0:2|0:0,0:0:0:0:
268,124,87736,1,0,3:0:0:0:
256,144,87818,2,0,L|272:248,1,100.050001908302,2|0,3:2|3:0,0:0:0:0:
384,64,88148,1,10,0:0:0:0:
132,64,88313,1,0,3:0:0:0:
132,64,88395,1,0,0:0:0:0:
132,64,88477,6,0,L|32:80,1,100.050001908302,2|0,3:2|3:0,0:0:0:0:
240,64,88807,1,10,0:0:0:0:
176,156,88972,2,0,P|176:184|180:208,1,50.0250009541512,0|0,3:0|0:0,0:0:0:0:
288,320,89137,1,0,3:0:0:0:
288,204,89302,1,0,3:0:0:0:
184,328,89466,1,10,0:0:0:0:
376,244,89631,1,2,3:2:0:0:
136,228,89796,5,2,3:2:0:0:
332,144,89961,1,2,3:2:0:0:
104,60,90126,2,0,L|204:48,1,100.050001908302,10|0,0:0|3:0,0:0:0:0:
296,88,90373,1,0,3:0:0:0:
308,108,90455,2,0,P|312:160|300:208,1,100.050001908302,0|0,3:0|3:0,0:0:0:0:
85,320,90785,2,0,P|137:316|185:328,1,100.050001908302,10|2,0:0|3:2,0:0:0:0:
368,304,91115,5,2,3:2:0:0:
396,104,91280,1,2,3:2:0:0:
467,292,91444,2,0,L|367:304,1,100.050001908302,10|0,0:0|0:0,0:0:0:0:
199,343,91692,1,0,3:0:0:0:
183,327,91774,2,0,L|83:339,1,100.050001908302,0|0,3:0|3:0,0:0:0:0:
272,264,92104,1,10,0:0:0:0:
92,40,92269,2,0,L|40:32,1,50.0250009541512,0|0,3:0|0:0,0:0:0:0:
72,240,92433,6,0,P|72:288|84:340,1,100.050001908302,4|2,0:1|3:2,0:0:0:0:
204,128,92763,2,0,P|215:79|215:29,1,100.050001908302,8|2,3:2|3:2,0:0:0:0:
76,68,93010,1,0,3:0:0:0:
68,92,93093,2,0,L|80:192,1,100.050001908302,0|2,3:0|3:2,0:0:0:0:
168,364,93423,2,0,L|180:264,1,100.050001908302,10|0,0:0|0:0,0:0:0:0:
68,360,93752,6,0,B|112:380|168:364|168:364|220:352|263:377,1,200.100003816605,2|8,3:2|0:0,0:0:0:0:
352,180,94247,1,0,3:0:0:0:
356,200,94329,1,0,0:0:0:0:
360,220,94411,1,0,3:0:0:0:
380,84,94576,1,0,3:0:0:0:
179,264,94741,2,0,P|227:264|283:280,1,100.050001908302,10|0,0:0|0:0,0:0:0:0:
456,376,95071,6,0,P|488:280|460:188,1,200.100003816605,2|8,3:2|0:0,0:0:0:0:
240,128,95565,1,0,3:0:0:0:
464,72,95730,1,0,3:0:0:0:
460,188,95895,1,0,3:0:0:0:
236,20,96060,2,0,L|136:28,1,100.050001908302,8|0,0:0|0:0,0:0:0:0:
376,128,96389,5,2,3:2:0:0:
144,204,96554,1,2,3:2:0:0:
332,40,96719,1,8,0:0:0:0:
204,288,96884,1,2,3:2:0:0:
100,120,97049,1,2,3:2:0:0:
256,192,97214,1,4,3:0:0:0:
64,304,97378,1,10,0:0:0:0:
196,100,97543,1,2,3:2:0:0:
404,292,97708,6,0,B|452:284|452:284|504:292,1,100.050001908302,6|0,0:0|3:0,0:0:0:0:
256,348,98038,2,0,B|208:356|208:356|156:348,1,100.050001908302,10|2,3:2|3:2,0:0:0:0:
272,336,98285,1,0,3:0:0:0:
288,324,98367,2,0,L|296:224,1,100.050001908302,0|4,3:2|3:0,0:0:0:0:
216,24,98697,1,10,0:0:0:0:
308,116,98862,1,0,0:0:0:0:
8,180,99027,6,0,B|72:188|72:188|144:168|144:168|204:175,1,200.100003816605,2|8,3:2|0:0,0:0:0:0:
396,224,99521,1,0,3:0:0:0:
392,60,99686,1,0,3:0:0:0:
316,164,99851,1,0,3:0:0:0:
476,288,100016,1,10,0:0:0:0:
472,160,100181,1,0,3:0:0:0:
272,272,100345,6,0,B|208:280|208:280|136:260|136:260|76:267,1,200.100003816605,2|8,3:2|0:0,0:0:0:0:
140,368,100840,1,0,3:0:0:0:
64,248,101005,2,0,L|76:144,1,100.050001908302,0|2,3:0|0:0,0:0:0:0:
256,24,101335,2,0,L|268:128,1,100.050001908302,10|2,0:0|0:0,0:0:0:0:
408,304,101664,5,12,0:0:0:0:
384,108,101827,1,0,3:0:0:0:
204,192,101991,1,12,0:0:0:0:
300,344,102155,1,0,3:0:0:0:
267,123,102319,1,12,0:0:0:0:
444,232,102483,1,8,0:0:0:0:
440,208,102565,1,8,0:0:0:0:
436,184,102647,1,8,0:0:0:0:
224,24,102811,1,8,0:0:0:0:
204,52,102893,1,0,0:0:0:0:
184,80,102975,6,0,P|184:168|252:216,1,174,4|8,0:1|0:0,0:0:0:0:
264,320,103469,1,0,3:0:0:0:
267,123,103634,1,2,3:2:0:0:
356,224,103799,1,0,3:0:0:0:
163,231,103964,2,0,P|204:218|247:214,1,87,8|0,0:0|0:0,0:0:0:0:
400,328,104293,6,0,B|392:256|392:256|400:208|400:208|392:156,1,174,2|10,3:2|0:0,0:0:0:0:
408,0,104788,1,0,3:0:0:0:
300,120,104953,1,2,3:2:0:0:
464,84,105117,1,0,3:0:0:0:
308,20,105282,1,10,0:0:0:0:
391,155,105447,1,0,3:0:0:0:
216,272,105612,6,0,B|196:224|196:224|212:104,1,174,2|10,3:2|0:0,0:0:0:0:
212,103,106106,1,2,3:2:0:0:
48,152,106271,2,0,L|60:240,1,87,2|0,3:2|3:0,0:0:0:0:
204,358,106601,2,0,L|216:270,1,87,8|0,0:0|3:0,0:0:0:0:
81,340,106931,6,0,P|165:338|215:271,1,174,2|8,3:2|0:0,0:0:0:0:
368,316,107425,1,0,3:2:0:0:
164,132,107590,1,2,3:2:0:0:
228,212,107755,1,2,3:2:0:0:
124,228,107920,1,10,0:0:0:0:
268,116,108084,1,2,3:2:0:0:
288,296,108249,6,0,B|304:248|304:248|281:126,1,174,6|8,3:2|0:0,0:0:0:0:
368,48,108744,1,0,3:2:0:0:
197,106,108909,2,0,L|281:126,1,87,0|0,3:2|3:0,0:0:0:0:
84,228,109238,2,0,P|88:184|104:144,1,87,8|2,0:0|0:0,0:0:0:0:
356,244,109568,6,0,L|186:205,1,174,2|8,3:2|0:0,0:0:0:0:
186,205,110062,1,0,3:0:0:0:
244,316,110227,1,0,3:2:0:0:
96,272,110392,1,0,3:2:0:0:
224,96,110557,1,8,0:0:0:0:
104,132,110722,1,0,3:2:0:0:
296,212,110887,6,0,B|344:228|384:208|384:208|424:188|464:206,1,174,2|8,3:2|0:0,0:0:0:0:
464,206,111381,1,0,3:2:0:0:
299,298,111546,2,0,L|295:211,1,87,2|0,3:2|3:2,0:0:0:0:
348,32,111876,2,0,L|344:118,1,87,8|0,0:0|3:2,0:0:0:0:
383,359,112205,6,0,P|298:343|213:356,1,174,2|14,3:2|0:0,0:0:0:0:
152,192,112700,1,0,3:0:0:0:
108,360,112865,2,0,P|82:325|69:283,1,87,4|0,3:2|3:0,0:0:0:0:
72,272,113112,1,8,0:0:0:0:
80,264,113194,1,8,0:0:0:0:
264,216,113359,1,8,0:0:0:0:
280,224,113442,1,0,3:0:0:0:
296,232,113524,6,0,B|336:216|376:232|376:232|416:248|468:232,1,174,4|8,0:1|0:0,0:0:0:0:
412,136,114018,1,0,3:2:0:0:
364,320,114183,2,0,P|412:328|456:324,1,87,0|0,3:0|3:0,0:0:0:0:
388,140,114513,2,0,P|340:132|296:136,1,87,10|0,0:0|0:0,0:0:0:0:
124,328,114843,6,0,B|144:244|144:244|116:160,1,174,2|8,3:2|0:0,0:0:0:0:
232,280,115337,2,0,L|208:372,2,87,0|2|0,3:2|3:2|3:0,0:0:0:0:
192,76,115832,1,8,0:0:0:0:
116,160,115996,1,0,3:0:0:0:
288,200,116161,6,0,B|328:236|328:288|328:288|308:360,1,174,2|8,3:2|0:0,0:0:0:0:
408,228,116656,2,0,P|392:188|364:152,2,87,0|2|0,3:2|3:2|3:2,0:0:0:0:
280,100,117150,1,8,0:0:0:0:
372,56,117315,1,2,3:2:0:0:
288,200,117480,6,0,L|292:292,1,87,0|0,3:2|0:0,0:0:0:0:
87,348,117810,2,0,P|129:336|172:339,1,87,8|0,0:0|3:2,0:0:0:0:
372,191,118140,2,0,P|330:202|287:199,1,87,0|0,3:2|3:0,0:0:0:0:
83,261,118469,2,0,L|87:353,1,87,8|2,0:2|3:2,0:0:0:0:
60,159,118799,6,0,P|93:232|169:209,1,174,6|8,0:0|0:0,0:0:0:0:
288,272,119293,1,0,3:0:0:0:
190,127,119458,2,0,P|170:165|169:208,1,87,0|0,3:0|3:0,0:0:0:0:
291,358,119788,2,0,L|287:270,1,87,8|0,0:0|3:0,0:0:0:0:
468,176,120117,6,0,B|412:168|412:168|356:176|356:176|296:168,1,174,2|10,3:2|0:0,0:0:0:0:
408,260,120612,1,0,3:2:0:0:
384,84,120777,2,0,L|391:170,1,87,2|2,3:2|3:2,0:0:0:0:
464,16,121106,1,8,0:0:0:0:
392,172,121271,1,2,3:2:0:0:
232,96,121436,6,0,P|200:184|240:252,1,174,2|8,0:0|0:0,0:0:0:0:
300,356,121931,1,0,3:2:0:0:
260,244,122095,1,2,3:2:0:0:
152,312,122260,1,0,3:2:0:0:
300,356,122425,1,8,0:0:0:0:
364,264,122590,1,0,3:2:0:0:
164,208,122755,5,2,3:2:0:0:
24,260,122920,1,2,3:2:0:0:
152,312,123084,1,8,0:0:0:0:
56,352,123249,1,2,3:2:0:0:
244,264,123414,1,0,3:2:0:0:
88,156,123579,1,2,3:2:0:0:
248,360,123744,2,0,L|336:348,1,87,12|0,0:0|0:2,0:0:0:0:
496,252,124073,6,0,B|428:268|428:268|384:252|384:252|328:260,1,174,4|10,0:0|0:0,0:0:0:0:
312,164,124568,1,0,3:0:0:0:
208,276,124733,1,0,3:0:0:0:
334,348,124898,1,0,3:0:0:0:
215,189,125062,2,0,P|211:232|207:275,1,87,8|0,0:0|0:0,0:0:0:0:
148,84,125392,5,2,3:2:0:0:
268,80,125557,1,0,3:0:0:0:
104,184,125722,2,0,L|16:172,1,87,8|0,0:0|3:2,0:0:0:0:
136,352,126051,1,2,3:2:0:0:
207,275,126216,1,0,3:0:0:0:
49,356,126381,2,0,P|93:352|137:352,1,87,8|0,0:0|3:2,0:0:0:0:
264,192,126711,6,0,B|320:224|380:192|380:192|360:208|352:240,1,174,2|8,3:2|0:0,0:0:0:0:
448,260,127205,1,0,3:0:0:0:
320,108,127370,2,0,B|320:76|308:56|308:56|312:24,1,87,2|0,3:2|3:0,0:0:0:0:
448,260,127700,2,0,B|448:292|460:312|460:312|456:344,1,87,8|0,0:0|3:0,0:0:0:0:
484,164,128029,5,0,3:0:0:0:
344,244,128194,1,0,3:0:0:0:
408,100,128359,2,0,L|416:12,1,87,8|0,0:0|3:0,0:0:0:0:
324,148,128689,1,0,3:0:0:0:
448,260,128854,1,0,3:0:0:0:
255,201,129018,2,0,P|283:175|322:147,1,87,12|0,0:0|3:0,0:0:0:0:
212,288,129348,6,0,L|220:108,1,174,6|8,0:0|0:0,0:0:0:0:
160,28,129843,1,0,3:0:0:0:
128,176,130007,2,0,L|124:264,1,87,2|0,3:2|3:0,0:0:0:0:
267,355,130337,2,0,P|243:323|211:287,1,87,10|0,0:0|3:0,0:0:0:0:
68,352,130667,5,0,3:0:0:0:
28,252,130832,1,0,3:0:0:0:
212,288,130996,2,0,L|300:280,1,87,8|0,0:0|3:0,0:0:0:0:
364,368,131326,1,2,3:2:0:0:
464,324,131491,1,0,3:0:0:0:
380,152,131656,2,0,L|391:238,1,87,10|0,0:0|3:2,0:0:0:0:
224,64,131985,6,0,B|204:108|204:108|220:236,1,174,2|12,3:2|0:0,0:0:0:0:
200,376,132480,1,0,3:0:0:0:
320,268,132645,1,2,3:2:0:0:
296,364,132810,1,0,3:2:0:0:
140,296,132975,1,14,0:2:0:0:
176,132,133139,1,0,3:0:0:0:
376,176,133304,6,0,P|333:168|289:167,1,87,2|0,3:2|3:0,0:0:0:0:
140,296,133634,1,12,0:0:0:0:
66,77,133799,1,8,0:0:0:0:
70,101,133881,1,8,0:0:0:0:
74,125,133964,1,12,0:0:0:0:
256,348,134128,1,8,0:3:0:0:
232,216,134293,1,4,0:3:0:0:
32,356,134458,1,4,0:1:0:0:
256,192,134623,12,0,141216,0:0:0:0:
