osu file format v14

[General]
AudioFilename: audio.mp3
AudioLeadIn: 0
PreviewTime: 75950
Countdown: 0
SampleSet: Soft
StackLeniency: 0.3
Mode: 0
LetterboxInBreaks: 0
EpilepsyWarning: 1
WidescreenStoryboard: 1

[Editor]
Bookmarks: 4742,15951,94083,110896,133808,141225
DistanceSpacing: 1
BeatDivisor: 4
GridSize: 32
TimelineZoom: 1.600001

[Metadata]
Title:Hikari
TitleUnicode:光
Artist:RADWIMPS
ArtistUnicode:RADWIMPS
Creator:Haruto
Version:Easy
Source:
Tags:Light Human Bloom 人間開花 Ningen kaika short cut version haruto_aizawa monstrata ipas newipas appleeaterx milan- rizen kalibe sotarks sytarno irohas mugiwarasekai a q p w a_q_p_w kimi no na wa nawa 君の名は。 your name
BeatmapID:1161145
BeatmapSetID:547714

[Difficulty]
HPDrainRate:2
CircleSize:2.8
OverallDifficulty:2
ApproachRate:3
SliderMultiplier:0.899999999999999
SliderTickRate:1

[Events]
//Background and Video events
0,0,"7374744.jpg",0,0
//Break Periods
//Storyboard Layer 0 (Background)
//Storyboard Layer 1 (Fail)
//Storyboard Layer 2 (Pass)
//Storyboard Layer 3 (Foreground)
//Storyboard Sound Samples

[TimingPoints]
120,331.491712707182,4,2,1,60,1,0
4762,315.789473684211,4,2,1,60,1,0
5387,329.789923818528,4,2,1,60,1,0
15940,-100,4,2,1,50,0,0
42324,329.67032967033,4,2,1,50,1,0
71334,-100,4,2,1,60,0,0
76609,-100,4,2,1,75,0,1
101664,327.868852459016,4,2,1,75,1,1
102975,329.67032967033,4,2,1,75,1,0
134458,-100,4,2,1,65,0,0
134540,-100,4,2,1,5,0,0

[Colours]
Combo1 : 248,243,97
Combo2 : 122,145,205
Combo3 : 240,175,145
Combo4 : 80,163,186

[HitObjects]
165,320,4762,6,0,L|168:212,1,89.9999999999999,12|8,0:0|0:0,0:0:0:0:
173,146,5387,2,0,B|298:103|298:209|437:163,1,270,4|8,3:0|0:0,0:0:0:0:
421,253,6706,6,0,P|355:259|315:251,1,89.9999999999999,2|8,3:2|0:0,0:0:0:0:
266,318,7365,2,0,P|221:313|176:320,1,89.9999999999999,2|8,3:2|0:0,0:0:0:0:
108,379,8025,6,0,L|97:190,1,180,2|2,3:2|3:2,0:0:0:0:
113,110,9014,1,8,0:0:0:0:
201,89,9344,2,0,P|251:82|304:101,1,89.9999999999999,2|8,3:2|0:0,0:0:0:0:
371,127,10004,2,0,L|368:223,1,89.9999999999999,2|8,3:2|0:0,0:0:0:0:
418,291,10663,6,0,P|395:273|255:298,1,180,4|0,0:1|3:2,0:0:0:0:
179,340,11653,1,8,0:2:0:0:
95,374,11982,2,0,L|80:188,1,180,2|2,3:2|3:2,0:0:0:0:
140,126,12972,1,8,0:0:0:0:
213,73,13302,6,0,B|299:47|298:121|397:101,1,180,2|2,3:2|3:2,0:0:0:0:
454,160,14291,1,8,0:0:0:0:
431,247,14621,2,0,P|375:256|343:245,1,89.9999999999999,2|8,3:2|0:2,0:0:0:0:
286,176,15280,2,0,P|230:167|198:178,1,89.9999999999999,0|8,3:0|0:0,0:0:0:0:
128,233,15940,6,0,B|141:365|141:365|165:344|197:334,1,180,4|2,0:1|3:2,0:0:0:0:
267,315,16929,2,0,P|354:306|434:363,1,180,10|8,0:0|0:0,0:0:0:0:
481,282,17919,2,0,L|487:175,1,89.9999999999999,2|10,3:2|0:0,0:0:0:0:
500,103,18578,6,0,P|426:151|338:142,1,180,4|2,0:0|3:2,0:0:0:0:
255,107,19567,2,0,B|199:91|199:91|79:119,1,180,10|8,0:0|0:0,0:0:0:0:
107,204,20557,2,0,L|210:179,1,89.9999999999999,2|10,3:2|0:0,0:0:0:0:
277,216,21216,6,0,B|279:280|339:323|339:323|397:316,1,180,0|2,3:2|3:2,0:0:0:0:
454,253,22206,1,10,0:0:0:0:
464,163,22536,2,0,P|383:115|295:132,1,180,0|2,3:3|3:2,0:0:0:0:
278,216,23525,6,0,B|192:189|192:256|96:232,1,180,10|8,0:0|0:0,0:0:0:0:
67,316,24514,2,0,P|121:327|176:321,1,89.9999999999999,2|10,3:2|0:0,0:0:0:0:
242,300,25174,2,0,B|302:319|343:281|343:281|415:282,1,180,0|2,3:0|3:2,0:0:0:0:
452,200,26163,1,10,0:0:0:0:
406,122,26493,6,0,B|319:89|319:140|228:111,1,180,4|2,0:1|3:2,0:0:0:0:
145,79,27482,2,0,P|84:104|57:221,1,180,10|8,0:0|0:0,0:0:0:0:
91,287,28472,2,0,L|189:288,1,89.9999999999999,2|10,3:2|0:0,0:0:0:0:
260,329,29131,6,0,B|213:278|233:211|233:211|269:226|298:225,1,180,0|2,3:0|3:2,0:0:0:0:
370,206,30121,2,0,P|395:144|319:66,1,180,10|8,0:0|0:0,0:0:0:0:
237,75,31110,2,0,L|135:81,1,89.9999999999999,2|10,3:2|0:0,0:0:0:0:
63,45,31770,6,0,B|41:137|106:125|83:228,1,180,4|2,0:1|3:2,0:0:0:0:
61,306,32759,2,0,P|101:255|232:265,1,180,10|8,0:0|0:0,0:0:0:0:
272,313,33748,2,0,B|318:318|318:318|370:298,1,89.9999999999999,2|10,3:2|0:0,0:0:0:0:
425,241,34408,6,0,B|386:153|459:153|423:53,1,180,0|2,3:2|3:2,0:0:0:0:
346,106,35397,2,0,P|303:120|210:40,1,180,10|8,0:0|0:0,0:0:0:0:
121,54,36387,2,0,L|132:162,1,89.9999999999999,6|8,3:2|0:0,0:0:0:0:
64,206,37046,6,0,P|144:190|196:225,2,135,4|2|10,0:1|3:2|0:0,0:0:0:0:
122,276,38365,2,0,L|276:276,2,135,2|2|8,3:2|3:2|0:0,0:0:0:0:
113,365,39685,6,0,L|296:365,1,180,4|2,0:1|3:2,0:0:0:0:
346,292,40674,2,0,B|350:238|308:199|308:199|350:216|394:200,1,180,8|12,0:0|0:0,0:0:0:0:
394,114,41663,2,0,P|346:97|301:109,1,89.9999999999999,6|8,3:2|0:0,0:0:0:0:
231,150,42324,6,0,B|144:178|144:112|53:142,1,180,4|2,0:1|3:2,0:0:0:0:
97,221,43313,2,0,P|106:294|202:325,1,180,10|8,0:0|0:0,0:0:0:0:
284,305,44302,2,0,L|295:203,1,89.9999999999999,2|10,3:2|0:0,0:0:0:0:
228,153,44961,6,0,P|311:129|379:183,1,180,2|2,3:2|3:2,0:0:0:0:
426,260,45950,2,0,L|438:78,1,180,8|10,0:0|0:0,0:0:0:0:
362,29,46939,2,0,P|306:16|266:22,1,89.9999999999999,2|10,3:2|0:0,0:0:0:0:
201,72,47598,6,0,B|140:79|140:79|83:55|83:55|17:62,1,180,0|2,3:0|3:2,0:0:0:0:
67,141,48587,2,0,L|90:340,1,180,10|8,0:0|0:0,0:0:0:0:
170,285,49576,2,0,P|220:265|267:271,1,89.9999999999999,2|10,3:2|0:0,0:0:0:0:
301,344,50235,6,0,P|309:268|404:242,1,180,0|2,3:2|3:2,0:0:0:0:
473,190,51224,2,0,L|476:-1,1,180,10|8,0:0|0:0,0:0:0:0:
389,35,52213,2,0,P|348:58|293:61,1,89.9999999999999,2|8,3:2|0:0,0:0:0:0:
226,19,52873,6,0,B|197:112|263:111|218:212,1,180,4|2,0:1|3:2,0:0:0:0:
277,268,53862,2,0,B|233:288|233:288|97:265,1,180,10|8,0:0|0:0,0:0:0:0:
30,318,54851,2,0,P|16:266|31:217,1,89.9999999999999,2|10,3:2|0:0,0:0:0:0:
58,148,55510,6,0,B|150:135|134:204|235:196,1,180,0|2,0:0|3:2,0:0:0:0:
313,175,56499,2,0,B|335:138|325:91|325:91|368:122|425:113,1,180,10|8,0:0|0:0,0:0:0:0:
485,167,57488,2,0,P|492:204|481:258,1,89.9999999999999,2|10,3:2|0:0,0:0:0:0:
419,319,58147,6,0,B|364:305|364:305|294:316|294:316|229:302,1,180,0|2,3:0|3:2,0:0:0:0:
158,272,59136,2,0,P|112:229|132:118,1,180,10|8,0:0|0:0,0:0:0:0:
190,187,60126,2,0,L|297:174,1,89.9999999999999,2|10,3:2|0:0,0:0:0:0:
341,242,60785,6,0,P|366:159|312:92,1,180,0|2,3:2|3:2,0:0:0:0:
237,41,61774,2,0,B|114:28|114:28|41:58,1,180,10|12,0:0|0:0,0:0:0:0:
34,135,62763,2,0,L|41:248,1,89.9999999999999,8|0,0:0|3:0,0:0:0:0:
6,308,63422,6,0,P|41:267|136:267,2,135,4|2|8,0:1|3:2|0:0,0:0:0:0:
89,341,64741,2,0,B|150:358|191:308|191:308|219:265|206:338|288:352|337:314,1,270,2|8,3:2|0:0,0:0:0:0:
415,340,66060,6,0,L|424:136,1,180,4|0,0:0|3:2,0:0:0:0:
486,96,67049,1,8,0:0:0:0:
423,31,67378,2,0,P|365:78|264:52,1,180,2|2,0:0|3:0,0:0:0:0:
195,109,68367,1,12,0:2:0:0:
123,164,68697,6,0,P|172:242|164:298,2,135,4|2|10,0:1|3:2|0:0,0:0:0:0:
78,85,70016,2,0,B|174:58|156:121|237:87|237:87|253:25|325:17,1,270,2|2,3:2|3:2,0:0:0:0:
324,107,71334,6,0,L|297:313,1,180,4|2,0:1|3:2,0:0:0:0:
327,371,72324,1,8,0:2:0:0:
386,303,72653,2,0,L|411:110,1,180,2|2,3:2|3:2,0:0:0:0:
324,107,73642,1,10,0:2:0:0:
256,192,73972,12,8,75291,3:0:0:0:
390,237,76609,6,0,P|314:246|276:263,1,89.9999999999999,12|10,0:1|0:0,0:0:0:0:
226,301,77269,2,0,P|150:292|112:275,1,89.9999999999999,2|10,3:2|0:0,0:0:0:0:
73,223,77928,2,0,L|64:102,2,89.9999999999999,2|8|0,3:2|0:0|3:2,0:0:0:0:
137,287,78917,1,10,0:2:0:0:
157,199,79247,6,0,P|206:197|249:217,1,89.9999999999999,2|10,3:2|0:2,0:0:0:0:
309,273,79906,2,0,P|329:229|329:184,1,89.9999999999999,0|8,3:0|3:2,0:0:0:0:
360,103,80565,1,2,3:2:0:0:
274,77,80895,2,0,L|86:92,1,180,10|10,0:0|0:0,0:0:0:0:
8,65,81884,6,0,P|8:113|48:178,1,89.9999999999999,4|10,0:1|3:2,0:0:0:0:
105,188,82543,2,0,P|121:229|120:274,1,89.9999999999999,2|10,3:2|0:0,0:0:0:0:
159,355,83203,2,0,B|201:369|201:369|264:347,2,89.9999999999999,2|10|0,0:0|0:0|3:0,0:0:0:0:
69,346,84192,1,10,0:0:0:0:
119,274,84521,6,0,P|127:183|147:161,1,89.9999999999999,2|8,3:2|0:0,0:0:0:0:
155,102,85181,2,0,L|270:89,1,89.9999999999999,0|10,3:0|3:2,0:0:0:0:
334,85,85840,1,2,3:2:0:0:
425,78,86170,2,0,B|440:167|440:167|385:213|406:276,1,180,10|0,0:0|0:0,0:0:0:0:
408,333,87159,6,0,P|339:315|315:271,1,89.9999999999999,4|10,0:1|0:2,0:0:0:0:
242,275,87818,2,0,P|173:293|149:337,1,89.9999999999999,2|10,3:2|0:0,0:0:0:0:
77,335,88477,2,0,L|74:242,2,89.9999999999999,2|10|0,3:2|0:0|3:0,0:0:0:0:
162,304,89466,1,10,0:0:0:0:
159,213,89796,6,0,L|151:33,1,180,2|0,3:2|3:0,0:0:0:0:
242,28,90786,2,0,P|289:19|349:42,1,89.9999999999999,10|2,0:0|3:2,0:0:0:0:
286,108,91444,2,0,L|293:287,1,180,10|10,0:0|0:0,0:0:0:0:
203,279,92433,6,0,B|130:263|141:317|71:298,2,135,4|2|10,0:1|3:2|0:0,0:0:0:0:
293,287,93752,2,0,L|282:72,1,180,2|0,3:2|3:0,0:0:0:0:
202,69,94741,1,10,0:0:0:0:
118,34,95071,6,0,P|49:81|45:179,1,180,2|0,3:2|3:0,0:0:0:0:
117,220,96060,1,8,0:0:0:0:
147,304,96389,2,0,B|208:277|207:204|207:204|260:270|344:250,1,270,2|10,3:2|0:0,0:0:0:0:
410,201,97708,6,0,P|422:121|370:67,2,135,6|2|10,0:0|3:2|0:0,0:0:0:0:
335,150,99027,2,0,B|232:172|262:108|147:129,1,180,2|0,3:2|3:0,0:0:0:0:
115,206,100016,1,10,0:0:0:0:
62,278,100345,6,0,P|105:295|152:289,1,89.9999999999999,2|8,3:2|0:0,0:0:0:0:
238,295,101005,2,0,L|356:289,1,89.9999999999999,0|10,3:0|0:0,0:0:0:0:
382,219,101664,6,0,P|415:270|411:321,2,89.9999999999999,12|12|12,0:0|0:0|0:0,0:0:0:0:
313,160,102647,1,8,0:0:0:0:
252,97,102975,6,0,B|177:113|121:59|121:59|115:136|41:169,1,270,4|8,0:1|0:0,0:0:0:0:
8,238,104293,2,0,B|146:193|106:303|277:253,1,270,2|10,3:2|0:0,0:0:0:0:
345,209,105612,2,0,B|365:122|302:67|302:67|250:115|263:181,1,270,2|8,3:2|0:0,0:0:0:0:
268,255,106931,2,0,P|345:255|397:344,1,180,2|2,3:2|3:2,0:0:0:0:
307,338,107920,1,10,0:0:0:0:
217,342,108249,6,0,B|81:342|81:342|12:295|63:200,1,270,6|8,3:2|0:0,0:0:0:0:
107,152,109568,2,0,B|182:128|182:128|283:150|283:150|378:120,1,270,2|8,3:2|0:0,0:0:0:0:
394,210,110887,6,0,P|430:276|384:367,2,180,2|2|2,3:2|3:2|3:2,0:0:0:0:
343,284,112535,2,0,L|243:298,1,89.9999999999999,14|4,0:0|3:2,0:0:0:0:
163,298,113194,1,8,0:0:0:0:
121,218,113524,6,0,B|160:165|140:91|140:91|207:65|278:96,1,270,4|10,0:1|0:0,0:0:0:0:
359,135,114843,2,0,P|440:155|351:245,1,270,2|8,3:2|0:0,0:0:0:0:
285,186,116161,2,0,B|312:276|284:350|284:350|230:357|175:303,1,270,2|8,3:2|0:0,0:0:0:0:
146,237,117480,2,0,L|136:38,1,180,0|0,3:2|3:2,0:0:0:0:
226,66,118469,1,8,0:2:0:0:
316,67,118799,6,0,B|413:106|389:33|509:80,1,180,6|0,0:0|3:0,0:0:0:0:
442,149,119788,1,8,0:0:0:0:
392,224,120117,2,0,P|314:209|277:361,1,270,2|8,3:2|0:0,0:0:0:0:
335,292,121436,2,0,L|40:313,1,270,2|8,0:0|0:0,0:0:0:0:
28,228,122755,2,0,P|8:178|21:128,2,89.9999999999999,2|8|0,3:2|0:0|3:2,0:0:0:0:
100,174,123744,1,12,0:0:0:0:
172,121,124073,6,0,B|305:155|284:44|443:83,1,270,4|8,0:0|0:0,0:0:0:0:
408,167,125392,2,0,P|332:181|395:314,1,270,2|8,3:2|0:0,0:0:0:0:
463,360,126711,2,0,B|379:351|379:351|277:374|277:374|183:364,1,270,2|8,3:2|0:0,0:0:0:0:
114,329,128029,2,0,P|83:249|147:142,1,180,0|0,3:0|3:0,0:0:0:0:
179,101,129018,1,12,0:0:0:0:
246,41,129348,6,0,B|294:54|335:32|335:32|380:53|380:53|432:-4|518:37,1,270,6|10,0:0|0:0,0:0:0:0:
452,106,130667,2,0,L|438:384,1,270,0|10,3:0|0:0,0:0:0:0:
356,341,131985,2,0,B|273:326|273:326|193:380|193:380|82:370,1,270,2|14,3:2|0:2,0:0:0:0:
32,317,133304,6,0,P|7:257|20:203,1,89.9999999999999,2|12,3:2|0:0,0:0:0:0:
51,153,133964,2,0,L|200:134,1,135,12|4,0:0|0:1,0:0:0:0:
256,192,134623,12,0,141216,0:0:0:0:
