osu file format v14

[General]
AudioFilename: audio.ogg
AudioLeadIn: 0
PreviewTime: 3201
Countdown: 0
SampleSet: Soft
StackLeniency: 0.3
Mode: 0
LetterboxInBreaks: 0
WidescreenStoryboard: 1

[Editor]
Bookmarks: 294,4384,20748,24839,33021,37112,53475,57566,65748,71203,76657,84839,85180,85521,85862,86203,97112,105294,108021,110748
DistanceSpacing: 1.1
BeatDivisor: 4
GridSize: 32
TimelineZoom: 2.999999

[Metadata]
Title:Durak i Molniya
TitleUnicode:Дурак и Молния
Artist:RADIO TAPOK
ArtistUnicode:RADIO TAPOK
Creator:Mizujin
Version:Melle's Insane
Source:
Tags:-_Lenkon lenkon melleganol Gouuh LeomineXD leomine Mizujin -_Aqua AqUa_M1X rock russian punk русский панк рок cover кавер king and jester korol' i shut король и шут киш
BeatmapID:4122023
BeatmapSetID:1982473

[Difficulty]
HPDrainRate:5
CircleSize:4
OverallDifficulty:8
ApproachRate:9
SliderMultiplier:1.8
SliderTickRate:1

[Events]
//Background and Video events
0,0,"BG.jpg",0,0
//Break Periods
//Storyboard Layer 0 (Background)
//Storyboard Layer 1 (Fail)
//Storyboard Layer 2 (Pass)
//Storyboard Layer 3 (Foreground)
//Storyboard Layer 4 (Overlay)
//Storyboard Sound Samples

[TimingPoints]
300,340.909090909091,4,2,1,80,1,0
1578,-100,4,2,1,5,0,0
1663,-100,4,2,1,80,0,0
3368,-166.666666666667,4,2,1,45,0,0
4390,-125,4,2,1,65,0,0
20754,-100,4,2,1,70,0,0
23481,-100,4,2,1,75,0,0
24845,-76.9230769230769,4,2,1,85,0,1
33027,-100,4,2,1,75,0,0
35754,-100,4,2,1,45,0,0
37118,-125,4,2,1,65,0,0
53481,-100,4,2,1,70,0,0
56209,-100,4,2,1,75,0,0
57572,-76.9230769230769,4,2,1,85,0,1
65754,-100,4,2,1,75,0,0
68481,-100,4,2,1,60,0,0
71209,-166.666666666667,4,2,1,65,0,0
76663,-125,4,2,1,70,0,0
84845,-125,4,2,1,75,0,0
85868,-333.333333333333,4,2,1,65,0,0
86123,-333.333333333333,4,2,1,5,0,0
86209,-83.3333333333333,4,2,1,85,0,1
96521,-83.3333333333333,4,2,1,45,0,1
96606,-83.3333333333333,4,2,1,85,0,1
97118,-76.9230769230769,4,2,1,85,0,1
105300,-100,4,2,1,75,0,0
108027,-100,4,2,1,60,0,0
110754,-100,4,2,1,70,0,0

[Colours]
Combo1 : 188,88,88
Combo2 : 200,129,102
Combo3 : 214,171,120
Combo4 : 218,218,218
Combo5 : 139,139,139

[HitObjects]
512,384,300,70,0,P|503:339|380:307,1,180,4|8,1:2|2:2,0:0:0:0:
301,173,811,1,2,2:2:0:0:
371,212,981,1,2,1:2:0:0:
418,147,1152,1,0,0:0:0:0:
296,259,1322,2,0,B|244:270|244:270|223:298|223:298|157:315,1,135,8|0,2:2|0:0,0:0:0:0:
161,314,1663,6,0,P|112:277|140:159,2,180,0|8|2,1:1|2:2|1:2,0:0:0:0:
57,361,2515,5,8,2:2:0:0:
179,232,2686,37,8,2:2:0:0:
33,115,2856,5,8,2:2:0:0:
161,314,3027,5,8,1:2:0:0:
161,314,3368,6,0,P|183:298|217:289,1,53.9999983520508,2|0,2:2|0:0,0:0:0:0:
337,269,3709,2,0,P|302:249|291:230,1,53.9999983520508,2|0,2:2|0:0,0:0:0:0:
185,151,4050,2,0,P|202:177|213:216,1,53.9999983520508,2|0,2:2|0:0,0:0:0:0:
211,208,4305,1,0,0:0:0:0:
209,216,4390,1,2,1:2:0:0:
315,103,4561,6,0,B|351:82|351:82|390:87,1,72,0|0,0:0|1:1,0:0:0:0:
221,0,4902,2,0,B|257:21|257:21|296:16,1,72,0|2,0:0|1:2,0:0:0:0:
371,167,5243,2,0,L|352:245,1,72,0|2,0:0|1:2,0:0:0:0:
471,72,5584,2,0,L|490:150,1,72,0|2,0:0|1:2,0:0:0:0:
512,258,5925,53,2,2:2:0:0:
450,310,6095,1,2,1:2:0:0:
512,247,6265,1,0,0:0:0:0:
440,314,6436,2,0,L|357:293,1,72,2|2,1:2|2:2,0:0:0:0:
234,384,6777,5,0,1:1:0:0:
289,325,6947,2,0,L|272:252,1,72,2|0,2:2|1:1,0:0:0:0:
208,207,7288,1,0,0:0:0:0:
350,130,7459,54,0,P|353:165|334:207,1,72,2|0,1:2|0:0,0:0:0:0:
211,95,7800,2,0,P|194:65|200:11,1,72,2|0,1:2|0:0,0:0:0:0:
358,121,8140,1,2,1:2:0:0:
303,179,8311,2,0,L|213:200,1,72,2|0,2:2|1:1,0:0:0:0:
160,161,8652,1,0,0:0:0:0:
40,257,8822,6,0,L|58:338,1,72,2|0,1:2|0:0,0:0:0:0:
169,157,9163,2,0,L|149:234,1,72,2|0,1:2|0:0,0:0:0:0:
46,74,9504,2,0,L|64:155,1,72,2|0,1:2|0:0,0:0:0:0:
239,279,9845,54,0,P|274:276|306:258,1,72,2|0,1:2|0:0,0:0:0:0:
338,162,10186,2,0,P|302:165|271:182,1,72,0|0,1:1|0:0,0:0:0:0:
360,332,10527,2,0,P|388:352|424:358,1,72,2|0,1:2|0:0,0:0:0:0:
511,306,10868,2,0,P|481:285|446:279,1,72,2|0,1:2|0:0,0:0:0:0:
260,177,11209,6,0,P|239:146|248:97,1,72,2|2,1:2|2:2,0:0:0:0:
308,36,11550,2,0,P|329:67|320:116,1,72,2|0,1:2|0:0,0:0:0:0:
183,222,11890,2,0,L|96:202,1,72,2|0,1:2|0:0,0:0:0:0:
337,113,12231,2,0,L|424:93,1,72,2|0,1:2|0:0,0:0:0:0:
252,0,12572,53,2,1:2:0:0:
212,70,12743,2,0,L|232:154,1,72,2|0,2:2|1:1,0:0:0:0:
382,0,13084,2,0,L|366:91,1,72,2|0,2:2|1:1,0:0:0:0:
364,85,13339,1,0,0:0:0:0:
363,95,13425,2,0,B|397:113|397:113|431:108,1,72,2|0,2:2|1:1,0:0:0:0:
493,158,13765,1,2,2:2:0:0:
372,244,13936,2,0,L|351:328,1,72,0|0,1:1|0:0,0:0:0:0:
287,213,14277,6,0,P|261:175|266:130,1,72,2|0,1:2|0:0,0:0:0:0:
458,235,14618,2,0,P|493:248|512:275,1,72,2|0,1:2|0:0,0:0:0:0:
338,380,14959,2,0,P|337:344|367:303,1,72,2|0,1:2|0:0,0:0:0:0:
210,239,15300,54,0,L|126:222,1,72,2|0,1:2|0:0,0:0:0:0:
70,353,15640,2,0,L|-14:370,1,72,2|0,1:2|0:0,0:0:0:0:
41,272,15981,1,2,1:2:0:0:
158,384,16152,2,0,B|172:350|172:350|156:305,1,72,2|0,2:2|1:1,0:0:0:0:
33,265,16493,6,0,B|19:231|19:231|35:186,1,72,2|0,2:2|1:1,0:0:0:0:
181,130,16834,2,0,L|263:151,1,72,2|0,2:2|1:1,0:0:0:0:
310,201,17175,1,0,0:0:0:0:
390,113,17345,2,0,L|377:33,1,72,2|0,1:2|0:0,0:0:0:0:
304,209,17686,2,0,L|317:289,1,72,2|0,1:2|0:0,0:0:0:0:
180,119,18027,54,0,L|198:29,1,72,2|0,1:2|0:0,0:0:0:0:
14,0,18368,2,0,L|-4:90,1,72,2|0,1:2|0:0,0:0:0:0:
38,198,18709,1,2,1:2:0:0:
110,235,18879,2,0,L|197:218,1,72,2|0,2:2|1:1,0:0:0:0:
277,144,19220,1,2,2:2:0:0:
277,144,19305,1,0,0:0:0:0:
277,144,19390,6,0,B|334:155|334:155|359:187|359:187|423:200,1,144,0|0,1:1|1:1,0:0:0:0:
474,91,19902,1,2,2:2:0:0:
474,91,19987,1,0,0:0:0:0:
474,91,20072,2,0,P|435:98|402:124,1,72,2|0,1:2|0:0,0:0:0:0:
467,255,20413,2,0,P|487:222|486:182,1,72,2|0,1:2|0:0,0:0:0:0:
321,87,20754,53,4,1:2:0:0:
273,151,20925,2,0,L|293:250,1,90,2|8,2:2|2:2,0:0:0:0:
145,94,21265,1,2,2:2:0:0:
145,94,21351,1,0,0:0:0:0:
145,94,21436,2,0,L|125:-5,1,90,0|0,1:1|0:0,0:0:0:0:
28,184,21777,2,0,P|46:230|92:249,1,90,10|0,2:2|0:0,0:0:0:0:
209,371,22118,5,2,1:2:0:0:
153,313,22288,2,0,L|176:211,1,90,2|8,2:2|2:2,0:0:0:0:
16,323,22629,2,0,P|46:361|102:369,1,90,2|0,2:2|1:1,0:0:0:0:
264,198,22970,1,2,2:2:0:0:
264,198,23055,1,0,0:0:0:0:
264,198,23140,2,0,P|219:197|178:231,1,90,8|0,2:2|0:0,0:0:0:0:
307,376,23481,53,10,2:2:0:0:
372,328,23652,1,0,1:1:0:0:
429,384,23822,1,0,1:1:0:0:
360,249,23993,5,8,2:2:0:0:
295,297,24164,1,0,1:1:0:0:
238,241,24334,1,0,1:1:0:0:
429,384,24504,53,8,2:2:0:0:
429,384,24845,22,0,L|420:315,1,58.4999973220826,4|0,1:2|0:0,0:0:0:0:
354,282,25015,1,10,2:2:0:0:
512,346,25186,1,2,1:2:0:0:
344,277,25356,1,10,2:2:0:0:
465,181,25527,1,2,1:2:0:0:
383,125,25697,2,0,B|340:134|340:134|320:160|320:160|260:178,1,116.999994644165,10|0,2:2|1:1,0:0:0:0:
134,106,26038,2,0,B|112:55|112:55|145:-16,1,116.999994644165,10|0,2:2|1:1,0:0:0:0:
289,184,26379,2,0,B|311:235|311:235|278:306,1,116.999994644165,10|0,2:2|1:1,0:0:0:0:
153,384,26720,5,8,2:2:0:0:
75,365,26890,1,0,1:1:0:0:
215,317,27061,5,8,2:2:0:0:
293,298,27231,1,0,1:1:0:0:
123,224,27402,37,8,2:2:0:0:
293,298,27572,6,0,L|357:282,1,58.4999973220826,0|0,1:1|0:0,0:0:0:0:
419,242,27743,1,10,2:2:0:0:
344,375,27913,1,2,1:2:0:0:
428,235,28084,1,10,2:2:0:0:
312,152,28254,1,2,1:2:0:0:
402,68,28425,2,0,B|445:77|445:77|465:103|465:103|525:121,1,116.999994644165,10|0,2:2|1:1,0:0:0:0:
302,150,28765,2,0,B|259:159|259:159|239:185|239:185|179:203,1,116.999994644165,10|0,2:2|1:1,0:0:0:0:
41,78,29106,5,8,2:2:0:0:
63,1,29277,1,0,1:1:0:0:
164,116,29447,37,8,2:2:0:0:
186,193,29618,1,0,1:1:0:0:
57,229,29788,5,8,2:2:0:0:
35,306,29959,1,0,1:1:0:0:
183,384,30129,5,8,2:2:0:0:
35,306,30300,38,0,B|89:282|89:282|146:300,1,116.999994644165,2|8,1:2|2:2,0:0:0:0:
215,149,30640,2,0,B|269:173|269:173|326:155,1,116.999994644165,2|8,1:2|2:2,0:0:0:0:
452,384,30981,2,0,L|477:261,1,116.999994644165,2|8,1:2|2:2,0:0:0:0:
478,257,31237,1,0,0:0:0:0:
480,244,31322,2,0,B|424:225|424:225|365:261,1,116.999994644165,2|8,1:2|2:2,0:0:0:0:
290,139,31663,6,0,L|262:268,1,116.999994644165,2|8,1:2|2:2,0:0:0:0:
375,268,32004,1,0,1:1:0:0:
186,186,32175,2,0,L|161:57,1,116.999994644165,10|0,2:2|1:1,0:0:0:0:
260,50,32515,1,8,2:2:0:0:
173,199,32686,1,0,1:1:0:0:
69,134,32856,1,8,2:2:0:0:
274,43,33027,54,0,B|346:62|346:62|363:90|363:90|446:110,2,180,4|8|0,1:2|2:2|1:1,0:0:0:0:
18,0,34050,2,0,P|15:38|56:85,1,90,10|0,2:2|0:0,0:0:0:0:
118,195,34390,6,0,B|190:176|190:176|207:148|207:148|290:128,2,180,2|8|0,1:2|2:2|1:1,0:0:0:0:
18,384,35413,2,0,P|15:346|56:299,1,90,10|0,2:2|0:0,0:0:0:0:
166,302,35754,5,2,2:2:0:0:
166,302,36095,1,2,2:2:0:0:
166,302,36436,1,2,2:2:0:0:
166,302,36777,1,2,2:2:0:0:
166,302,37118,5,2,1:2:0:0:
239,354,37288,2,0,L|319:338,1,72,0|0,0:0|1:1,0:0:0:0:
208,219,37629,2,0,L|133:206,1,72,0|2,0:0|1:2,0:0:0:0:
270,125,37970,2,0,L|350:109,1,72,0|2,0:0|1:2,0:0:0:0:
190,35,38311,2,0,L|173:115,1,72,0|2,0:0|1:2,0:0:0:0:
295,237,38652,1,2,2:2:0:0:
356,181,38822,6,0,L|337:98,1,72,2|2,1:2|2:2,0:0:0:0:
336,85,39078,1,0,0:0:0:0:
341,77,39163,2,0,B|376:68|376:68|422:86,1,72,2|0,1:2|0:0,0:0:0:0:
499,163,39504,1,2,1:2:0:0:
426,197,39675,2,0,L|355:180,1,72,2|0,2:2|1:1,0:0:0:0:
256,115,40015,1,2,2:2:0:0:
256,115,40101,1,0,0:0:0:0:
256,115,40186,2,0,L|169:139,1,72,0|0,1:1|0:0,0:0:0:0:
139,251,40527,53,2,1:2:0:0:
212,284,40697,2,0,B|222:251|222:251|211:216,1,72,2|0,2:2|1:1,0:0:0:0:
71,192,41038,1,2,2:2:0:0:
71,192,41123,1,0,0:0:0:0:
71,192,41209,2,0,B|61:159|61:159|72:124,1,72,0|0,1:1|0:0,0:0:0:0:
83,17,41550,1,2,1:2:0:0:
154,55,41720,1,2,2:2:0:0:
68,15,41890,2,0,L|-9:38,1,72,2|0,1:2|0:0,0:0:0:0:
155,148,42231,2,0,L|232:171,1,72,2|0,1:2|0:0,0:0:0:0:
394,70,42572,6,0,L|376:-7,1,72,2|0,1:2|0:0,0:0:0:0:
314,151,42913,2,0,L|296:74,1,72,0|0,1:1|0:0,0:0:0:0:
407,161,43254,2,0,L|425:238,1,72,0|2,1:1|2:2,0:0:0:0:
489,60,43595,2,0,L|507:137,1,72,0|2,1:1|2:2,0:0:0:0:
326,248,43936,54,0,L|243:234,1,72,0|0,1:1|0:0,0:0:0:0:
357,336,44277,2,0,L|274:322,1,72,2|0,1:2|0:0,0:0:0:0:
450,384,44618,1,2,1:2:0:0:
509,317,44788,1,2,2:2:0:0:
509,317,44873,1,0,0:0:0:0:
509,317,44959,2,0,L|491:226,1,72,0|0,1:1|0:0,0:0:0:0:
392,163,45300,5,2,1:2:0:0:
338,227,45470,1,2,2:2:0:0:
338,227,45555,1,0,0:0:0:0:
338,227,45640,2,0,L|255:213,1,72,0|0,1:1|0:0,0:0:0:0:
153,116,45981,1,2,1:2:0:0:
217,67,46152,2,0,B|236:101|236:101|231:144,1,72,2|0,2:2|1:1,0:0:0:0:
128,223,46493,1,2,2:2:0:0:
128,223,46578,1,0,0:0:0:0:
128,223,46663,54,0,L|56:209,1,72,0|0,1:1|0:0,0:0:0:0:
160,326,47004,1,2,1:2:0:0:
217,249,47175,1,2,2:2:0:0:
74,313,47345,2,0,B|65:353|65:353|84:397,1,72,2|0,1:2|0:0,0:0:0:0:
225,242,47686,2,0,B|234:202|234:202|215:158,1,72,2|0,1:2|0:0,0:0:0:0:
21,70,48027,6,0,L|39:-11,1,72,2|0,1:2|0:0,0:0:0:0:
120,84,48368,2,0,L|138:165,1,72,2|0,1:2|0:0,0:0:0:0:
262,45,48709,2,0,B|232:23|232:23|184:28,1,72,2|0,1:2|0:0,0:0:0:0:
292,141,49050,1,2,1:2:0:0:
375,71,49220,54,0,L|358:-7,1,72,2|0,2:2|1:1,0:0:0:0:
285,149,49561,2,0,L|268:227,1,72,2|0,2:2|1:1,0:0:0:0:
369,311,49902,1,0,0:0:0:0:
369,311,49987,1,0,0:0:0:0:
369,311,50072,2,0,B|405:316|405:316|445:292,1,72,2|0,1:2|0:0,0:0:0:0:
481,186,50413,2,0,B|445:181|445:181|405:205,1,72,2|0,1:2|0:0,0:0:0:0:
268,312,50754,6,0,L|195:294,1,72,2|0,1:2|0:0,0:0:0:0:
331,211,51095,2,0,L|404:193,1,72,2|0,1:2|0:0,0:0:0:0:
277,79,51436,1,2,1:2:0:0:
231,145,51606,2,0,L|249:221,1,72,2|0,2:2|1:1,0:0:0:0:
377,335,51947,1,2,2:2:0:0:
377,335,52032,1,0,0:0:0:0:
377,335,52118,54,0,L|403:174,2,144,0|0|2,1:1|1:1|1:2,0:0:0:0:
482,384,52970,2,0,B|491:350|491:350|477:312,1,72,2|0,2:2|1:1,0:0:0:0:
303,221,53311,1,2,2:2:0:0:
303,221,53396,1,0,0:0:0:0:
303,221,53481,5,4,1:2:0:0:
288,317,53652,2,0,L|392:338,1,90,2|8,2:2|2:2,0:0:0:0:
479,188,53993,2,0,L|285:224,1,180,2|0,2:2|0:0,0:0:0:0:
187,129,54504,2,0,B|172:87|172:87|195:39,1,90,10|0,2:2|0:0,0:0:0:0:
321,0,54845,53,4,1:2:0:0:
378,56,55015,2,0,L|359:150,1,90,2|8,2:2|2:2,0:0:0:0:
215,211,55356,2,0,L|237:307,1,90,2|0,2:2|1:1,0:0:0:0:
273,105,55697,1,2,2:2:0:0:
273,105,55782,1,0,0:0:0:0:
273,105,55868,2,0,L|165:134,1,90,8|0,2:2|0:0,0:0:0:0:
9,165,56209,5,10,2:2:0:0:
60,226,56379,1,0,1:1:0:0:
8,286,56550,1,0,1:1:0:0:
140,213,56720,53,8,2:2:0:0:
89,152,56890,1,0,1:1:0:0:
141,92,57061,1,0,1:1:0:0:
15,273,57231,6,0,L|2:181,1,90,8|0,2:2|1:1,0:0:0:0:
150,87,57572,6,0,L|218:70,1,58.4999973220826,4|0,1:2|0:0,0:0:0:0:
172,0,57743,1,10,2:2:0:0:
266,141,57913,1,2,1:2:0:0:
304,56,58084,1,10,2:2:0:0:
172,170,58254,1,2,1:2:0:0:
277,265,58425,2,0,B|297:213|297:213|269:143,1,116.999994644165,10|0,2:2|1:1,0:0:0:0:
164,13,58765,2,0,L|50:35,1,116.999994644165,10|0,2:2|1:1,0:0:0:0:
0,159,59106,2,0,L|114:181,1,116.999994644165,10|0,2:2|1:1,0:0:0:0:
273,152,59447,5,8,2:2:0:0:
349,126,59618,1,0,1:1:0:0:
209,20,59788,5,8,2:2:0:0:
188,95,59959,1,0,1:1:0:0:
357,0,60129,37,8,2:2:0:0:
180,102,60300,6,0,L|113:118,1,58.4999973220826,0|0,1:1|0:0,0:0:0:0:
59,67,60470,1,10,2:2:0:0:
183,194,60640,1,2,1:2:0:0:
97,237,60811,1,10,2:2:0:0:
180,102,60981,1,2,1:2:0:0:
275,183,61152,2,0,B|293:243|293:243|256:311,1,116.999994644165,10|0,2:2|1:1,0:0:0:0:
80,355,61493,2,0,B|62:295|62:295|99:227,1,116.999994644165,10|0,2:2|1:1,0:0:0:0:
267,290,61834,5,8,2:2:0:0:
339,326,62004,1,0,1:1:0:0:
200,213,62175,37,8,2:2:0:0:
275,183,62345,1,0,1:1:0:0:
122,254,62515,5,8,2:2:0:0:
106,175,62686,1,0,1:1:0:0:
217,344,62856,5,8,2:2:0:0:
224,351,62942,1,0,0:0:0:0:
224,351,63027,2,0,L|374:318,1,116.999994644165,2|8,1:2|2:2,0:0:0:0:
467,275,63368,2,0,B|484:334|484:334|452:395,1,116.999994644165,2|8,1:2|2:2,0:0:0:0:
304,239,63709,2,0,B|287:180|287:180|319:119,1,116.999994644165,2|8,1:2|2:2,0:0:0:0:
327,116,63964,1,0,0:0:0:0:
337,106,64050,2,0,L|209:88,1,116.999994644165,2|8,1:2|2:2,0:0:0:0:
385,201,64390,38,0,L|513:183,1,116.999994644165,2|8,1:2|2:2,0:0:0:0:
443,70,64731,1,0,1:1:0:0:
291,190,64902,2,0,L|316:315,1,116.999994644165,10|0,2:2|1:1,0:0:0:0:
407,373,65243,1,8,2:2:0:0:
471,267,65413,1,0,1:1:0:0:
300,193,65584,1,8,2:2:0:0:
414,383,65754,6,0,L|438:161,2,180,4|8|0,1:2|2:2|1:1,0:0:0:0:
321,301,66777,2,0,L|303:196,1,90,10|0,2:2|0:0,0:0:0:0:
98,383,67118,6,0,L|74:161,2,180,2|8|0,1:2|2:2|1:1,0:0:0:0:
191,301,68141,2,0,L|209:196,1,90,10|0,2:2|0:0,0:0:0:0:
256,128,68481,37,2,1:2:0:0:
256,128,68822,1,0,1:1:0:0:
256,128,69163,1,0,1:1:0:0:
256,128,69504,1,0,1:1:0:0:
256,128,69845,1,0,1:1:0:0:
256,128,70186,1,0,1:1:0:0:
256,128,70527,1,0,1:1:0:0:
104,32,70868,1,4,2:2:0:0:
256,128,71209,38,0,P|213:97|158:106,1,107.999996704102,2|0,1:2|1:1,0:0:0:0:
148,113,71635,1,0,0:0:0:0:
139,120,71720,2,0,L|79:131,2,53.9999983520508,2|0|0,2:2|1:1|0:0,0:0:0:0:
218,229,72231,2,0,L|206:295,1,53.9999983520508,2|0,1:2|0:0,0:0:0:0:
80,384,72572,6,0,P|51:355|57:274,1,107.999996704102,2|0,1:2|1:1,0:0:0:0:
0,192,73084,2,0,L|56:210,2,53.9999983520508,2|0|0,2:2|1:1|0:0,0:0:0:0:
120,316,73595,2,0,L|185:301,1,53.9999983520508,2|0,1:2|0:0,0:0:0:0:
268,208,73936,54,0,L|286:86,1,107.999996704102,2|0,1:2|1:1,0:0:0:0:
162,0,74447,1,2,2:2:0:0:
162,0,74532,1,0,0:0:0:0:
162,0,74618,2,0,L|182:119,1,107.999996704102,0|0,1:1|1:1,0:0:0:0:
355,292,75300,6,0,P|405:298|456:263,1,107.999996704102,2|2,1:2|1:2,0:0:0:0:
467,254,75726,1,0,0:0:0:0:
471,244,75811,2,0,L|454:173,2,53.9999983520508,2|0|0,2:2|1:1|0:0,0:0:0:0:
369,158,76322,2,0,L|386:96,1,53.9999983520508,2|0,1:2|0:0,0:0:0:0:
476,30,76663,53,4,1:2:0:0:
476,30,76834,1,0,0:0:0:0:
374,100,77004,2,0,L|289:88,2,72,10|2|2,2:2|2:2|1:2,0:0:0:0:
443,188,77515,2,0,L|513:171,1,72,0|10,0:0|2:2,0:0:0:0:
385,255,77856,1,2,2:2:0:0:
493,326,78027,5,0,1:1:0:0:
493,326,78197,1,0,0:0:0:0:
409,384,78368,2,0,L|331:368,2,72,8|2|2,2:2|2:2|1:2,0:0:0:0:
322,275,78879,2,0,L|248:288,1,72,0|10,0:0|2:2,0:0:0:0:
359,180,79220,1,2,2:2:0:0:
272,113,79390,53,2,1:2:0:0:
272,113,79561,1,2,2:2:0:0:
185,169,79731,2,0,L|167:250,2,72,8|2|0,2:2|2:2|1:1,0:0:0:0:
91,108,80243,2,0,L|73:20,1,72,2|8,2:2|2:2,0:0:0:0:
0,171,80584,1,2,2:2:0:0:
84,237,80754,5,0,1:1:0:0:
84,237,80925,1,0,0:0:0:0:
64,325,81095,2,0,L|-7:339,2,72,10|0|2,2:2|0:0|1:2,0:0:0:0:
176,249,81606,2,0,L|249:269,1,72,0|10,0:0|2:2,0:0:0:0:
166,346,81947,1,0,0:0:0:0:
84,237,82118,53,2,1:2:0:0:
84,237,82288,1,0,0:0:0:0:
168,156,82459,2,0,L|244:142,1,72,8|2,2:2|2:2,0:0:0:0:
341,140,82799,1,0,1:1:0:0:
341,140,82969,1,0,0:0:0:0:
257,59,83140,2,0,L|181:45,1,72,10|0,2:2|0:0,0:0:0:0:
238,142,83481,5,2,1:2:0:0:
238,142,83652,1,0,0:0:0:0:
353,72,83822,2,0,L|341:-12,1,72,8|2,2:2|2:2,0:0:0:0:
465,32,84163,53,0,1:1:0:0:
465,32,84334,1,0,0:0:0:0:
503,103,84504,1,10,2:2:0:0:
466,174,84675,1,0,0:0:0:0:
256,32,84845,1,10,2:2:0:0:
256,32,85868,6,0,L|248:80,1,40.4999987640381,4|0,1:2|0:0,0:0:0:0:
186,160,86209,6,0,L|198:224,1,53.9999983520508,4|0,1:2|0:0,0:0:0:0:
258,263,86379,1,10,2:2:0:0:
317,183,86550,1,2,1:2:0:0:
177,295,86720,1,10,2:2:0:0:
283,361,86890,1,0,1:1:0:0:
353,262,87061,1,10,2:2:0:0:
202,200,87231,1,2,1:2:0:0:
364,264,87402,1,10,2:2:0:0:
194,196,87572,6,0,L|79:220,1,107.999996704102,0|10,1:1|2:2,0:0:0:0:
46,137,87913,1,0,1:1:0:0:
188,291,88084,2,0,L|302:312,1,107.999996704102,10|0,2:2|1:1,0:0:0:0:
363,158,88425,1,8,2:2:0:0:
277,227,88595,1,2,1:2:0:0:
384,264,88765,1,10,2:2:0:0:
235,122,88936,6,0,B|219:71|219:71|250:8,1,107.999996704102,0|10,1:1|2:2,0:0:0:0:
442,0,89277,2,0,B|458:51|458:51|427:114,1,107.999996704102,2|10,1:2|2:2,0:0:0:0:
282,204,89618,2,0,L|176:224,1,107.999996704102,0|10,1:1|2:2,0:0:0:0:
387,290,89959,2,0,L|493:310,1,107.999996704102,2|10,1:2|2:2,0:0:0:0:
512,122,90300,38,0,B|462:98|462:98|411:125,1,107.999996704102,2|8,1:2|2:2,0:0:0:0:
345,49,90640,1,0,1:1:0:0:
255,127,90811,2,0,L|270:235,1,107.999996704102,10|0,2:2|1:1,0:0:0:0:
344,167,91152,1,8,2:2:0:0:
180,72,91322,1,0,1:1:0:0:
353,172,91493,1,8,2:2:0:0:
209,295,91663,5,0,1:1:0:0:
178,170,91834,1,10,2:2:0:0:
211,304,92004,1,2,1:2:0:0:
175,159,92175,1,10,2:2:0:0:
69,345,92345,5,0,1:1:0:0:
100,220,92516,1,10,2:2:0:0:
67,354,92686,1,2,1:2:0:0:
103,209,92857,1,10,2:2:0:0:
201,360,93027,38,0,B|254:379|254:379|315:345,1,107.999996704102,0|10,1:1|2:2,0:0:0:0:
367,270,93368,1,0,1:1:0:0:
266,184,93538,2,0,L|246:294,1,107.999996704102,10|0,2:2|1:1,0:0:0:0:
451,346,93879,1,8,2:2:0:0:
360,278,94050,1,0,1:1:0:0:
485,194,94220,1,10,2:2:0:0:
347,282,94390,6,0,B|324:235|324:235|349:176,1,107.999996704102,2|8,1:2|2:2,0:0:0:0:
284,82,94731,5,0,1:1:0:0:
357,191,94902,1,8,2:2:0:0:
358,45,95072,37,0,1:1:0:0:
362,199,95243,1,8,2:2:0:0:
437,33,95413,5,0,1:1:0:0:
356,206,95584,2,0,L|340:141,1,53.9999983520508,10|2,2:2|2:2,0:0:0:0:
274,79,95754,6,0,L|149:118,1,107.999996704102,2|8,1:2|2:2,0:0:0:0:
33,35,96095,1,0,1:1:0:0:
175,122,96265,1,8,2:2:0:0:
87,186,96436,5,0,1:1:0:0:
87,186,96521,5,8,2:2:0:0:
87,186,96606,6,0,L|70:120,1,53.9999983520508,0|0,1:1|1:0,0:0:0:0:
181,213,96777,5,0,1:1:0:0:
192,220,96862,5,0,1:1:0:0:
234,236,96947,5,8,2:2:0:0:
298,217,97032,5,8,2:2:0:0:
348,168,97118,6,0,L|360:106,1,58.4999973220826,4|0,1:2|0:0,0:0:0:0:
426,67,97288,1,10,2:2:0:0:
347,14,97459,1,2,1:2:0:0:
447,157,97629,1,10,2:2:0:0:
512,51,97800,1,2,1:2:0:0:
440,167,97970,2,0,L|465:292,1,116.999994644165,10|0,2:2|1:1,0:0:0:0:
358,340,98311,2,0,B|302:356|302:356|233:313,1,116.999994644165,10|0,2:2|1:1,0:0:0:0:
190,179,98652,2,0,B|246:163|246:163|315:206,1,116.999994644165,10|0,2:2|1:1,0:0:0:0:
439,293,98993,5,8,2:2:0:0:
512,258,99163,1,0,1:1:0:0:
305,197,99334,5,8,2:2:0:0:
378,162,99504,1,0,1:1:0:0:
236,77,99675,37,8,2:2:0:0:
388,172,99845,6,0,L|320:191,1,58.4999973220826,0|0,1:1|0:0,0:0:0:0:
256,163,100015,1,10,2:2:0:0:
378,323,100186,1,2,1:2:0:0:
427,247,100356,1,10,2:2:0:0:
270,258,100527,1,2,1:2:0:0:
388,328,100697,2,0,L|509:312,1,116.999994644165,10|0,2:2|1:1,0:0:0:0:
266,264,101038,2,0,L|145:248,1,116.999994644165,10|0,2:2|1:1,0:0:0:0:
7,159,101379,5,8,2:2:0:0:
42,232,101550,1,0,1:1:0:0:
0,384,101720,37,8,2:2:0:0:
34,312,101890,1,0,1:1:0:0:
179,324,102061,5,8,2:2:0:0:
109,284,102231,1,0,1:1:0:0:
261,187,102402,5,8,2:2:0:0:
99,284,102572,38,0,B|74:231|74:231|98:163,1,116.999994644165,2|8,1:2|2:2,0:0:0:0:
264,69,102913,2,0,B|289:122|289:122|265:190,1,116.999994644165,2|8,1:2|2:2,0:0:0:0:
120,57,103254,2,0,L|-20:35,1,116.999994644165,2|8,1:2|2:2,0:0:0:0:
0,52,103510,1,0,0:0:0:0:
0,61,103595,2,0,B|-5:113|-5:113|31:179,1,116.999994644165,2|8,1:2|2:2,0:0:0:0:
197,301,103936,6,0,L|332:272,1,116.999994644165,2|8,1:2|2:2,0:0:0:0:
144,209,104277,1,0,1:1:0:0:
254,145,104447,2,0,L|389:174,1,116.999994644165,10|0,2:2|1:1,0:0:0:0:
470,73,104788,1,8,2:2:0:0:
366,180,104959,1,0,1:1:0:0:
478,225,105129,1,8,2:2:0:0:
308,74,105300,6,0,B|233:87|233:87|212:113|212:113|131:129,2,180,4|8|0,1:2|2:2|1:1,0:0:0:0:
480,192,106322,2,0,P|486:239|449:291,1,90,10|0,2:2|0:0,0:0:0:0:
308,310,106664,38,0,B|233:297|233:297|212:271|212:271|131:255,2,180,2|8|0,1:2|2:2|1:1,0:0:0:0:
480,192,107686,2,0,P|486:145|449:93,1,90,10|0,2:2|0:0,0:0:0:0:
320,192,108027,5,4,1:2:0:0:
320,192,108368,1,0,1:1:0:0:
320,192,108709,1,0,1:1:0:0:
320,192,109050,1,0,1:1:0:0:
320,192,109390,1,0,1:1:0:0:
320,192,109731,1,0,1:1:0:0:
320,192,110072,1,0,1:1:0:0:
150,297,110413,1,8,2:2:0:0:
0,0,110754,6,0,B|0:75|0:75|150:225|150:225|150:300,1,360,12|0,1:2|0:0,0:0:0:0:
