osu file format v14

[General]
AudioFilename: audio.ogg
AudioLeadIn: 0
PreviewTime: 3201
Countdown: 0
SampleSet: Soft
StackLeniency: 0.3
Mode: 0
LetterboxInBreaks: 0
WidescreenStoryboard: 1

[Editor]
Bookmarks: 294,3021,20748,24839,35748,56203,57566,71203,75294,75379,75464,75549,75634,75720,84839,97112,105294,108021
DistanceSpacing: 1
BeatDivisor: 4
GridSize: 32
TimelineZoom: 2.5

[Metadata]
Title:Durak i Molniya
TitleUnicode:Дурак и Молния
Artist:RADIO TAPOK
ArtistUnicode:RADIO TAPOK
Creator:Mizujin
Version:Lenkon's Normal
Source:
Tags:-_Lenkon lenkon melleganol Gouuh LeomineXD leomine Mizujin -_Aqua AqUa_M1X rock russian punk русский панк рок cover кавер king and jester korol' i shut король и шут киш
BeatmapID:4130622
BeatmapSetID:1982473

[Difficulty]
HPDrainRate:3
CircleSize:3
OverallDifficulty:4
ApproachRate:5
SliderMultiplier:0.999999999999999
SliderTickRate:1

[Events]
//Background and Video events
0,0,"BG.jpg",0,0
//Break Periods
//Storyboard Layer 0 (Background)
//Storyboard Layer 1 (Fail)
//Storyboard Layer 2 (Pass)
//Storyboard Layer 3 (Foreground)
//Storyboard Layer 4 (Overlay)
//Storyboard Sound Samples

[TimingPoints]
300,340.909090909091,4,2,1,80,1,0
300,-100,4,2,1,80,0,0
3368,-100,4,2,1,45,0,0
4390,-100,4,2,1,65,0,0
20754,-100,4,2,1,70,0,0
23481,-100,4,2,1,75,0,0
24845,-100,4,2,1,85,0,1
33027,-100,4,2,1,75,0,0
35754,-100,4,2,1,45,0,0
37118,-100,4,2,1,65,0,0
53481,-100,4,2,1,70,0,0
56209,-100,4,2,1,75,0,0
57572,-100,4,2,1,85,0,1
65754,-100,4,2,1,75,0,0
68481,-100,4,2,1,60,0,0
71209,-100,4,2,1,65,0,0
76663,-100,4,2,1,70,0,0
84845,-100,4,2,1,75,0,0
85868,-100,4,2,1,65,0,0
86209,-100,4,2,1,85,0,1
96521,-100,4,2,1,45,0,1
96606,-100,4,2,1,85,0,1
105300,-100,4,2,1,75,0,0
108027,-100,4,2,1,60,0,0
110754,-100,4,2,1,70,0,0

[Colours]
Combo1 : 188,88,88
Combo2 : 200,129,102
Combo3 : 214,171,120
Combo4 : 218,218,218
Combo5 : 139,139,139

[HitObjects]
287,40,300,6,0,B|302:36|302:36|338:49,1,50,4|0,1:2|0:0,0:0:0:0:
361,89,640,2,0,P|352:191|347:225,1,99.9999999999999,8|2,2:2|1:2,0:0:0:0:
323,231,1152,1,0,0:0:0:0:
323,231,1322,6,0,P|273:227|230:202,1,99.9999999999999,8|0,2:2|1:1,0:0:0:0:
130,201,2004,2,0,P|126:250|119:300,1,99.9999999999999,8|2,2:2|1:2,0:0:0:0:
76,326,2515,1,8,2:2:0:0:
76,326,2686,2,0,P|17:334|7:336,2,50,8|8|8,2:2|2:2|1:2,0:0:0:0:
76,326,4390,6,0,P|100:283|98:233,1,99.9999999999999,2|0,1:2|1:1,0:0:0:0:
83,134,5072,2,0,P|43:113|-13:69,2,99.9999999999999,2|2|2,1:2|1:2|1:2,0:0:0:0:
175,172,6095,2,0,P|220:152|268:138,1,99.9999999999999,2|2,1:2|1:2,0:0:0:0:
300,99,6606,1,2,2:2:0:0:
398,118,6947,6,0,P|411:191|433:263,1,150,2|2,2:2|1:2,0:0:0:0:
497,340,7800,1,2,1:2:0:0:
408,380,8140,1,2,1:2:0:0:
408,380,8311,1,2,2:2:0:0:
258,370,8822,6,0,P|206:365|166:332,2,99.9999999999999,2|2|2,1:2|1:2|1:2,0:0:0:0:
332,303,9845,2,0,P|343:254|357:206,1,99.9999999999999,2|0,1:2|1:1,0:0:0:0:
416,125,10527,2,0,P|465:113|513:99,2,99.9999999999999,2|2|2,1:2|1:2|1:2,0:0:0:0:
373,110,11379,1,2,2:2:0:0:
373,110,11550,6,0,P|323:103|273:97,1,99.9999999999999,2|2,1:2|1:2,0:0:0:0:
179,129,12231,1,2,1:2:0:0:
141,223,12572,1,2,1:2:0:0:
141,223,12743,1,2,2:2:0:0:
226,274,13084,2,0,P|274:261|323:252,2,99.9999999999999,2|2|2,2:2|2:2|2:2,0:0:0:0:
108,180,14277,6,0,P|102:138|155:89,2,99.9999999999999,2|2|2,1:2|1:2|1:2,0:0:0:0:
208,178,15300,1,2,1:2:0:0:
273,102,15640,1,2,1:2:0:0:
360,54,15981,2,0,P|408:43|456:29,1,99.9999999999999,2|0,1:2|1:1,0:0:0:0:
504,43,16493,1,2,2:2:0:0:
508,142,16834,6,0,P|475:204|404:202,1,150,2|2,2:2|1:2,0:0:0:0:
323,140,17686,1,2,1:2:0:0:
258,216,18027,1,2,1:2:0:0:
166,177,18368,2,0,B|128:171|105:196|68:194,1,99.9999999999999,2|2,1:2|1:2,0:0:0:0:
19,182,18879,1,2,2:2:0:0:
39,83,19220,6,0,P|88:30|160:40,1,150,2|0,2:2|1:1,0:0:0:0:
236,104,20072,1,2,1:2:0:0:
325,59,20413,1,2,1:2:0:0:
414,103,20754,6,0,P|438:95|462:88,2,50,4|2|8,1:2|2:2|2:2,0:0:0:0:
383,142,21265,2,0,P|371:191|365:241,1,99.9999999999999,2|0,2:2|0:0,0:0:0:0:
358,291,21777,1,10,2:2:0:0:
279,352,22118,2,0,P|254:357|228:367,2,50,2|2|8,1:2|2:2|2:2,0:0:0:0:
320,380,22629,1,2,2:2:0:0:
358,291,22970,2,0,P|370:246|331:202,1,99.9999999999999,2|0,2:2|0:0,0:0:0:0:
301,173,23481,6,0,P|296:151|283:116,2,50,10|0|0,2:2|1:1|1:1,0:0:0:0:
262,205,23993,2,0,P|254:228|248:253,2,50,8|0|0,2:2|1:1|1:1,0:0:0:0:
220,176,24504,1,8,2:2:0:0:
127,205,24845,5,4,1:2:0:0:
127,205,25015,2,0,B|103:250|103:250|106:301,1,99.9999999999999,10|10,2:2|2:2,0:0:0:0:
128,344,25527,2,0,P|152:351|175:360,1,50,2|10,1:2|2:2,0:0:0:0:
229,360,25868,1,0,1:1:0:0:
229,360,26038,2,0,B|281:354|281:354|328:369,2,99.9999999999999,10|10|8,2:2|2:2|2:2,0:0:0:0:
185,269,27061,1,8,2:2:0:0:
254,197,27402,1,8,2:2:0:0:
308,280,27743,6,0,P|311:306|313:329,2,50,10|2|10,2:2|1:2|2:2,0:0:0:0:
341,242,28254,2,0,P|344:218|353:193,1,50,2|10,1:2|2:2,0:0:0:0:
386,157,28595,1,0,1:1:0:0:
386,157,28765,2,0,B|428:138|428:138|486:149,1,99.9999999999999,10|8,2:2|2:2,0:0:0:0:
505,245,29447,1,8,2:2:0:0:
420,299,29788,1,8,2:2:0:0:
341,242,30129,1,8,2:2:0:0:
341,242,30300,6,0,B|309:228|309:228|231:223,2,99.9999999999999,2|2|2,1:2|1:2|1:2,0:0:0:0:
420,299,31322,1,2,1:2:0:0:
341,361,31663,2,0,B|278:384|297:357|242:371,1,99.9999999999999,2|0,1:2|1:1,0:0:0:0:
192,373,32175,2,0,B|131:344|147:372|94:354,1,99.9999999999999,10|8,2:2|2:2,0:0:0:0:
45,348,32686,1,0,1:1:0:0:
6,255,33027,6,0,B|-4:208|-4:208|0:156,2,99.9999999999999,4|8|0,1:2|2:2|1:1,0:0:0:0:
105,269,34050,1,10,2:2:0:0:
185,210,34390,2,0,B|196:163|196:163|192:111,2,99.9999999999999,2|8|0,1:2|2:2|1:1,0:0:0:0:
105,269,35413,1,10,2:2:0:0:
89,170,35754,1,2,2:2:0:0:
89,170,37118,6,0,P|42:157|8:121,1,99.9999999999999,2|0,1:2|1:1,0:0:0:0:
71,42,37800,2,0,P|120:47|158:78,2,99.9999999999999,2|2|2,1:2|1:2|1:2,0:0:0:0:
7,120,38822,2,0,P|24:166|36:215,1,99.9999999999999,2|2,1:2|1:2,0:0:0:0:
116,285,39504,1,2,1:2:0:0:
116,285,39675,6,0,P|196:271|212:246,1,99.9999999999999,2|2,2:2|2:2,0:0:0:0:
272,187,40356,1,0,0:0:0:0:
272,188,40527,2,0,L|282:139,1,50,2|2,1:2|2:2,0:0:0:0:
319,46,41038,1,2,2:2:0:0:
422,154,41549,6,0,P|438:201|451:249,2,99.9999999999999,2|2|2,1:2|1:2|1:2,0:0:0:0:
335,103,42572,2,0,P|286:97|251:131,1,99.9999999999999,2|0,1:2|1:1,0:0:0:0:
212,275,43425,2,0,P|260:288|307:305,1,99.9999999999999,2|2,2:2|2:2,0:0:0:0:
341,341,43936,1,0,1:1:0:0:
434,305,44277,6,0,P|448:257|465:207,1,99.9999999999999,2|2,1:2|1:2,0:0:0:0:
508,120,44958,1,0,1:1:0:0:
467,35,45299,1,2,1:2:0:0:
467,35,45470,1,2,2:2:0:0:
345,122,45981,2,0,P|295:131|247:143,2,99.9999999999999,2|0|0,1:2|1:1|1:1,0:0:0:0:
420,187,47004,6,0,P|439:231|423:277,2,99.9999999999999,2|2|2,1:2|1:2|1:2,0:0:0:0:
345,122,48027,1,2,1:2:0:0:
259,174,48368,1,2,1:2:0:0:
180,112,48708,2,0,P|132:98|83:87,1,99.9999999999999,2|2,1:2|1:2,0:0:0:0:
32,88,49220,1,2,2:2:0:0:
14,185,49561,6,0,P|30:256|94:291,1,150,2|2,2:2|1:2,0:0:0:0:
181,243,50413,1,2,1:2:0:0:
260,303,50754,1,2,1:2:0:0:
352,265,51095,2,0,B|408:237|446:235,1,99.9999999999999,2|2,1:2|1:2,0:0:0:0:
496,244,51606,1,2,2:2:0:0:
511,145,51947,6,0,P|476:81|405:72,1,150,2|0,2:2|1:1,0:0:0:0:
325,133,52799,1,2,1:2:0:0:
225,146,53140,1,0,1:1:0:0:
169,62,53481,6,0,P|162:38|150:-2,2,50,4|2|8,1:2|2:2|2:2,0:0:0:0:
149,108,53993,2,0,P|102:126|56:151,1,99.9999999999999,2|0,2:2|0:0,0:0:0:0:
33,192,54504,1,10,2:2:0:0:
79,280,54845,2,0,P|88:308|93:334,2,50,4|2|8,1:2|2:2|2:2,0:0:0:0:
106,237,55356,1,2,2:2:0:0:
202,212,55697,2,0,P|249:228|298:236,1,99.9999999999999,2|0,2:2|0:0,0:0:0:0:
345,215,56209,6,0,P|360:195|364:171,2,50,10|0|0,2:2|1:1|1:1,0:0:0:0:
374,255,56720,2,0,P|389:274|393:298,2,50,8|0|0,2:2|1:1|1:1,0:0:0:0:
324,261,57231,1,8,2:2:0:0:
248,326,57572,5,4,1:2:0:0:
248,326,57742,2,0,B|196:331|196:331|147:314,1,99.9999999999999,10|10,2:2|2:2,0:0:0:0:
132,268,58254,2,0,P|137:248|144:215,1,50,2|10,1:2|2:2,0:0:0:0:
186,192,58595,1,0,1:1:0:0:
186,192,58765,2,0,B|235:176|235:176|285:183,2,99.9999999999999,10|10|8,2:2|2:2|2:2,0:0:0:0:
92,155,59788,1,8,2:2:0:0:
64,58,60129,1,8,2:2:0:0:
164,35,60470,5,10,2:2:0:0:
164,35,60640,2,0,P|188:42|211:51,1,50,2|10,1:2|2:2,0:0:0:0:
246,88,60981,1,2,1:2:0:0:
246,88,61152,1,10,2:2:0:0:
331,34,61493,2,0,B|366:24|366:24|443:48,2,99.9999999999999,10|8|8,2:2|2:2|2:2,0:0:0:0:
246,88,62515,1,8,2:2:0:0:
310,172,62856,1,8,2:2:0:0:
310,172,63027,6,0,B|320:207|320:207|296:284,1,99.9999999999999,2|2,1:2|1:2,0:0:0:0:
242,349,63709,1,2,1:2:0:0:
154,300,64050,1,2,1:2:0:0:
66,348,64390,2,0,B|32:349|14:355|14:355|14:339|4:301,1,99.9999999999999,2|0,1:2|1:1,0:0:0:0:
7,257,64902,2,0,B|24:227|28:208|28:208|42:216|73:224,1,99.9999999999999,10|8,2:2|2:2,0:0:0:0:
119,208,65413,1,0,1:1:0:0:
207,160,65754,6,0,B|217:125|217:125|193:48,2,99.9999999999999,4|8|0,1:2|2:2|1:1,0:0:0:0:
240,255,66777,1,10,2:2:0:0:
339,269,67118,2,0,B|374:259|374:259|434:278,2,99.9999999999999,2|8|0,1:2|2:2|1:1,0:0:0:0:
277,346,68140,1,10,2:2:0:0:
179,363,68481,1,2,1:2:0:0:
179,363,69845,6,0,B|71:346|71:346,2,99.9999999999999,0|0|0,1:1|1:1|1:1,0:0:0:0:
220,271,70868,1,4,2:2:0:0:
267,182,71209,6,0,P|332:147|400:171,1,150,2|2,1:2|2:2,0:0:0:0:
490,290,72231,1,2,1:2:0:0:
417,358,72572,2,0,P|346:369|288:324,1,150,2|2,1:2|2:2,0:0:0:0:
192,207,73595,1,2,1:2:0:0:
257,130,73936,6,0,P|332:119|405:104,1,150,2|2,1:2|2:2,0:0:0:0:
172,14,75300,2,0,P|99:27|25:38,2,150,2|2|2,1:2|2:2|1:2,0:0:0:0:
271,31,76663,5,4,1:2:0:0:
309,123,77004,2,0,P|298:171|288:220,1,99.9999999999999,10|2,2:2|1:2,0:0:0:0:
215,288,77686,2,0,P|191:290|167:298,2,50,10|2|0,2:2|2:2|1:1,0:0:0:0:
295,349,78368,1,8,2:2:0:0:
371,283,78709,6,0,P|420:272|469:262,1,99.9999999999999,2|10,1:2|2:2,0:0:0:0:
499,167,79390,2,0,P|502:143|509:119,2,50,2|2|8,1:2|2:2|2:2,0:0:0:0:
451,179,79902,1,2,2:2:0:0:
368,123,80243,1,2,2:2:0:0:
283,175,80584,2,0,P|210:190|137:205,1,150,2|10,2:2|2:2,0:0:0:0:
37,211,81436,1,2,1:2:0:0:
1,117,81777,1,10,2:2:0:0:
86,63,82118,6,0,P|135:71|187:70,2,99.9999999999999,2|8|0,1:2|2:2|1:1,0:0:0:0:
1,117,83140,1,10,2:2:0:0:
37,211,83481,2,0,P|45:235|38:328,2,99.9999999999999,2|8|0,1:2|2:2|1:1,0:0:0:0:
124,160,84504,1,10,2:2:0:0:
186,238,84845,1,10,2:2:0:0:
186,238,85868,5,4,1:2:0:0:
257,309,86209,5,4,1:2:0:0:
257,309,86379,2,0,B|303:325|303:325|362:298,1,99.9999999999999,10|10,2:2|2:2,0:0:0:0:
392,287,86890,1,0,1:1:0:0:
392,287,87061,2,0,P|401:237|413:189,1,99.9999999999999,10|10,2:2|2:2,0:0:0:0:
390,145,87572,2,0,P|347:121|298:128,1,99.9999999999999,0|0,1:1|1:1,0:0:0:0:
263,163,88084,1,10,2:2:0:0:
163,173,88425,1,8,2:2:0:0:
66,58,88936,5,0,1:1:0:0:
0,132,89277,2,0,P|12:180|22:229,1,99.9999999999999,2|0,1:2|1:1,0:0:0:0:
80,311,89959,2,0,P|104:317|126:328,1,50,2|10,1:2|2:2,0:0:0:0:
172,347,90300,2,0,B|203:355|250:344|233:321|273:307|314:319,2,150,2|10|0,1:2|2:2|1:1,0:0:0:0:
80,311,91663,5,0,1:1:0:0:
145,235,92004,2,0,P|194:222|242:210,1,99.9999999999999,2|0,1:2|1:1,0:0:0:0:
341,195,92686,2,0,P|365:201|389:207,1,50,2|10,1:2|2:2,0:0:0:0:
438,198,93027,2,0,P|467:158|456:111,1,99.9999999999999,0|0,1:1|1:1,0:0:0:0:
416,81,93538,1,10,2:2:0:0:
318,102,93879,1,8,2:2:0:0:
239,162,94220,1,10,2:2:0:0:
239,162,94390,6,0,P|142:140|43:126,1,200,2|0,1:2|1:1,0:0:0:0:
1,34,95413,1,0,1:1:0:0:
96,1,95754,2,0,P|191:32|288:57,1,200,2|0,1:2|1:1,0:0:0:0:
483,15,97118,6,0,P|471:36|459:58,1,50,4|10,1:2|2:2,0:0:0:0:
424,96,97459,2,0,P|433:119|441:143,2,50,2|10|2,1:2|2:2|1:2,0:0:0:0:
375,87,97970,1,10,2:2:0:0:
289,147,98311,2,0,B|275:170|275:170|275:194,1,50,10|0,2:2|1:1,0:0:0:0:
297,238,98652,2,0,B|343:257|343:257|392:247,2,99.9999999999999,10|8|8,2:2|2:2|2:2,0:0:0:0:
197,231,99675,1,8,2:2:0:0:
122,296,100015,6,0,P|98:304|74:313,2,50,10|2|10,2:2|1:2|2:2,0:0:0:0:
163,324,100527,1,2,1:2:0:0:
163,324,100697,2,0,B|189:329|189:329|211:320,1,50,10|0,2:2|1:1,0:0:0:0:
258,302,101038,2,0,B|309:293|309:293|353:315,2,99.9999999999999,10|8|8,2:2|2:2|2:2,0:0:0:0:
163,324,102061,1,8,2:2:0:0:
87,259,102402,1,8,2:2:0:0:
87,259,102572,6,0,P|71:212|57:164,1,99.9999999999999,2|2,1:2|1:2,0:0:0:0:
26,125,103084,1,8,2:2:0:0:
26,125,103254,2,0,P|43:78|57:30,1,99.9999999999999,2|2,1:2|1:2,0:0:0:0:
156,11,103936,2,0,B|199:12|216:24|216:24|242:59,1,99.9999999999999,2|0,1:2|1:1,0:0:0:0:
254,103,104447,2,0,P|290:141|344:144,1,99.9999999999999,10|8,2:2|2:2,0:0:0:0:
417,99,105129,5,8,2:2:0:0:
417,99,105300,2,0,B|446:97|446:97|495:115|495:115|514:113,2,99.9999999999999,4|8|0,1:2|2:2|1:1,0:0:0:0:
337,40,106322,1,10,2:2:0:0:
254,103,106663,2,0,B|226:108|226:108|183:138|183:138|165:141,2,99.9999999999999,2|8|0,1:2|2:2|1:1,0:0:0:0:
339,156,107686,1,10,2:2:0:0:
300,247,108027,1,4,1:2:0:0:
256,192,108197,12,12,110754,1:2:0:0:
