osu file format v14

[General]
AudioFilename: audio.ogg
AudioLeadIn: 0
PreviewTime: 3201
Countdown: 0
SampleSet: Soft
StackLeniency: 0.3
Mode: 0
LetterboxInBreaks: 0
WidescreenStoryboard: 0

[Editor]
DistanceSpacing: 0.8
BeatDivisor: 4
GridSize: 32
TimelineZoom: 2.999999

[Metadata]
Title:Durak i Molniya
TitleUnicode:Дурак и Молния
Artist:RADIO TAPOK
ArtistUnicode:RADIO TAPOK
Creator:Mizujin
Version:A Way
Source:
Tags:-_Lenkon lenkon melleganol Gouuh LeomineXD leomine Mizujin -_Aqua AqUa_M1X rock russian punk русский панк рок cover кавер king and jester korol' i shut король и шут киш
BeatmapID:4117115
BeatmapSetID:1982473

[Difficulty]
HPDrainRate:5.4
CircleSize:4.3
OverallDifficulty:8.4
ApproachRate:9.2
SliderMultiplier:1.8
SliderTickRate:1

[Events]
//Background and Video events
0,0,"BG.jpg",0,0
//Break Periods
//Storyboard Layer 0 (Background)
//Storyboard Layer 1 (Fail)
//Storyboard Layer 2 (Pass)
//Storyboard Layer 3 (Foreground)
//Storyboard Layer 4 (Overlay)
//Storyboard Sound Samples

[TimingPoints]
300,340.909090909091,4,2,1,80,1,0
300,-93.4579439252336,4,2,1,80,0,0
1578,-100,4,2,1,5,0,0
1663,-93.4579439252336,4,2,1,80,0,0
2260,-100,4,2,1,5,0,0
2345,-93.4579439252336,4,2,1,80,0,0
3368,-270.27027027027,4,2,1,45,0,0
4390,-114.942528735632,4,2,1,65,0,0
6351,-100,4,2,1,5,0,0
6436,-114.942528735632,4,2,1,65,0,0
7373,-100,4,2,1,5,0,0
7459,-114.942528735632,4,2,1,65,0,0
11805,-100,4,2,1,5,0,0
11890,-114.942528735632,4,2,1,65,0,0
12828,-100,4,2,1,5,0,0
12913,-114.942528735632,4,2,1,65,0,0
17260,-100,4,2,1,5,0,0
17345,-114.942528735632,4,2,1,65,0,0
18282,-100,4,2,1,5,0,0
18368,-114.942528735632,4,2,1,65,0,0
20754,-212.765957446808,4,2,1,70,0,0
23481,-212.765957446808,4,2,1,75,0,0
24845,-78.7401574803149,4,2,1,85,0,1
25186,-93.4579439252336,4,2,1,85,0,1
25953,-100,4,2,1,5,0,1
26038,-93.4579439252336,4,2,1,85,0,1
27572,-78.7401574803149,4,2,1,85,0,1
27913,-93.4579439252336,4,2,1,85,0,1
28680,-100,4,2,1,5,0,1
28765,-93.4579439252336,4,2,1,85,0,1
30300,-78.7401574803149,4,2,1,85,0,1
30555,-100,4,2,1,5,0,1
30640,-78.7401574803149,4,2,1,85,0,1
30896,-100,4,2,1,5,0,1
30981,-93.4579439252336,4,2,1,85,0,1
31237,-100,4,2,1,5,0,1
31322,-93.4579439252336,4,2,1,85,0,1
31578,-100,4,2,1,5,0,1
31663,-93.4579439252336,4,2,1,85,0,1
33027,-93.4579439252336,4,2,1,75,0,0
35754,-93.4579439252336,4,2,1,45,0,0
36095,-270.27027027027,4,2,1,45,0,0
37118,-114.942528735632,4,2,1,65,0,0
39078,-100,4,2,1,5,0,0
39163,-114.942528735632,4,2,1,65,0,0
40101,-100,4,2,1,5,0,0
40186,-114.942528735632,4,2,1,65,0,0
44532,-100,4,2,1,5,0,0
44618,-114.942528735632,4,2,1,65,0,0
45555,-100,4,2,1,5,0,0
45640,-114.942528735632,4,2,1,65,0,0
49987,-100,4,2,1,5,0,0
50072,-114.942528735632,4,2,1,65,0,0
51010,-100,4,2,1,5,0,0
51095,-114.942528735632,4,2,1,65,0,0
53481,-212.765957446808,4,2,1,70,0,0
56209,-212.765957446808,4,2,1,75,0,0
57572,-78.7401574803149,4,2,1,85,0,1
57913,-93.4579439252336,4,2,1,85,0,1
58680,-100,4,2,1,5,0,1
58765,-93.4579439252336,4,2,1,85,0,1
60300,-78.7401574803149,4,2,1,85,0,1
60640,-93.4579439252336,4,2,1,85,0,1
61407,-100,4,2,1,5,0,1
61493,-93.4579439252336,4,2,1,85,0,1
63027,-78.7401574803149,4,2,1,85,0,1
63282,-100,4,2,1,5,0,1
63368,-78.7401574803149,4,2,1,85,0,1
63623,-100,4,2,1,5,0,1
63709,-93.4579439252336,4,2,1,85,0,1
63964,-100,4,2,1,5,0,1
64050,-93.4579439252336,4,2,1,85,0,1
64305,-100,4,2,1,5,0,1
64390,-93.4579439252336,4,2,1,85,0,1
65754,-93.4579439252336,4,2,1,75,0,0
68481,-212.765957446809,4,2,1,60,0,0
71209,-149.253731343283,4,2,1,65,0,0
72487,-100,4,2,1,5,0,0
72572,-149.253731343283,4,2,1,65,0,0
73851,-100,4,2,1,5,0,0
73936,-149.253731343283,4,2,1,65,0,0
76578,-100,4,2,1,5,0,0
76663,-114.942528735632,4,2,1,70,0,0
84845,-114.942528735632,4,2,1,75,0,0
85868,-212.765957446809,4,2,1,65,0,0
86123,-100,4,2,1,5,0,0
86209,-93.4579439252336,4,2,1,85,0,1
96521,-93.4579439252336,4,2,1,45,0,1
96606,-93.4579439252336,4,2,1,85,0,1
97118,-78.7401574803149,4,2,1,85,0,1
97459,-93.4579439252336,4,2,1,85,0,1
98226,-100,4,2,1,5,0,1
98311,-93.4579439252336,4,2,1,85,0,1
99845,-78.7401574803149,4,2,1,85,0,1
100186,-93.4579439252336,4,2,1,85,0,1
100953,-100,4,2,1,5,0,1
101038,-93.4579439252336,4,2,1,85,0,1
102572,-78.7401574803149,4,2,1,85,0,1
102828,-100,4,2,1,5,0,1
102913,-78.7401574803149,4,2,1,85,0,1
103169,-100,4,2,1,5,0,1
103254,-93.4579439252336,4,2,1,85,0,1
103510,-100,4,2,1,5,0,1
103595,-93.4579439252336,4,2,1,85,0,1
103851,-100,4,2,1,5,0,1
103936,-93.4579439252336,4,2,1,85,0,1
105300,-93.4579439252336,4,2,1,75,0,0
108027,-212.765957446809,4,2,1,60,0,0
110754,-212.765957446809,4,2,1,70,0,0
111436,-100,4,2,1,70,0,0

[Colours]
Combo1 : 188,88,88
Combo2 : 200,129,102
Combo3 : 214,171,120
Combo4 : 218,218,218
Combo5 : 139,139,139

[HitObjects]
512,43,300,6,0,B|433:61|433:61|421:96|421:96|349:113,1,192.599994122315,4|8,1:2|2:2,0:0:0:0:
188,236,811,1,2,2:2:0:0:
266,255,981,2,0,B|275:226|275:226|252:164,1,96.2999970611573,2|0,1:2|0:0,0:0:0:0:
120,32,1322,6,0,B|45:59|83:87|4:114,1,144.449995591736,8|0,2:2|0:0,0:0:0:0:
63,169,1663,1,0,1:1:0:0:
2,119,1834,1,2,2:2:0:0:
262,54,2004,6,0,P|331:74|401:91,1,144.449995591736,8|0,2:2|0:0,0:0:0:0:
466,128,2345,1,2,1:2:0:0:
427,22,2515,5,8,2:2:0:0:
320,196,2686,1,8,2:2:0:0:
474,310,2856,1,8,2:2:0:0:
406,182,3027,1,8,1:2:0:0:
64,363,3368,6,0,B|32:369|32:369|30:372|30:372|0:378,2,66.6000016259766,2|2|2,2:2|2:2|2:2,0:0:0:0:
124,310,4390,5,2,1:2:0:0:
54,270,4561,1,0,0:0:0:0:
196,352,4731,5,0,1:1:0:0:
269,319,4902,1,0,0:0:0:0:
132,152,5072,6,0,L|118:229,1,78.3000006571198,2|0,1:2|0:0,0:0:0:0:
231,167,5413,2,0,L|217:89,1,78.3000006571198,2|0,1:2|0:0,0:0:0:0:
121,234,5754,5,2,1:2:0:0:
269,319,5925,1,2,2:2:0:0:
331,268,6095,2,0,P|388:254|445:240,1,117.45000098568,2|0,1:2|0:0,0:0:0:0:
507,195,6436,5,2,1:2:0:0:
392,95,6606,2,0,P|353:86|316:75,1,78.3000006571198,2|0,2:2|1:1,0:0:0:0:
132,152,6947,5,2,2:2:0:0:
205,186,7118,2,0,P|233:138|197:97,1,117.45000098568,0|0,1:1|0:0,0:0:0:0:
149,42,7459,5,2,1:2:0:0:
21,209,7629,1,0,0:0:0:0:
70,273,7800,2,0,P|108:281|146:291,1,78.3000006571198,2|0,1:2|0:0,0:0:0:0:
369,354,8140,5,2,1:2:0:0:
302,310,8311,2,0,P|264:320|225:328,1,78.3000006571198,2|0,2:2|1:1,0:0:0:0:
503,11,8822,6,0,B|516:52|516:52|471:155,2,156.60000131424,2|2|2,1:2|1:2|1:2,0:0:0:0:
226,29,9845,6,0,P|264:39|302:47,1,78.3000006571198,2|0,1:2|0:0,0:0:0:0:
258,121,10186,2,0,P|220:110|182:102,1,78.3000006571198,0|0,1:1|0:0,0:0:0:0:
70,8,10526,5,2,1:2:0:0:
109,77,10697,1,0,0:0:0:0:
3,188,10867,5,2,1:2:0:0:
39,116,11038,1,0,0:0:0:0:
4,195,11209,5,2,1:2:0:0:
107,327,11380,1,2,2:2:0:0:
170,277,11550,2,0,B|227:264|227:264|228:261|228:261|283:249,1,117.45000098568,2|0,1:2|0:0,0:0:0:0:
359,261,11890,5,2,1:2:0:0:
205,141,12061,1,0,0:0:0:0:
153,201,12232,2,0,L|170:277,1,78.3000006571198,2|0,1:2|0:0,0:0:0:0:
316,164,12572,2,0,B|329:102|353:123|366:60,1,117.45000098568,2|0,1:2|0:0,0:0:0:0:
323,0,12914,5,0,1:1:0:0:
419,206,13084,2,0,P|407:243|397:281,1,78.3000006571198,2|0,2:2|1:1,0:0:0:0:
316,164,13425,1,2,2:2:0:0:
262,369,13595,5,0,1:1:0:0:
400,289,13765,1,2,2:2:0:0:
210,192,13936,5,0,1:1:0:0:
210,192,14277,6,0,P|142:218|156:289,2,156.60000131424,2|2|2,1:2|1:2|1:2,0:0:0:0:
272,143,15300,6,0,B|335:128|335:128|345:101|345:101|406:87,1,156.60000131424,2|2,1:2|1:2,0:0:0:0:
248,1,15811,1,0,0:0:0:0:
192,59,15981,2,0,L|178:136,1,78.3000006571198,2|2,1:2|2:2,0:0:0:0:
115,275,16322,2,0,L|101:197,1,78.3000006571198,0|2,1:1|2:2,0:0:0:0:
34,102,16663,5,0,1:1:0:0:
178,227,16834,1,2,2:2:0:0:
115,275,17004,2,0,P|57:287|0:300,1,117.45000098568,0|0,1:1|0:0,0:0:0:0:
0,227,17345,5,2,1:2:0:0:
161,339,17515,2,0,P|199:347|237:355,1,78.3000006571198,0|2,0:0|1:2,0:0:0:0:
450,251,17856,5,0,0:0:0:0:
377,216,18027,2,0,B|365:253|365:253|392:326,1,117.45000098568,2|0,1:2|0:0,0:0:0:0:
441,381,18368,5,2,1:2:0:0:
511,197,18538,1,0,0:0:0:0:
317,346,18709,1,2,1:2:0:0:
261,288,18880,6,0,P|253:249|244:211,1,78.3000006571198,2|0,2:2|1:1,0:0:0:0:
375,59,19220,2,0,P|365:97|357:135,1,78.3000006571198,2|0,2:2|1:1,0:0:0:0:
57,374,19731,5,0,1:1:0:0:
0,319,20072,6,0,P|5:247|76:241,1,156.60000131424,2|2,1:2|1:2,0:0:0:0:
432,253,20754,6,0,B|472:243|472:243|475:239|475:239|512:231,2,84.5999987091065,4|8|0,1:2|2:2|1:1,0:0:0:0:
359,218,21777,1,10,2:2:0:0:
404,152,22118,6,0,L|418:68,2,84.5999987091065,2|8|0,1:2|2:2|1:1,0:0:0:0:
359,218,23140,1,8,2:2:0:0:
33,32,23481,5,10,2:2:0:0:
202,134,23652,1,0,1:1:0:0:
58,274,23822,1,0,1:1:0:0:
209,132,23993,5,8,2:2:0:0:
0,209,24163,1,0,1:1:0:0:
206,354,24334,1,0,1:1:0:0:
123,126,24504,5,8,2:2:0:0:
123,126,24845,6,0,B|135:71|135:71|139:70|139:70|152:17,1,114.29999912796,4|10,1:2|2:2,0:0:0:0:
40,135,25186,1,2,1:2:0:0:
176,259,25356,1,10,2:2:0:0:
337,139,25527,1,2,1:2:0:0:
264,104,25697,2,0,B|249:141|249:141|292:236,1,144.449995591736,10|0,2:2|0:0,0:0:0:0:
352,290,26038,6,0,B|384:252|384:252|367:209,1,96.2999970611573,10|0,2:2|1:1,0:0:0:0:
198,367,26379,1,10,2:2:0:0:
131,325,26550,2,0,P|83:315|36:304,1,96.2999970611573,0|8,1:1|2:2,0:0:0:0:
230,218,26890,5,0,1:1:0:0:
263,300,27061,1,8,2:2:0:0:
122,216,27231,5,0,1:1:0:0:
230,80,27402,1,8,2:2:0:0:
405,250,27572,6,0,B|460:262|460:262|461:267|461:267|513:279,1,114.29999912796,0|10,1:1|2:2,0:0:0:0:
398,156,27913,1,2,1:2:0:0:
263,300,28084,1,10,2:2:0:0:
179,160,28254,1,2,1:2:0:0:
122,216,28425,2,0,B|45:230|79:272|2:288,1,144.449995591736,10|0,2:2|0:0,0:0:0:0:
48,355,28765,6,0,P|94:366|141:378,1,96.2999970611573,10|0,2:2|1:1,0:0:0:0:
348,299,29106,1,8,2:2:0:0:
305,231,29277,2,0,P|262:246|260:291,1,96.2999970611573,0|8,1:1|2:2,0:0:0:0:
403,376,29617,5,0,1:1:0:0:
512,286,29788,1,8,2:2:0:0:
328,81,29958,5,0,1:1:0:0:
396,218,30129,1,8,2:2:0:0:
184,359,30300,6,0,B|139:357|93:379|93:379|66:371|47:343|57:316,1,171.44999869194,2|0,1:2|0:0,0:0:0:0:
113,264,30640,6,0,B|88:234|99:183|99:183|81:234|40:241,1,171.44999869194,2|0,1:2|0:0,0:0:0:0:
173,208,30981,6,0,P|240:204|265:267,1,144.449995591736,2|0,1:2|0:0,0:0:0:0:
318,328,31322,6,0,P|388:345|457:365,1,144.449995591736,2|0,1:2|0:0,0:0:0:0:
512,310,31663,5,2,1:2:0:0:
512,170,31834,2,0,L|495:75,1,96.2999970611573,8|0,2:2|1:1,0:0:0:0:
331,0,32175,1,10,2:2:0:0:
489,73,32345,5,0,1:1:0:0:
301,192,32515,1,8,2:2:0:0:
250,112,32686,5,0,1:1:0:0:
444,240,32856,1,8,2:2:0:0:
217,375,33027,6,0,B|139:357|139:357|127:321|127:321|55:304,2,192.599994122315,4|8|0,1:2|2:2|1:1,0:0:0:0:
55,304,34050,5,10,2:2:0:0:
105,242,34220,1,0,0:0:0:0:
53,185,34390,6,0,B|34:90|34:90|31:90|31:90|13:-2,2,192.599994122315,2|8|0,1:2|2:2|1:1,0:0:0:0:
441,364,35413,5,10,2:2:0:0:
512,329,35584,1,0,0:0:0:0:
439,369,35754,5,2,2:2:0:0:
291,75,36095,6,0,L|302:9,2,66.6000016259766,2|2|2,2:2|2:2|2:2,0:0:0:0:
319,148,37118,5,2,1:2:0:0:
291,75,37288,1,0,0:0:0:0:
174,203,37459,5,0,1:1:0:0:
202,131,37629,1,0,0:0:0:0:
353,314,37800,6,0,P|391:321|429:330,1,78.3000006571198,2|0,1:2|0:0,0:0:0:0:
288,263,38140,2,0,P|249:271|211:279,1,78.3000006571198,2|0,1:2|0:0,0:0:0:0:
92,359,38481,5,2,1:2:0:0:
0,206,38652,1,2,2:2:0:0:
76,180,38822,2,0,B|84:215|84:215|46:287,1,117.45000098568,2|0,1:2|0:0,0:0:0:0:
15,356,39163,5,2,1:2:0:0:
211,278,39334,2,0,P|249:285|287:293,1,78.3000006571198,0|2,0:0|1:2,0:0:0:0:
512,296,39675,5,2,2:2:0:0:
470,230,39845,2,0,P|415:237|403:292,1,117.45000098568,0|0,1:1|0:0,0:0:0:0:
410,367,40186,5,0,1:1:0:0:
512,163,40356,1,0,0:0:0:0:
375,64,40527,1,2,1:2:0:0:
308,109,40698,6,0,P|269:117|231:126,1,78.3000006571198,2|0,2:2|1:1,0:0:0:0:
94,19,41038,2,0,P|132:28|170:36,1,78.3000006571198,2|0,2:2|1:1,0:0:0:0:
113,374,41550,6,0,P|47:348|65:279,2,156.60000131424,2|2|2,1:2|1:2|1:2,0:0:0:0:
76,201,42572,6,0,B|158:214|115:266|203:279,1,156.60000131424,2|0,1:2|1:1,0:0:0:0:
363,214,43084,1,0,0:0:0:0:
297,168,43254,2,0,P|258:177|220:185,1,78.3000006571198,0|2,1:1|2:2,0:0:0:0:
352,317,43595,5,0,1:1:0:0:
431,160,43765,1,2,2:2:0:0:
465,242,43936,5,0,1:1:0:0:
350,108,44106,1,0,0:0:0:0:
297,168,44277,2,0,P|239:181|182:194,1,117.45000098568,2|0,1:2|0:0,0:0:0:0:
121,237,44618,5,2,1:2:0:0:
0,80,44788,2,0,P|34:94|39:131,1,78.3000006571198,2|0,2:2|1:1,0:0:0:0:
0,283,45129,5,0,0:0:0:0:
49,345,45300,2,0,B|106:358|106:358|107:361|107:361|162:373,1,117.45000098568,2|0,1:2|0:0,0:0:0:0:
238,370,45640,5,0,1:1:0:0:
351,252,45811,1,0,0:0:0:0:
304,187,45981,2,0,P|296:148|288:110,1,78.3000006571198,2|2,1:2|2:2,0:0:0:0:
356,257,46322,5,0,1:1:0:0:
449,131,46493,1,2,2:2:0:0:
264,17,46663,5,0,1:1:0:0:
264,17,47004,6,0,P|188:35|111:52,2,156.60000131424,2|2|2,1:2|1:2|1:2,0:0:0:0:
331,61,48027,6,0,B|347:104|347:104|297:203,1,156.60000131424,2|2,1:2|1:2,0:0:0:0:
218,348,48538,1,0,0:0:0:0:
147,311,48709,2,0,P|109:301|70:293,1,78.3000006571198,2|0,1:2|0:0,0:0:0:0:
0,191,49050,2,0,P|38:182|76:173,1,78.3000006571198,2|2,1:2|2:2,0:0:0:0:
244,137,49390,5,0,1:1:0:0:
129,232,49561,1,2,2:2:0:0:
76,173,49731,2,0,P|65:115|55:57,1,117.45000098568,0|0,1:1|0:0,0:0:0:0:
113,3,50072,6,0,P|185:0|203:71,1,156.60000131424,2|2,1:2|1:2,0:0:0:0:
129,232,50584,1,0,0:0:0:0:
176,295,50754,6,0,B|236:313|214:335|276:353,1,117.45000098568,2|0,1:2|0:0,0:0:0:0:
347,368,51095,5,2,1:2:0:0:
474,241,51265,1,0,0:0:0:0:
313,110,51436,1,2,1:2:0:0:
263,172,51607,6,0,P|271:210|278:248,1,78.3000006571198,2|0,2:2|1:1,0:0:0:0:
416,105,51948,2,0,P|408:67|400:29,1,78.3000006571198,2|0,2:2|1:1,0:0:0:0:
157,372,52459,5,0,1:1:0:0:
95,322,52800,6,0,P|82:244|68:167,1,156.60000131424,2|0,1:2|1:1,0:0:0:0:
349,87,53481,6,0,B|340:127|340:127|342:131|342:131|333:168,2,84.5999987091065,4|8|0,1:2|2:2|1:1,0:0:0:0:
398,23,54504,1,10,2:2:0:0:
432,94,54845,6,0,B|455:105|455:105|512:89,2,84.5999987091065,4|8|0,1:2|2:2|1:1,0:0:0:0:
398,23,55868,1,8,2:2:0:0:
512,252,56209,5,10,2:2:0:0:
350,376,56379,1,0,1:1:0:0:
274,314,56550,1,0,1:1:0:0:
468,362,56720,5,8,2:2:0:0:
512,158,56890,1,0,1:1:0:0:
350,376,57061,1,0,1:1:0:0:
208,176,57231,5,8,2:2:0:0:
208,176,57572,6,0,B|154:163|154:163|152:159|152:159|99:146,1,114.29999912796,4|10,1:2|2:2,0:0:0:0:
209,272,57913,1,2,1:2:0:0:
127,69,58084,1,10,2:2:0:0:
19,246,58254,1,2,1:2:0:0:
78,301,58425,2,0,B|154:315|133:341|209:357,1,144.449995591736,10|0,2:2|0:0,0:0:0:0:
274,314,58765,6,0,P|254:272|208:271,1,96.2999970611573,10|0,2:2|1:1,0:0:0:0:
24,360,59106,1,10,2:2:0:0:
78,301,59277,2,0,P|87:253|97:206,1,96.2999970611573,0|8,1:1|2:2,0:0:0:0:
104,44,59618,5,0,1:1:0:0:
213,139,59788,1,8,2:2:0:0:
276,55,59959,5,0,1:1:0:0:
53,145,60129,1,8,2:2:0:0:
274,314,60300,6,0,B|308:325|308:325|381:299,1,114.29999912796,0|10,1:1|2:2,0:0:0:0:
509,155,60640,1,2,1:2:0:0:
305,234,60811,1,10,2:2:0:0:
444,366,60981,1,2,1:2:0:0:
485,297,61152,2,0,P|496:225|508:154,1,144.449995591736,10|0,2:2|0:0,0:0:0:0:
475,85,61493,6,0,P|439:55|397:73,1,96.2999970611573,10|0,2:2|1:1,0:0:0:0:
305,234,61834,1,8,2:2:0:0:
240,187,62004,2,0,P|192:176|145:166,1,96.2999970611573,0|8,1:1|2:2,0:0:0:0:
14,331,62345,5,0,1:1:0:0:
104,275,62515,1,8,2:2:0:0:
185,377,62686,5,0,1:1:0:0:
12,232,62856,1,8,2:2:0:0:
235,47,63027,6,0,B|261:11|332:0|358:67|322:119|286:84,1,171.44999869194,2|0,1:2|0:0,0:0:0:0:
294,94,63368,6,0,P|265:165|338:193,1,171.44999869194,2|0,1:2|0:0,0:0:0:0:
413,173,63709,6,0,B|434:203|456:230|456:230|430:258|412:288,1,144.449995591736,2|0,1:2|0:0,0:0:0:0:
339,321,64050,6,0,P|269:302|198:287,1,144.449995591736,2|0,1:2|0:0,0:0:0:0:
123,288,64390,5,2,1:2:0:0:
8,166,64561,2,0,P|-1:120|31:88,1,96.2999970611573,8|0,2:2|1:1,0:0:0:0:
191,161,64902,1,10,2:2:0:0:
153,363,65072,5,0,1:1:0:0:
94,159,65243,1,8,2:2:0:0:
262,320,65413,5,0,1:1:0:0:
338,93,65584,1,8,2:2:0:0:
123,288,65754,6,0,P|32:288|1:203,2,192.599994122315,4|8|0,1:2|2:2|1:1,0:0:0:0:
297,126,66777,6,0,P|250:115|203:102,1,96.2999970611573,10|0,2:2|0:0,0:0:0:0:
368,83,67118,6,0,B|387:131|387:131|326:258,2,192.599994122315,2|8|0,1:2|2:2|1:1,0:0:0:0:
205,306,68140,5,10,2:2:0:0:
247,374,68311,1,0,0:0:0:0:
322,347,68481,6,0,B|361:337|361:337|364:334|364:334|402:325,1,84.5999987091065,2|0,1:2|1:1,0:0:0:0:
512,266,69163,2,0,B|472:256|472:256|469:253|469:253|431:244,1,84.5999987091065,0|0,1:1|1:1,0:0:0:0:
187,10,69845,5,0,1:1:0:0:
191,20,70015,1,2,2:2:0:0:
137,98,70186,5,0,1:1:0:0:
146,78,70356,1,2,2:2:0:0:
202,144,70527,5,0,1:1:0:0:
134,183,70697,1,2,2:2:0:0:
21,121,70868,5,4,2:2:0:0:
21,121,71209,6,0,P|34:62|50:3,2,120.599994295349,2|0|0,1:2|1:1|1:1,0:0:0:0:
53,257,72231,2,0,P|94:269|128:241,1,90.4499957215121,2|0,1:2|0:0,0:0:0:0:
198,206,72572,6,0,P|243:171|293:199,2,120.599994295349,2|0|0,1:2|1:1|1:1,0:0:0:0:
172,308,73595,2,0,P|216:318|259:329,1,90.4499957215121,2|0,1:2|0:0,0:0:0:0:
333,370,73936,6,0,B|362:333|362:333|343:262,1,120.599994295349,2|0,1:2|1:1,0:0:0:0:
437,175,74618,2,0,B|407:211|407:211|426:282,1,120.599994295349,0|0,1:1|1:1,0:0:0:0:
221,152,75300,6,0,L|102:133,2,120.599994295349,2|2|0,1:2|1:2|1:1,0:0:0:0:
306,87,76322,2,0,L|396:72,1,90.4499957215121,2|0,1:2|0:0,0:0:0:0:
441,7,76663,6,0,P|510:24|497:94,1,156.60000131424,4|10,1:2|2:2,0:0:0:0:
361,220,77175,1,2,2:2:0:0:
298,170,77345,2,0,P|259:161|221:152,1,78.3000006571198,2|0,1:2|0:0,0:0:0:0:
363,226,77686,5,10,2:2:0:0:
436,195,77856,2,0,P|474:185|512:177,1,78.3000006571198,2|0,2:2|1:1,0:0:0:0:
382,101,78197,1,0,0:0:0:0:
482,259,78368,5,8,2:2:0:0:
482,259,78709,6,0,B|491:274|491:274|473:332,1,78.3000006571198,2|0,1:2|0:0,0:0:0:0:
388,366,79050,2,0,B|378:350|378:350|396:292,1,78.3000006571198,10|2,2:2|2:2,0:0:0:0:
247,105,79390,6,0,B|163:119|205:168|117:182,1,156.60000131424,2|8,1:2|2:2,0:0:0:0:
0,79,79902,1,2,2:2:0:0:
53,18,80072,2,0,P|82:41|80:79,1,78.3000006571198,0|2,1:1|2:2,0:0:0:0:
0,226,80413,5,8,2:2:0:0:
52,288,80583,2,0,L|65:365,1,78.3000006571198,2|0,2:2|1:1,0:0:0:0:
187,250,80924,1,0,0:0:0:0:
249,301,81095,6,0,B|324:317|324:317|326:321|326:321|399:337,2,156.60000131424,10|2|10,2:2|1:2|2:2,0:0:0:0:
434,168,82118,5,2,1:2:0:0:
504,205,82288,1,0,0:0:0:0:
422,251,82459,5,8,2:2:0:0:
512,205,82629,1,2,2:2:0:0:
394,76,82800,5,0,1:1:0:0:
434,168,82970,1,0,0:0:0:0:
295,253,83140,5,10,2:2:0:0:
341,154,83311,1,0,0:0:0:0:
177,9,83481,5,2,1:2:0:0:
246,42,83652,1,0,0:0:0:0:
105,200,83822,5,8,2:2:0:0:
208,162,83993,1,2,2:2:0:0:
29,128,84163,5,0,1:1:0:0:
212,246,84334,1,0,0:0:0:0:
19,331,84504,5,10,2:2:0:0:
127,83,84675,1,0,0:0:0:0:
261,378,84845,5,10,2:2:0:0:
261,378,85868,6,0,L|269:313,1,63.4499990318299,4|0,1:2|0:0,0:0:0:0:
212,246,86209,5,4,1:2:0:0:
443,357,86379,1,10,2:2:0:0:
502,302,86550,2,0,P|493:254|484:207,1,96.2999970611573,2|10,1:2|2:2,0:0:0:0:
366,33,86890,5,0,1:1:0:0:
488,203,87060,1,10,2:2:0:0:
409,266,87231,1,2,1:2:0:0:
512,80,87402,1,10,2:2:0:0:
455,14,87572,6,0,B|405:-2|365:50|396:59|354:112|298:93,1,192.599994122315,0|0,1:1|1:1,0:0:0:0:
139,12,88084,1,10,2:2:0:0:
83,69,88254,2,0,P|73:116|64:163,1,96.2999970611573,0|8,1:1|2:2,0:0:0:0:
219,296,88595,2,0,P|210:248|200:201,1,96.2999970611573,2|10,1:2|2:2,0:0:0:0:
72,299,88936,5,0,1:1:0:0:
251,379,89106,1,10,2:2:0:0:
323,343,89277,2,0,P|347:304|322:266,1,96.2999970611573,2|10,1:2|2:2,0:0:0:0:
144,148,89618,5,0,1:1:0:0:
219,296,89788,1,10,2:2:0:0:
170,359,89959,2,0,P|122:368|75:378,1,96.2999970611573,2|10,1:2|2:2,0:0:0:0:
258,173,90300,6,0,B|334:190|334:190|351:227|351:227|423:243,1,192.599994122315,2|0,1:2|1:1,0:0:0:0:
512,101,90812,1,10,2:2:0:0:
452,48,90982,2,0,L|357:64,1,96.2999970611573,0|8,1:1|2:2,0:0:0:0:
193,25,91322,2,0,L|98:8,1,96.2999970611573,0|8,1:1|2:2,0:0:0:0:
258,173,91663,5,0,1:1:0:0:
125,335,91834,1,10,2:2:0:0:
63,283,92004,2,0,P|53:235|44:188,1,96.2999970611573,2|10,1:2|2:2,0:0:0:0:
131,342,92345,6,0,P|171:364|211:342,1,96.2999970611573,0|10,1:1|2:2,0:0:0:0:
277,277,92686,2,0,P|317:254|357:277,1,96.2999970611573,2|10,1:2|2:2,0:0:0:0:
466,376,93027,6,0,B|487:283|487:283|491:282|491:282|512:191,1,192.599994122315,0|0,1:1|1:1,0:0:0:0:
406,7,93539,1,10,2:2:0:0:
344,59,93709,2,0,P|296:68|249:78,1,96.2999970611573,0|8,1:1|2:2,0:0:0:0:
89,190,94050,2,0,P|136:199|183:209,1,96.2999970611573,0|10,1:1|2:2,0:0:0:0:
319,355,94390,6,0,P|401:321|384:234,1,192.599994122315,2|0,1:2|1:1,0:0:0:0:
234,149,94902,1,8,2:2:0:0:
183,209,95072,2,0,P|173:256|163:303,1,96.2999970611573,0|8,1:1|2:2,0:0:0:0:
239,144,95413,2,0,P|228:96|219:49,1,96.2999970611573,0|10,1:1|2:2,0:0:0:0:
0,14,95754,6,0,P|21:101|111:111,1,192.599994122315,2|0,1:2|1:1,0:0:0:0:
321,5,96265,1,8,2:2:0:0:
504,198,96436,5,0,1:1:0:0:
491,191,96521,1,8,2:2:0:0:
474,192,96607,1,0,1:1:0:0:
453,201,96692,1,0,1:0:0:0:
436,235,96777,1,0,1:1:0:0:
424,281,96862,1,0,1:1:0:0:
374,306,96947,1,8,2:2:0:0:
308,290,97032,1,8,2:2:0:0:
268,225,97118,6,0,B|255:171|255:171|251:169|251:169|238:116,1,114.29999912796,4|10,1:2|2:2,0:0:0:0:
355,218,97459,1,2,1:2:0:0:
184,346,97629,1,10,2:2:0:0:
317,132,97800,1,2,1:2:0:0:
246,96,97970,2,0,P|175:82|104:67,1,144.449995591736,10|0,2:2|0:0,0:0:0:0:
31,100,98311,6,0,P|-1:132|13:175,1,96.2999970611573,10|0,2:2|1:1,0:0:0:0:
111,379,98652,1,10,2:2:0:0:
184,346,98822,2,0,P|231:336|278:326,1,96.2999970611573,0|8,1:1|2:2,0:0:0:0:
512,315,99163,5,0,1:1:0:0:
360,230,99334,1,8,2:2:0:0:
395,373,99504,5,0,1:1:0:0:
512,195,99675,1,8,2:2:0:0:
277,46,99845,6,0,B|223:33|223:33|221:29|221:29|168:16,1,114.29999912796,0|10,1:1|2:2,0:0:0:0:
0,143,100186,1,2,1:2:0:0:
163,13,100356,1,10,2:2:0:0:
277,251,100527,1,2,1:2:0:0:
205,287,100697,2,0,B|191:248|191:248|232:153,1,144.449995591736,10|0,2:2|0:0,0:0:0:0:
307,121,101038,6,0,L|401:137,1,96.2999970611573,10|0,2:2|1:1,0:0:0:0:
512,287,101379,1,8,2:2:0:0:
443,329,101550,2,0,P|410:296|420:250,1,96.2999970611573,0|8,1:1|2:2,0:0:0:0:
512,118,101890,5,0,1:1:0:0:
486,189,102061,1,8,2:2:0:0:
314,36,102231,5,0,1:1:0:0:
367,206,102402,1,8,2:2:0:0:
209,378,102572,6,0,B|116:358|165:302|73:283,1,171.44999869194,2|0,1:2|0:0,0:0:0:0:
0,294,102913,6,0,P|68:254|37:182,1,171.44999869194,2|0,1:2|0:0,0:0:0:0:
0,113,103254,6,0,B|8:106|8:106|138:73,1,144.449995591736,2|0,1:2|0:0,0:0:0:0:
201,27,103595,6,0,P|234:85|188:135,1,144.449995591736,2|0,1:2|0:0,0:0:0:0:
138,73,103936,5,2,1:2:0:0:
320,2,104106,2,0,L|415:19,1,96.2999970611573,8|0,2:2|1:1,0:0:0:0:
512,136,104447,1,10,2:2:0:0:
286,294,104618,5,0,1:1:0:0:
420,110,104788,1,8,2:2:0:0:
512,330,104959,5,0,1:1:0:0:
297,114,105129,1,8,2:2:0:0:
119,343,105300,6,0,P|30:353|0:269,2,192.599994122315,4|8|0,1:2|2:2|1:1,0:0:0:0:
94,251,106322,2,0,P|46:260|-1:270,1,96.2999970611573,10|0,2:2|0:0,0:0:0:0:
129,165,106663,6,0,P|223:185|317:203,2,192.599994122315,2|8|0,1:2|2:2|1:1,0:0:0:0:
454,10,107686,2,0,P|495:28|493:73,1,96.2999970611573,10|0,2:2|0:0,0:0:0:0:
447,150,108027,6,0,B|438:188|438:188|440:193|440:193|431:231,1,84.5999987091065,4|0,1:2|1:1,0:0:0:0:
394,373,108709,2,0,B|385:335|385:335|387:330|387:330|379:292,1,84.5999987091065,0|0,1:1|1:1,0:0:0:0:
252,187,109390,6,0,B|213:195|213:195|210:200|210:200|172:208,1,84.5999987091065,0|0,1:1|1:1,0:0:0:0:
80,276,110072,2,0,B|41:267|41:267|38:262|38:262|0:254,1,84.5999987091065,0|8,1:1|2:2,0:0:0:0:
102,61,110754,6,0,B|134:17|134:17|121:74|121:74|124:77|124:77|113:129,1,169.199997418213,12|0,1:2|0:0,0:0:0:0:
