osu file format v14

[General]
AudioFilename: audio.mp3
AudioLeadIn: 0
PreviewTime: 20176
Countdown: 0
SampleSet: Normal
StackLeniency: 0.7
Mode: 1
LetterboxInBreaks: 0
WidescreenStoryboard: 1

[Editor]
DistanceSpacing: 2
BeatDivisor: 4
GridSize: 8
TimelineZoom: 1

[Metadata]
Title:sh0ut
TitleUnicode:sh0ut
Artist:R3 Music Box
ArtistUnicode:R3 Music Box
Creator:Bastian
Version:Holopsicon
Source:Re:CREATORS
Tags:SawanoHiroyuki[nZk]:Tielle & Gemie anime op opening 2 altair shout -Joni- Seija
BeatmapID:2033921
BeatmapSetID:938168

[Difficulty]
HPDrainRate:7
CircleSize:2.5
OverallDifficulty:4
ApproachRate:6
SliderMultiplier:1.6
SliderTickRate:1

[Events]
//Background and Video events
0,0,"Konachan.com - 248525 2girls dress gloves gray_hair gunpuku_no_himegimi hat long_hair military pink_hair re_creators ribbons song_ren sword uniform weapon.jpg",0,0
//Break Periods
//Storyboard Layer 0 (Background)
//Storyboard Layer 1 (Fail)
//Storyboard Layer 2 (Pass)
//Storyboard Layer 3 (Foreground)
//Storyboard Sound Samples

[TimingPoints]
70,638.297872340426,4,1,0,45,1,0
20495,-100,4,1,0,60,0,1
30070,-100,4,1,0,60,0,0
30708,-100,4,1,0,60,0,1
40921,-100,4,1,0,60,0,0
44325,638.297872340426,4,1,0,45,1,0
44644,685.714285714286,4,1,0,45,1,0
45331,588.235294117647,4,1,0,45,1,0
45919,425.531914893617,4,1,0,45,1,0
45919,-161.290322580645,4,1,0,45,0,0
46344,638.297872340426,4,1,0,45,1,0

[Colours]
Combo1 : 126,104,234
Combo2 : 192,192,192
Combo3 : 255,128,128
Combo4 : 128,255,128

[HitObjects]
245,275,70,5,8,0:0:0:0:
200,174,1665,1,8,0:0:0:0:
360,144,1984,1,8,0:0:0:0:
227,19,2304,1,0,0:0:0:0:
200,174,2623,1,8,0:0:0:0:
280,40,2942,1,0,0:0:0:0:
382,91,3261,1,0,0:0:0:0:
176,309,4218,1,8,0:0:0:0:
168,68,4697,1,0,0:0:0:0:
279,200,5176,1,8,0:0:0:0:
120,168,5495,1,8,0:0:0:0:
115,84,5814,1,0,0:0:0:0:
475,258,7091,1,0,0:0:0:0:
319,221,7410,1,0,0:0:0:0:
295,171,7729,1,8,0:0:0:0:
152,248,8048,1,0,0:0:0:0:
168,168,8208,1,0,0:0:0:0:
96,146,8367,1,8,0:0:0:0:
112,64,8846,1,0,0:0:0:0:
296,150,9006,1,8,0:0:0:0:
200,24,9325,1,8,0:0:0:0:
167,187,9804,1,0,0:0:0:0:
379,153,10282,1,8,0:0:0:0:
226,164,11878,1,8,0:0:0:0:
108,55,12197,1,8,0:0:0:0:
264,72,12516,1,0,0:0:0:0:
226,164,12835,1,8,0:0:0:0:
82,92,13155,1,0,0:0:0:0:
226,164,13474,1,0,0:0:0:0:
173,117,14431,1,0,0:0:0:0:
446,283,15070,1,0,0:0:0:0:
56,109,15389,1,0,0:0:0:0:
216,144,15708,1,8,0:0:0:0:
56,109,16027,1,8,0:0:0:0:
452,162,17304,1,8,0:0:0:0:
296,176,17623,1,0,0:0:0:0:
253,135,17942,1,8,0:0:0:0:
128,232,18261,1,0,0:0:0:0:
192,184,18421,1,0,0:0:0:0:
54,112,18580,1,8,0:0:0:0:
253,128,19218,1,8,0:0:0:0:
120,40,19538,1,8,0:0:0:0:
152,160,20016,1,0,0:0:0:0:
291,145,20495,1,0,0:0:0:0:
192,272,20814,1,0,0:0:0:0:
200,192,20974,1,0,0:0:0:0:
100,206,21133,1,8,0:0:0:0:
216,96,21452,1,0,0:0:0:0:
290,152,21772,1,8,0:0:0:0:
48,160,22250,1,8,0:0:0:0:
289,152,22729,1,8,0:0:0:0:
199,108,23048,1,0,0:0:0:0:
320,216,23367,1,0,0:0:0:0:
240,216,23527,1,0,0:0:0:0:
199,108,23687,1,8,0:0:0:0:
360,112,24006,1,0,0:0:0:0:
199,108,24325,1,8,0:0:0:0:
296,328,24804,1,8,0:0:0:0:
248,96,25282,1,8,0:0:0:0:
391,160,25601,1,0,0:0:0:0:
232,184,25921,1,0,0:0:0:0:
203,91,26240,1,8,0:0:0:0:
203,91,26878,1,8,0:0:0:0:
362,211,27516,1,8,0:0:0:0:
181,124,28155,1,8,0:0:0:0:
328,64,28474,1,0,0:0:0:0:
297,154,28952,1,0,0:0:0:0:
147,169,29431,1,8,0:0:0:0:
291,145,30708,1,0,0:0:0:0:
152,56,31027,1,0,0:0:0:0:
184,128,31187,1,0,0:0:0:0:
100,206,31346,1,8,0:0:0:0:
256,248,31665,1,0,0:0:0:0:
290,152,31985,1,8,0:0:0:0:
48,144,32463,1,8,0:0:0:0:
289,152,32942,1,8,0:0:0:0:
199,108,33261,1,0,0:0:0:0:
232,264,33580,1,0,0:0:0:0:
264,192,33740,1,0,0:0:0:0:
199,108,33900,1,8,0:0:0:0:
352,64,34218,1,0,0:0:0:0:
199,108,34538,1,8,0:0:0:0:
272,336,35016,1,8,0:0:0:0:
200,104,35495,1,8,0:0:0:0:
391,160,35814,1,0,0:0:0:0:
224,16,36133,1,0,0:0:0:0:
203,91,36453,1,8,0:0:0:0:
203,91,37091,1,8,0:0:0:0:
362,211,37729,1,8,0:0:0:0:
181,124,38368,1,8,0:0:0:0:
40,56,38687,1,0,0:0:0:0:
297,154,39165,1,0,0:0:0:0:
147,169,39644,1,8,0:0:0:0:
262,124,40921,1,8,0:0:0:0:
104,80,41240,1,8,0:0:0:0:
63,102,41399,1,8,0:0:0:0:
184,208,41718,1,0,0:0:0:0:
312,122,42038,1,8,0:0:0:0:
288,360,42516,1,0,0:0:0:0:
144,152,42835,1,8,0:0:0:0:
296,200,43155,1,0,0:0:0:0:
312,122,43474,1,8,0:0:0:0:
152,96,43793,1,8,0:0:0:0:
184,201,43952,1,8,0:0:0:0:
296,48,44325,1,0,0:0:0:0:
380,156,44644,1,8,0:0:0:0:
224,112,44986,1,0,0:0:0:0:
186,205,45329,1,8,0:0:0:0:
240,120,45919,1,0,0:0:0:0:
495,132,46344,1,0,0:0:0:0:
256,192,46982,12,0,48897,0:0:0:0:
