osu file format v14

[General]
AudioFilename: audio.mp3
AudioLeadIn: 0
PreviewTime: 20176
Countdown: 0
SampleSet: Soft
StackLeniency: 0.7
Mode: 2
LetterboxInBreaks: 0
WidescreenStoryboard: 0

[Editor]
DistanceSpacing: 2
BeatDivisor: 4
GridSize: 8
TimelineZoom: 1

[Metadata]
Title:sh0ut
TitleUnicode:sh0ut
Artist:R3 Music Box
ArtistUnicode:R3 Music Box
Creator:Bastian
Version:Cup
Source:Re:CREATORS
Tags:SawanoHiroyuki[nZk]:Tielle & Gemie anime op opening 2 altair shout -Joni- Seija
BeatmapID:1959683
BeatmapSetID:938168

[Difficulty]
HPDrainRate:4
CircleSize:2.5
OverallDifficulty:6
ApproachRate:6
SliderMultiplier:1
SliderTickRate:1

[Events]
//Background and Video events
0,0,"Konachan.com - 248525 2girls dress gloves gray_hair gunpuku_no_himegimi hat long_hair military pink_hair re_creators ribbons song_ren sword uniform weapon.jpg",0,0
//Break Periods
//Storyboard Layer 0 (Background)
//Storyboard Layer 1 (Fail)
//Storyboard Layer 2 (Pass)
//Storyboard Layer 3 (Foreground)
//Storyboard Sound Samples

[TimingPoints]
70,638.297872340426,4,2,1,65,1,0
20495,-100,4,2,1,65,0,1
30070,-100,4,2,1,65,0,0
30708,-100,4,2,1,65,0,1
40921,-100,4,2,1,65,0,0
44325,638.297872340426,4,2,1,65,1,0
44644,685.714285714286,4,2,1,65,1,0
45331,588.235294117647,4,2,1,65,1,0
45919,425.531914893617,4,2,1,65,1,0
46344,638.297872340426,4,2,1,65,1,0

[Colours]
Combo1 : 126,104,234
Combo2 : 192,192,192
Combo3 : 255,128,128
Combo4 : 128,255,128

[HitObjects]
156,288,70,6,0,L|35:288,2,100,6|0|0,0:0|0:0|0:0,0:0:0:0:
300,288,1665,2,0,L|418:288,1,100
254,288,2623,6,0,L|141:288,1,100,10|0,0:0|0:0,0:0:0:0:
333,288,3899,1,0,0:0:0:0:
432,288,4218,2,0,L|511:236,2,75,0|0|6,0:0|0:0|0:0,0:0:0:0:
331,288,5495,5,0,0:0:0:0:
231,288,5814,1,0,0:0:0:0:
31,288,6452,2,0,L|145:288,1,100,0|2,0:0|0:0,0:0:0:0:
231,288,7410,1,0,0:0:0:0:
331,288,7729,6,0,L|243:288,1,75,6|0,0:0|0:0,0:0:0:0:
205,288,8367,1,10,0:0:0:0:
54,288,8846,1,0,0:0:0:0:
104,288,9006,2,0,L|170:288,1,50,2|2,0:0|0:0,0:0:0:0:
304,288,9804,1,0,0:0:0:0:
154,288,10282,6,0,L|154:173,1,100,6|0,0:0|0:0,0:0:0:0:
354,188,11559,1,0,0:0:0:0:
230,188,11878,2,0,L|124:188,1,100,2|0,0:0|0:0,0:0:0:0:
250,188,12835,6,0,L|316:188,2,50,10|0|0,0:0|0:0|0:0,0:0:0:0:
52,188,14112,1,2,0:0:0:0:
153,188,14431,2,0,L|258:188,1,100
152,188,15389,6,0,L|83:188,2,50,6|0|0,0:0|0:0|0:0,0:0:0:0:
351,188,16665,1,2,0:0:0:0:
150,188,17304,1,10,0:0:0:0:
249,188,17623,1,0,0:0:0:0:
351,188,17942,6,0,L|235:188,1,100,6|10,0:0|0:0,0:0:0:0:
51,188,19218,2,0,L|51:55,1,125,2|0,0:0|0:0,0:0:0:0:
201,63,20495,5,6,0:0:0:0:
300,63,20814,2,0,L|363:63,2,50
175,63,21772,2,0,L|81:63,2,75,2|2|0,0:0|0:0|0:0,0:0:0:0:
300,66,23048,5,6,0:0:0:0:
399,66,23367,2,0,L|458:66,2,50,0|10|0,0:0|0:0|0:0,0:0:0:0:
300,66,24325,2,0,L|216:66,1,75,2|2,0:0|0:0,0:0:0:0:
74,66,25282,1,0,0:0:0:0:
173,66,25601,6,0,L|241:66,2,50,6|0|10,0:0|0:0|0:0,0:0:0:0:
373,66,26878,2,0,L|373:180,1,100,2|2,0:0|0:0,0:0:0:0:
172,166,28155,6,0,L|102:166,1,50,6|0,0:0|0:0,0:0:0:0:
271,166,28952,2,0,L|352:166,1,75,10|0,0:0|0:0,0:0:0:0:
145,166,30070,2,0,P|115:200|150:233,1,100,2|4,0:0|0:0,0:0:0:0:
246,232,31027,6,0,L|301:232,2,50,0|10|0,0:0|0:0|0:0,0:0:0:0:
146,232,31984,2,0,L|59:232,2,75,2|2|0,0:0|0:0|0:0,0:0:0:0:
246,232,33261,5,6,0:0:0:0:
345,232,33580,2,0,L|399:232,2,50,0|10|0,0:0|0:0|0:0,0:0:0:0:
244,232,34538,2,0,L|167:232,2,75,2|2|0,0:0|0:0|0:0,0:0:0:0:
144,232,35814,6,0,L|144:131,1,100,6|10,0:0|0:0,0:0:0:0:
344,132,37091,2,0,L|238:132,1,100,2|2,0:0|0:0,0:0:0:0:
443,132,38367,6,0,L|443:200,1,50,6|0,0:0|0:0,0:0:0:0:
292,182,39165,1,10,0:0:0:0:
141,182,39644,2,0,L|141:286,1,100,2|0,0:0|0:0,0:0:0:0:
341,282,40921,6,0,L|416:282,1,75,6|0,0:0|0:0,0:0:0:0:
215,282,42038,2,0,L|136:282,1,75,10|0,0:0|0:0,0:0:0:0:
239,282,42835,2,0,L|304:282,1,50,2|0,0:0|0:0,0:0:0:0:
188,282,43474,6,0,L|188:201,1,75,6|0,0:0|0:0,0:0:0:0:
389,207,44644,2,0,L|454:207,2,50,10|0|2,0:0|0:0|0:0,0:0:0:0:
111,207,45919,1,2,0:0:0:0:
330,207,46344,5,6,0:0:0:0:
256,192,46984,12,0,48897,0:0:0:0:
