osu file format v14

[General]
AudioFilename: audio.mp3
AudioLeadIn: 0
PreviewTime: 0
Countdown: 1
SampleSet: Soft
StackLeniency: 0.7
Mode: 0
LetterboxInBreaks: 0
WidescreenStoryboard: 1

[Editor]
DistanceSpacing: 0.8
BeatDivisor: 4
GridSize: 4
TimelineZoom: 1

[Metadata]
Title:if ~Hitori Omou~
TitleUnicode:if~ひとり思う~
Artist:R3 Music Box
ArtistUnicode:R3 Music Box
Creator:Kitsuka
Version:Normal
Source:ファイアーエムブレムif
Tags:fire emblem fates renka lost in thoughts all alone azura aqua
BeatmapID:2486727
BeatmapSetID:1016104

[Difficulty]
HPDrainRate:3
CircleSize:3
OverallDifficulty:3
ApproachRate:5
SliderMultiplier:1.4
SliderTickRate:1

[Events]
//Background and Video events
0,0,"BG.jpg",0,0
//Break Periods
//Storyboard Layer 0 (Background)
//Storyboard Layer 1 (Fail)
//Storyboard Layer 2 (Pass)
//Storyboard Layer 3 (Foreground)
//Storyboard Layer 4 (Overlay)
//Storyboard Sound Samples

[TimingPoints]
127,535.714285714286,4,2,0,30,1,0
10521,535.714285714286,4,2,0,30,1,0
17757,535.714285714286,4,2,0,30,1,0
30652,535.714285714286,4,2,0,30,1,0

[HitObjects]
71,61,127,6,0,P|153:69|224:99,1,140
304,143,1198,2,0,L|376:127,1,70
427,117,1734,2,0,P|419:199|389:270,1,140
296,298,2805,2,0,L|224:314,1,70
173,324,3341,2,0,P|181:242|211:171,1,140
258,92,4412,1,0,0:0:0:0:
150,61,4948,2,0,L|7:92,1,140
64,190,6019,1,0,0:0:0:0:
122,285,6555,6,0,P|187:308|257:313,1,140
367,289,7627,2,0,L|351:217,1,70
338,166,8163,2,0,P|420:158|491:128,1,140
388,65,9234,1,0,0:0:0:0:
276,72,9769,1,0,0:0:0:0:
118,78,10521,1,0,0:0:0:0:
118,78,10788,2,0,L|134:150,1,70
145,201,11324,1,0,0:0:0:0:
172,309,11860,2,0,L|315:278,1,140
418,255,12931,6,0,P|410:173|380:102,1,140
283,154,14002,2,0,L|211:170,1,70
159,181,14538,2,0,P|151:99|121:28,1,140
32,97,15609,2,0,L|48:169,1,70
60,219,16145,2,0,P|65:288|88:354,1,140
179,288,17216,1,0,0:0:0:0:
273,348,17757,2,0,L|409:318,1,140
470,224,18828,1,0,0:0:0:0:
413,125,19364,5,0,0:0:0:0:
196,68,20435,1,0,0:0:0:0:
196,68,20703,2,0,L|127:52,1,70
59,269,22042,1,0,0:0:0:0:
59,269,22310,2,0,L|127:284,1,70
237,304,23114,2,0,P|306:299|372:276,1,140
295,193,24185,2,0,L|265:57,1,140
376,62,25257,1,0,0:0:0:0:
443,151,25792,6,0,P|466:216|471:286,1,140
364,320,26863,2,0,L|292:336,1,70
240,346,27399,2,0,P|232:264|202:193,1,140
158,111,28471,2,0,L|86:95,1,70
60,219,29006,2,0,P|65:288|88:354,1,140
179,288,30078,1,0,0:0:0:0:
273,348,30652,2,0,L|409:318,1,140
470,224,31723,1,0,0:0:0:0:
413,125,32259,5,0,0:0:0:0:
196,68,33330,1,0,0:0:0:0:
196,68,33598,2,0,L|127:52,1,70
59,269,34937,1,0,0:0:0:0:
59,269,35205,2,0,L|127:284,1,70
237,304,36009,2,0,P|306:299|372:276,1,140
295,193,37080,2,0,L|265:57,1,140
156,87,38152,1,0,0:0:0:0:
69,157,38687,6,0,P|46:222|41:292,1,140
149,320,39758,2,0,L|221:336,1,70
272,344,40294,2,0,P|264:262|234:191,1,140
182,114,41366,2,0,L|254:98,1,70
305,91,41901,2,0,P|374:96|440:119,1,140
383,215,42973,1,0,0:0:0:0:
309,309,43547,2,0,L|173:279,1,140
64,249,44618,1,0,0:0:0:0:
136,174,45116,5,0,0:0:0:0:
345,93,46187,1,0,0:0:0:0:
345,93,46455,2,0,L|414:77,1,70
370,297,47794,1,0,0:0:0:0:
370,297,48062,2,0,L|302:282,1,70
242,186,48866,2,0,P|237:117|214:51,1,140
118,109,49937,2,0,L|88:245,1,140
165,327,51009,1,0,0:0:0:0:
275,309,51544,5,0,0:0:0:0:
428,146,52615,1,0,0:0:0:0:
428,146,52883,2,0,L|412:77,1,70
188,57,54222,1,0,0:0:0:0:
256,192,54759,12,0,58509,0:0:0:0:
