osu file format v14

[General]
AudioFilename: audio.mp3
AudioLeadIn: 0
PreviewTime: -1
Countdown: 1
SampleSet: Soft
StackLeniency: 0.7
Mode: 0
LetterboxInBreaks: 0
WidescreenStoryboard: 0

[Editor]
DistanceSpacing: 1.2
BeatDivisor: 4
GridSize: 4
TimelineZoom: 1

[Metadata]
Title:Zoutelande
TitleUnicode:Zoutelande
Artist:R3 Music Box
ArtistUnicode:R3 Music Box
Creator:Muukeh
Version:Nuchter en Warm
Source:blof
Tags:ik ben blij dat je hier bent blof paskal jakobsen geike arnaert frankfurt oder
BeatmapID:1849472
BeatmapSetID:884870

[Difficulty]
HPDrainRate:4.5
CircleSize:6.3
OverallDifficulty:4.5
ApproachRate:5.7
SliderMultiplier:1.4
SliderTickRate:1

[Events]
//Background and Video events
0,0,"zoutelande a.jpg",0,0
//Break Periods
//Storyboard Layer 0 (Background)
//Storyboard Layer 1 (Fail)
//Storyboard Layer 2 (Pass)
//Storyboard Layer 3 (Foreground)
//Storyboard Sound Samples

[TimingPoints]
39.8066704366938,606.060606060606,4,2,0,26,1,0
1554,606.060606060606,4,2,0,26,1,0
38827,618.556701030928,4,2,0,25,1,0
39136,625,4,2,0,24,1,0
39448,631.578947368421,4,2,0,23,1,0
39763,638.297872340426,4,2,0,22,1,0
40082,645.161290322581,4,2,0,21,1,0
40404,652.173913043478,4,2,0,20,1,0
40730,666.666666666667,4,2,0,19,1,0
41063,705.882352941176,4,2,0,18,1,0
41415,750,4,2,0,17,1,0
41790,800,4,2,0,16,1,0
42190,857.142857142857,4,2,0,15,1,0
42618,923.076923076923,4,2,0,14,1,0
43079,1090.90909090909,4,2,0,13,1,0
43624,750,4,2,0,12,1,0

[Colours]
Combo1 : 222,0,0
Combo2 : 222,222,222
Combo3 : 0,0,222
Combo4 : 255,222,0

[HitObjects]
146,235,39,6,0,P|195:244|229:244,1,70
304,320,645,2,0,P|269:316|234:321,1,70
170,352,1251,1,0,0:0:0:0:
62,290,1554,6,0,P|82:256|87:148,1,140,2|0,0:0|0:0,0:0:0:0:
46,93,2464,1,0,0:0:0:0:
46,93,2766,2,0,P|89:105|193:83,1,140,2|0,0:0|0:0,0:0:0:0:
181,89,3978,6,0,P|172:152|220:215,1,140,2|0,0:0|0:0,0:0:0:0:
292,44,5494,1,0,0:0:0:0:
260,106,5797,1,0,0:0:0:0:
300,162,6100,1,0,0:0:0:0:
369,168,6403,6,0,B|408:171|430:146|430:146|467:157|497:129,1,140,2|0,0:0|0:0,0:0:0:0:
447,79,7312,1,0,0:0:0:0:
378,95,7615,2,0,P|365:133|421:229,1,140,2|0,0:0|0:0,0:0:0:0:
462,257,8524,1,0,0:0:0:0:
462,257,8827,6,0,L|317:244,1,140,2|0,0:0|0:0,0:0:0:0:
259,274,9735,2,0,P|225:263|187:268,1,70
153,325,10342,1,0,0:0:0:0:
222,332,10645,1,0,0:0:0:0:
282,367,10948,1,0,0:0:0:0:
338,326,11251,6,0,P|357:294|451:287,1,140,2|0,0:0|0:0,0:0:0:0:
322,230,12463,5,2,0:0:0:0:
267,186,12766,5,2,0:0:0:0:
339,110,13220,5,0,0:0:0:0:
256,45,13675,6,0,P|200:70|122:47,1,140,2|0,0:0|0:0,0:0:0:0:
157,187,14887,1,0,0:0:0:0:
95,221,15190,2,0,P|105:184|93:150,2,70,2|0|0,0:0|0:0|0:0,0:0:0:0:
46,271,16099,6,0,L|193:251,1,140,2|0,0:0|0:0,0:0:0:0:
303,325,17311,2,0,L|233:337,1,70,2|0,0:0|0:0,0:0:0:0:
165,352,17917,1,0,0:0:0:0:
165,352,18220,1,0,0:0:0:0:
114,303,18523,6,0,P|172:281|230:324,1,140,2|0,0:0|0:0,0:0:0:0:
439,327,20038,1,0,0:0:0:0:
462,260,20341,1,0,0:0:0:0:
424,200,20644,1,0,0:0:0:0:
354,190,20947,6,0,P|342:127|398:146,1,140,2|0,0:0|0:0,0:0:0:0:
424,200,21857,1,0,0:0:0:0:
383,257,22160,2,0,P|319:252|263:191,1,140,2|0,0:0|0:0,0:0:0:0:
263,60,23372,6,0,P|222:106|143:116,2,140,2|0|0,0:0|0:0|0:0,0:0:0:0:
263,60,24887,1,0,0:0:0:0:
197,35,25190,1,0,0:0:0:0:
133,64,25493,1,0,0:0:0:0:
67,40,25796,6,0,L|76:189,1,140,2|0,0:0|0:0,0:0:0:0:
63,248,26705,1,0,0:0:0:0:
128,222,27008,2,0,P|177:214|237:281,1,140,2|0,0:0|0:0,0:0:0:0:
236,273,27917,1,0,0:0:0:0:
166,281,28220,6,0,L|195:119,1,140,2|0,0:0|0:0,0:0:0:0:
229,84,29129,1,0,0:0:0:0:
296,65,29432,1,0,0:0:0:0:
335,122,29735,2,0,P|359:94|366:57,2,70
288,174,30644,6,0,L|429:146,1,140,2|0,0:0|0:0,0:0:0:0:
490,22,31857,1,2,0:0:0:0:
425,146,32463,1,0,0:0:0:0:
484,272,33069,5,2,0:0:0:0:
493,341,33372,2,0,P|463:339|431:316,1,70,2|0,0:0|0:0,0:0:0:0:
392,257,33978,1,0,0:0:0:0:
325,236,34281,1,0,0:0:0:0:
268,277,34584,2,0,P|256:244|264:202,2,70,2|0|0,0:0|0:0|0:0,0:0:0:0:
241,341,35493,6,0,P|239:275|179:238,1,140,2|0,0:0|0:0,0:0:0:0:
153,375,36705,2,0,L|177:308,1,70,2|0,0:0|0:0,0:0:0:0:
116,273,37311,2,0,L|107:197,1,70
41,180,37917,6,0,P|67:114|29:52,1,140,2|0,0:0|0:0,0:0:0:0:
36,57,38827,6,0,L|108:48,1,70,2|0,0:0|0:0,0:0:0:0:
173,62,39448,6,0,P|207:52|242:59,1,70,2|0,0:0|0:0,0:0:0:0:
264,123,40082,6,0,P|287:149|329:162,1,70,2|0,0:0|0:0,0:0:0:0:
387,154,40730,5,2,0:0:0:0:
419,211,41063,5,0,0:0:0:0:
387,268,41415,5,2,0:0:0:0:
321,270,41790,5,0,0:0:0:0:
281,217,42190,5,2,0:0:0:0:
216,226,42618,5,2,0:0:0:0:
194,287,43079,5,2,0:0:0:0:
248,373,43624,5,2,0:0:0:0:
258,347,43811,1,2,0:0:0:0:
268,320,43999,1,2,0:0:0:0:
256,192,44186,12,0,46624,0:0:0:0:
