osu file format v14

[General]
AudioFilename: audio.mp3
AudioLeadIn: 0
PreviewTime: -1
Countdown: 1
SampleSet: Soft
StackLeniency: 0.7
Mode: 0
LetterboxInBreaks: 0
WidescreenStoryboard: 1

[Editor]
DistanceSpacing: 1.2
BeatDivisor: 4
GridSize: 4
TimelineZoom: 1

[Metadata]
Title:Zoutelande
TitleUnicode:Zoutelande
Artist:R3 Music Box
ArtistUnicode:R3 Music Box
Creator:Muukeh
Version:Normaal
Source:blof
Tags:ik ben blij dat je hier bent blof paskal jakobsen geike arnaert frankfurt oder
BeatmapID:1850195
BeatmapSetID:884870

[Difficulty]
HPDrainRate:4
CircleSize:4
OverallDifficulty:4
ApproachRate:4
SliderMultiplier:1.4
SliderTickRate:1

[Events]
//Background and Video events
0,0,"zoutelande a.jpg",0,0
//Break Periods
//Storyboard Layer 0 (Background)
//Storyboard Layer 1 (Fail)
//Storyboard Layer 2 (Pass)
//Storyboard Layer 3 (Foreground)
//Storyboard Sound Samples

[TimingPoints]
39.8066704366938,606.060606060606,4,2,0,26,1,0
1554,606.060606060606,4,2,0,26,1,0
38827,618.556701030928,4,2,0,25,1,0
39136,625,4,2,0,24,1,0
39448,631.578947368421,4,2,0,23,1,0
39763,638.297872340426,4,2,0,22,1,0
40082,645.161290322581,4,2,0,21,1,0
40404,652.173913043478,4,2,0,20,1,0
40730,666.666666666667,4,2,0,19,1,0
41063,705.882352941176,4,2,0,18,1,0
41415,750,4,2,0,17,1,0
41790,800,4,2,0,16,1,0
42190,857.142857142857,4,2,0,15,1,0
42618,923.076923076923,4,2,0,14,1,0
43079,1090.90909090909,4,2,0,13,1,0
43624,750,4,2,0,12,1,0

[Colours]
Combo1 : 222,0,0
Combo2 : 222,222,222
Combo3 : 0,0,222
Combo4 : 255,222,0

[HitObjects]
229,326,39,6,0,P|264:318|305:319,1,70
376,287,645,2,0,P|411:299|460:298,2,70
308,235,1554,6,0,P|294:192|326:103,1,140,2|0,0:0|0:0,0:0:0:0:
399,68,2463,1,0,0:0:0:0:
399,68,2766,2,0,L|249:57,1,140,2|0,0:0|0:0,0:0:0:0:
107,128,3978,6,0,L|246:138,1,140,2|0,0:0|0:0,0:0:0:0:
434,306,5493,2,0,P|469:296|507:295,2,70
358,343,6402,6,0,P|325:319|214:325,1,140,2|0,0:0|0:0,0:0:0:0:
154,356,7311,1,0,0:0:0:0:
154,356,7614,2,0,L|188:209,1,140,2|0,0:0|0:0,0:0:0:0:
210,139,8523,1,0,0:0:0:0:
210,139,8826,1,2,0:0:0:0:
210,139,10341,5,0,0:0:0:0:
210,139,10644,2,0,P|178:153|130:153,1,70
78,102,11250,6,0,P|106:133|69:218,2,140,2|0|2,0:0|0:0|0:0,0:0:0:0:
23,38,12766,2,0,P|71:25|123:38,1,105,2|0,0:0|0:0,0:0:0:0:
205,134,13675,6,0,P|266:161|345:152,1,140,2|0,0:0|0:0,0:0:0:0:
490,85,14887,1,0,0:0:0:0:
490,85,15190,2,0,L|470:17,1,70,2|0,0:0|0:0,0:0:0:0:
405,71,15796,1,0,0:0:0:0:
405,71,16099,6,0,L|447:212,1,140,2|0,0:0|0:0,0:0:0:0:
361,350,17311,2,0,P|352:315|363:280,1,70,2|0,0:0|0:0,0:0:0:0:
290,238,17917,2,0,P|265:262|232:272,1,70
160,227,18523,6,0,P|90:226|34:267,1,140,2|0,0:0|0:0,0:0:0:0:
275,342,20038,2,0,P|242:354|200:351,2,70
346,297,20947,6,0,L|325:150,1,140,2|0,0:0|0:0,0:0:0:0:
305,76,21857,1,0,0:0:0:0:
305,76,22160,2,0,P|273:97|168:74,1,140,2|0,0:0|0:0,0:0:0:0:
15,128,23372,6,0,P|76:122|149:162,1,140,2|0,0:0|0:0,0:0:0:0:
340,315,24887,2,0,L|414:298,1,70
488,274,25493,1,0,0:0:0:0:
488,274,25796,6,0,P|433:270|380:204,1,140,2|0,0:0|0:0,0:0:0:0:
371,124,26705,1,0,0:0:0:0:
371,124,27008,2,0,L|315:256,1,140,2|0,0:0|0:0,0:0:0:0:
276,326,27917,1,0,0:0:0:0:
276,326,28220,6,0,P|212:299|152:326,1,140,2|0,0:0|0:0,0:0:0:0:
210,266,29129,2,0,L|205:190,1,70
136,148,29735,2,0,L|141:72,2,70
71,197,30644,6,0,P|139:179|209:198,3,140,2|0|2|0,0:0|0:0|0:0|0:0,0:0:0:0:
272,350,33069,5,2,0:0:0:0:
272,350,33372,1,2,0:0:0:0:
109,308,33978,2,0,L|84:230,1,70
141,178,34584,1,2,0:0:0:0:
141,178,34887,2,0,L|145:106,1,70
96,39,35493,6,0,P|145:25|220:69,1,140,2|0,0:0|0:0,0:0:0:0:
294,216,36705,2,0,P|328:225|364:221,1,70,2|0,0:0|0:0,0:0:0:0:
438,186,37311,2,0,P|474:195|505:223,1,70
430,264,37917,6,0,L|367:134,1,140,2|0,0:0|0:0,0:0:0:0:
170,135,40730,6,0,P|205:131|243:134,1,70,2|0,0:0|0:0,0:0:0:0:
275,203,41415,6,0,P|235:208|200:204,1,70,2|0,0:0|0:0,0:0:0:0:
138,246,42190,6,0,P|132:279|133:315,1,70,2|2,0:0|0:0,0:0:0:0:
184,372,43079,5,2,0:0:0:0:
311,335,43624,6,0,P|329:333|345:333,2,35,2|2|2,0:0|0:0|0:0,0:0:0:0:
256,192,44186,12,0,46624,0:0:0:0:
