osu file format v14

[General]
AudioFilename: audio.mp3
AudioLeadIn: 0
PreviewTime: 14353
Countdown: 0
SampleSet: Normal
StackLeniency: 1
Mode: 1
LetterboxInBreaks: 0
WidescreenStoryboard: 0

[Editor]
Bookmarks: 6171
DistanceSpacing: 1
BeatDivisor: 4
GridSize: 32
TimelineZoom: 0.8999996

[Metadata]
Title:Zen Zen Zense
TitleUnicode:前前前世
Artist:R3 Music Box
ArtistUnicode:R3 Music Box
Creator:Melissa
Version:Muzukashii
Source:君の名は。
Tags:kimi no na wa ha radwimps your name toybox cover Instrumental Anime
BeatmapID:2268496
BeatmapSetID:1084773

[Difficulty]
HPDrainRate:8.5
CircleSize:2
OverallDifficulty:4
ApproachRate:0
SliderMultiplier:1.4
SliderTickRate:1

[Events]
//Background and Video events
0,0,"41807ef5697d4562be1c1c2b73208b3f.jpg",0,-50
//Break Periods
//Storyboard Layer 0 (Background)
//Storyboard Layer 1 (Fail)
//Storyboard Layer 2 (Pass)
//Storyboard Layer 3 (Foreground)
//Storyboard Layer 4 (Overlay)
//Storyboard Sound Samples

[TimingPoints]
717,454.545454545455,4,1,0,60,1,0
32995,508.474576271186,4,1,0,55,1,8
32995,-89.4454382826476,4,1,0,55,0,0
33503,476.190476190476,4,1,0,50,1,0
33503,-95.5109837631328,4,1,0,50,0,0
33979,555.555555555556,4,1,0,45,1,8
33979,-81.8330605564648,4,1,0,45,0,0
34534,571.428571428571,4,1,0,40,1,8
34534,-79.5544948289578,4,1,0,40,0,0
35106,618.556701030928,4,1,0,35,1,8
35106,-73.5294117647059,4,1,0,35,0,0
35724,641.711229946524,4,1,0,30,1,8
35724,-70.871722182849,4,1,0,30,0,0
36044,1428.57142857143,4,1,0,25,1,0
36044,-31.8268618714195,4,1,0,25,0,0

[HitObjects]
256,192,717,5,8,0:0:0:0:
256,192,1626,1,8,0:0:0:0:
258,177,2080,1,0,0:0:0:0:
256,192,2307,1,8,0:0:0:0:
256,192,2535,1,8,0:0:0:0:
256,192,2762,1,0,0:0:0:0:
256,192,3217,1,0,0:0:0:0:
256,192,3671,1,8,0:0:0:0:
256,192,3898,1,0,0:0:0:0:
256,192,4353,1,8,0:0:0:0:
256,192,4807,1,8,0:0:0:0:
256,192,5262,1,8,0:0:0:0:
256,192,5489,1,8,0:0:0:0:
256,192,5717,1,8,0:0:0:0:
256,192,5944,1,0,0:0:0:0:
256,192,6853,1,8,0:0:0:0:
256,192,7080,1,0,0:0:0:0:
256,192,7535,1,0,0:0:0:0:
260,200,7762,1,8,0:0:0:0:
256,192,8217,1,8,0:0:0:0:
256,192,8444,1,0,0:0:0:0:
256,192,8898,1,8,0:0:0:0:
256,192,9353,1,0,0:0:0:0:
256,192,9580,1,8,0:0:0:0:
254,183,10035,1,8,0:0:0:0:
256,192,10262,1,0,0:0:0:0:
256,192,10717,1,0,0:0:0:0:
252,192,10944,1,8,0:0:0:0:
256,192,11171,1,0,0:0:0:0:
256,192,11626,1,8,0:0:0:0:
258,182,12080,1,0,0:0:0:0:
256,192,12307,1,8,0:0:0:0:
256,192,12762,1,8,0:0:0:0:
256,192,13217,1,0,0:0:0:0:
256,192,13898,1,8,0:0:0:0:
256,192,14353,1,0,0:0:0:0:
256,192,15262,1,8,0:0:0:0:
256,192,16171,1,8,0:0:0:0:
256,192,16626,1,0,0:0:0:0:
245,187,16853,1,8,0:0:0:0:
256,192,17080,1,8,0:0:0:0:
256,192,17307,1,0,0:0:0:0:
256,192,17762,1,0,0:0:0:0:
251,181,18217,1,8,0:0:0:0:
256,192,18444,1,0,0:0:0:0:
256,192,18898,1,8,0:0:0:0:
256,192,19353,1,8,0:0:0:0:
256,192,19580,1,8,0:0:0:0:
256,192,20035,1,0,0:0:0:0:
256,192,20489,1,0,0:0:0:0:
256,192,21398,1,8,0:0:0:0:
256,192,21626,1,0,0:0:0:0:
256,192,22080,1,0,0:0:0:0:
260,200,22307,1,8,0:0:0:0:
256,192,22762,1,8,0:0:0:0:
256,192,22989,1,8,0:0:0:0:
256,192,23444,5,0,0:0:0:0:
256,192,23898,1,0,0:0:0:0:
256,192,24126,1,8,0:0:0:0:
256,192,24580,1,8,0:0:0:0:
256,192,24807,1,0,0:0:0:0:
256,192,25262,1,8,0:0:0:0:
256,192,25717,1,0,0:0:0:0:
256,192,25944,1,8,0:0:0:0:
256,192,26398,1,8,0:0:0:0:
256,192,26626,1,0,0:0:0:0:
256,192,27080,1,8,0:0:0:0:
256,192,27535,1,0,0:0:0:0:
256,192,27989,1,8,0:0:0:0:
252,191,28444,1,8,0:0:0:0:
262,188,28671,1,0,0:0:0:0:
255,191,28898,1,8,0:0:0:0:
256,192,29353,1,0,0:0:0:0:
256,192,29580,1,8,0:0:0:0:
256,184,30035,1,8,0:0:0:0:
256,192,30262,1,8,0:0:0:0:
256,192,30717,1,0,0:0:0:0:
256,192,31171,1,0,0:0:0:0:
256,192,31398,1,8,0:0:0:0:
256,192,31853,1,8,0:0:0:0:
256,192,32080,1,8,0:0:0:0:
256,192,32535,1,0,0:0:0:0:
256,192,32995,1,8,0:0:0:0:
256,192,33249,1,0,0:0:0:0:
256,192,33979,1,0,0:0:0:0:
256,192,34534,1,8,0:0:0:0:
256,192,35106,1,0,0:0:0:0:
256,192,35724,1,0,0:0:0:0:
256,192,35884,1,0,0:0:0:0:
256,192,36044,1,8,0:0:0:0:
