osu file format v14

[General]
AudioFilename: audio.mp3
AudioLeadIn: 0
PreviewTime: 0
Countdown: 0
SampleSet: Soft
StackLeniency: 0.7
Mode: 1
LetterboxInBreaks: 0
EpilepsyWarning: 1
WidescreenStoryboard: 1

[Editor]
DistanceSpacing: 1
BeatDivisor: 8
GridSize: 32
TimelineZoom: 1

[Metadata]
Title:Zen Zen Zense
TitleUnicode:前前前世
Artist:R3 Music Box
ArtistUnicode:R3 Music Box
Creator:-_-Nico-_-
Version:Oni
Source:君の名は。
Tags:kimi no na wa ha radwimps your name toybox cover
BeatmapID:1437916
BeatmapSetID:657092

[Difficulty]
HPDrainRate:6
CircleSize:2
OverallDifficulty:6
ApproachRate:8
SliderMultiplier:1.50239990386962
SliderTickRate:1

[Events]
//Background and Video events
0,0,"BG.jpg",0,0
//Break Periods
//Storyboard Layer 0 (Background)
//Storyboard Layer 1 (Fail)
//Storyboard Layer 2 (Pass)
//Storyboard Layer 3 (Foreground)
//Storyboard Sound Samples

[TimingPoints]
699,454.545454545455,4,2,1,50,1,0
699,-100,4,2,1,50,0,1
6153,-100,4,2,1,50,0,0
15244,-100,4,2,1,50,0,1
33483,-102.040816326531,4,2,1,50,0,1
33994,-104.166666666667,4,2,1,50,0,1
34505,-106.382978723404,4,2,1,50,0,1
35074,-108.695652173913,4,2,1,50,0,1
35699,-111.111111111111,4,2,1,50,0,1
35870,-113.636363636364,4,2,1,50,0,1
36039,-116.279069767442,4,2,1,50,0,0

[Colours]
Combo1 : 255,0,0
Combo2 : 0,0,255
Combo3 : 0,0,255
Combo4 : 0,128,255
Combo5 : 0,128,255
Combo6 : 255,255,0
Combo7 : 255,255,0
Combo8 : 255,0,0

[HitObjects]
256,192,17,5,2,0:0:0:0:
256,192,244,1,2,0:0:0:0:
256,192,471,1,2,0:0:0:0:
256,192,699,1,0,0:0:0:0:
256,192,1153,1,0,0:0:0:0:
256,192,1608,1,0,0:0:0:0:
256,192,2062,1,2,0:0:0:0:
256,192,2289,1,2,0:0:0:0:
256,192,2517,1,0,0:0:0:0:
256,192,2744,1,2,0:0:0:0:
256,192,3199,1,0,0:0:0:0:
256,192,3653,1,2,0:0:0:0:
256,192,3880,1,2,0:0:0:0:
256,192,4108,1,2,0:0:0:0:
256,192,4335,1,0,0:0:0:0:
256,192,4562,1,0,0:0:0:0:
256,192,4789,1,2,0:0:0:0:
256,192,5017,1,2,0:0:0:0:
256,192,5244,1,0,0:0:0:0:
256,192,5471,1,2,0:0:0:0:
256,192,5699,1,0,0:0:0:0:
256,192,5926,1,2,0:0:0:0:
256,192,6153,1,0,0:0:0:0:
256,192,6835,1,2,0:0:0:0:
256,192,7062,1,2,0:0:0:0:
256,192,7289,1,2,0:0:0:0:
256,192,7517,1,0,0:0:0:0:
256,192,7744,1,2,0:0:0:0:
256,192,8199,1,2,0:0:0:0:
256,192,8426,1,0,0:0:0:0:
256,192,8653,1,2,0:0:0:0:
256,192,8880,1,0,0:0:0:0:
256,192,9108,1,0,0:0:0:0:
256,192,9335,1,2,0:0:0:0:
256,192,9562,1,0,0:0:0:0:
256,192,10017,1,0,0:0:0:0:
256,192,10244,1,0,0:0:0:0:
256,192,10471,1,2,0:0:0:0:
256,192,10699,1,2,0:0:0:0:
256,192,10926,1,0,0:0:0:0:
256,192,11153,1,2,0:0:0:0:
256,192,11608,1,2,0:0:0:0:
256,192,12062,1,0,0:0:0:0:
256,192,12289,1,2,0:0:0:0:
256,192,12744,1,2,0:0:0:0:
256,192,13199,1,0,0:0:0:0:
256,192,14562,1,2,0:0:0:0:
256,192,14789,1,2,0:0:0:0:
256,192,15017,1,2,0:0:0:0:
256,192,15244,1,0,0:0:0:0:
256,192,15699,1,0,0:0:0:0:
256,192,16153,1,0,0:0:0:0:
256,192,16608,1,2,0:0:0:0:
256,192,16835,1,0,0:0:0:0:
256,192,17062,1,0,0:0:0:0:
256,192,17289,1,2,0:0:0:0:
256,192,17744,1,0,0:0:0:0:
256,192,18199,1,2,0:0:0:0:
256,192,18426,1,0,0:0:0:0:
256,192,18653,1,0,0:0:0:0:
256,192,18880,1,2,0:0:0:0:
256,192,19335,1,2,0:0:0:0:
256,192,19562,1,2,0:0:0:0:
256,192,20017,1,0,0:0:0:0:
256,192,20471,1,0,0:0:0:0:
256,192,21380,1,2,0:0:0:0:
256,192,21608,1,2,0:0:0:0:
256,192,21835,1,2,0:0:0:0:
256,192,22062,1,0,0:0:0:0:
256,192,22289,1,0,0:0:0:0:
256,192,22744,1,2,0:0:0:0:
256,192,22971,1,2,0:0:0:0:
256,192,23199,1,0,0:0:0:0:
256,192,23426,1,0,0:0:0:0:
256,192,23653,1,2,0:0:0:0:
256,192,23880,1,0,0:0:0:0:
256,192,24108,1,2,0:0:0:0:
256,192,24562,1,0,0:0:0:0:
256,192,24789,1,0,0:0:0:0:
256,192,25017,1,2,0:0:0:0:
256,192,25244,1,0,0:0:0:0:
256,192,25471,1,0,0:0:0:0:
256,192,25699,1,2,0:0:0:0:
256,192,25926,1,0,0:0:0:0:
256,192,26153,1,2,0:0:0:0:
256,192,26380,1,0,0:0:0:0:
256,192,26608,1,0,0:0:0:0:
256,192,27062,1,2,0:0:0:0:
256,192,27517,1,0,0:0:0:0:
256,192,27971,1,2,0:0:0:0:
256,192,28426,1,0,0:0:0:0:
256,192,28653,1,2,0:0:0:0:
256,192,28880,1,2,0:0:0:0:
256,192,29335,1,2,0:0:0:0:
256,192,29562,1,0,0:0:0:0:
256,192,30017,1,0,0:0:0:0:
256,192,30244,1,0,0:0:0:0:
256,192,30471,1,2,0:0:0:0:
256,192,30699,1,2,0:0:0:0:
256,192,31153,1,0,0:0:0:0:
256,192,31380,1,2,0:0:0:0:
256,192,31835,1,0,0:0:0:0:
256,192,32062,1,0,0:0:0:0:
256,192,32289,1,2,0:0:0:0:
256,192,32517,1,2,0:0:0:0:
256,192,32744,1,2,0:0:0:0:
256,192,32971,1,0,0:0:0:0:
256,192,33199,1,0,0:0:0:0:
256,192,33483,1,2,0:0:0:0:
256,192,33710,1,0,0:0:0:0:
256,192,33994,1,2,0:0:0:0:
256,192,34505,1,2,0:0:0:0:
256,192,35074,1,2,0:0:0:0:
256,192,35699,1,2,0:0:0:0:
256,192,35869,1,2,0:0:0:0:
256,192,36039,1,2,0:0:0:0:
