osu file format v14

[General]
AudioFilename: audio.mp3
AudioLeadIn: 0
PreviewTime: 0
Countdown: 0
SampleSet: Normal
StackLeniency: 0.7
Mode: 2
LetterboxInBreaks: 0
WidescreenStoryboard: 0

[Editor]
DistanceSpacing: 1
BeatDivisor: 4
GridSize: 8
TimelineZoom: 1.7

[Metadata]
Title:Zen Zen Zense
TitleUnicode:前前前世
Artist:R3 Music Box
ArtistUnicode:R3 Music Box
Creator:-Hex-
Version:Salad
Source:君の名は。
Tags:kimi no na wa ha radwimps your name cover skycreeper
BeatmapID:1306869
BeatmapSetID:620051

[Difficulty]
HPDrainRate:4
CircleSize:3
OverallDifficulty:6.5
ApproachRate:6.5
SliderMultiplier:1.6
SliderTickRate:1

[Events]
//Background and Video events
0,0,"BG-desu.jpg",0,0
//Break Periods
//Storyboard Layer 0 (Background)
//Storyboard Layer 1 (Fail)
//Storyboard Layer 2 (Pass)
//Storyboard Layer 3 (Foreground)
//Storyboard Sound Samples

[TimingPoints]
717,454.545454545455,4,1,1,25,1,0
32989,508.474576271186,4,1,1,30,1,0
33497,476.190476190476,4,1,1,30,1,0
33973,555.555555555556,4,1,1,30,1,0
34528,571.428571428571,4,1,1,18,1,0
35100,618.556701030928,4,1,1,13,1,0
35718,641.711229946524,4,1,1,13,1,0
36038,1428.57142857143,4,1,1,18,1,0
36395,-100,4,1,1,5,0,0

[Colours]
Combo1 : 255,0,128
Combo2 : 0,0,255
Combo3 : 255,128,64

[HitObjects]
160,192,35,6,0,L|72:192,2,80,0|0|0,0:0|0:0|0:0,0:0:0:0:
384,192,717,1,4,0:3:0:0:
200,192,1171,1,0,0:0:0:0:
360,192,1626,1,2,0:0:0:0:
160,192,2080,6,0,L|80:192,1,80,0|0,0:0|0:0,0:0:0:0:
8,192,2535,1,0,0:0:0:0:
80,192,2762,1,0,0:0:0:0:
304,192,3217,1,2,0:0:0:0:
176,192,3671,6,0,L|96:192,2,80,0|0|0,0:0|0:0|0:0,0:0:0:0:
384,192,4353,2,0,L|464:192,2,80,4|0|0,0:0|0:0|0:0,0:0:0:0:
288,192,5035,6,0,L|256:112,1,80,0|2,0:0|0:0,0:0:0:0:
360,96,5489,2,0,L|448:96,2,80,0|0|0,0:0|0:0|0:0,0:0:0:0:
264,96,6171,1,0,0:0:0:0:
136,176,6853,5,0,0:0:0:0:
72,176,7080,1,2,0:0:0:0:
152,176,7307,2,0,L|240:176,1,80,0|0,0:0|0:0,0:0:0:0:
432,184,7762,1,0,0:0:0:0:
384,192,8217,6,0,L|440:120,1,80,0|0,0:0|0:0,0:0:0:0:
488,40,8671,2,0,L|384:40,1,80,0|2,0:0|0:0,0:0:0:0:
320,32,9126,1,0,0:0:0:0:
208,32,9353,2,0,L|296:32,1,80,0|0,0:0|0:0,0:0:0:0:
96,224,10035,6,0,L|24:144,1,80,0|0,0:0|0:0,0:0:0:0:
136,128,10489,2,0,L|240:128,1,80,0|2,0:0|0:0,0:0:0:0:
304,128,10944,2,0,L|384:64,1,80,0|0,0:0|0:0,0:0:0:0:
40,96,11626,6,0,L|200:96,1,160,4|0,0:0|0:0,0:0:0:0:
104,160,12307,1,2,0:0:0:0:
312,160,12762,1,0,0:0:0:0:
136,152,13217,2,0,P|24:232|128:344,1,320,0|0,0:0|0:0,0:0:0:0:
344,200,14580,6,0,L|456:200,2,80,0|0|0,0:0|0:0|0:0,0:0:0:0:
128,192,15262,1,4,0:3:0:0:
336,192,15716,1,0,0:0:0:0:
152,192,16171,1,2,0:0:0:0:
392,216,16626,6,0,L|400:128,1,80,0|0,0:0|0:0,0:0:0:0:
288,216,17080,2,0,L|280:128,1,80,0|0,0:0|0:0,0:0:0:0:
112,160,17762,1,2,0:0:0:0:
296,152,18217,6,0,L|384:152,2,80,0|0|0,0:0|0:0|0:0,0:0:0:0:
80,152,18898,1,4,0:0:0:0:
256,152,19353,2,0,L|344:152,1,80,0|2,0:0|0:0,0:0:0:0:
88,152,20035,1,0,0:0:0:0:
416,168,20489,2,0,P|480:120|448:48,1,160,0|0,0:0|0:0,0:0:0:0:
232,200,21398,6,0,L|200:120,1,80,0|2,0:0|0:0,0:0:0:0:
112,120,21853,1,0,0:0:0:0:
208,120,22080,1,0,0:0:0:0:
432,120,22307,1,0,0:0:0:0:
304,192,22762,6,0,L|216:152,1,80,0|0,0:0|0:0,0:0:0:0:
320,88,23217,1,0,0:0:0:0:
416,88,23444,1,2,0:0:0:0:
312,88,23671,2,0,L|224:88,2,80,0|0|0,0:0|0:0|0:0,0:0:0:0:
160,176,24580,6,0,L|72:176,2,80,0|0|0,0:0|0:0|0:0,0:0:0:0:
264,176,25262,2,0,L|360:176,2,80,2|0|0,0:0|0:0|0:0,0:0:0:0:
40,176,25944,1,0,0:0:0:0:
232,176,26398,6,0,L|136:176,1,80,0|0,0:0|0:0,0:0:0:0:
352,224,27080,1,2,0:0:0:0:
152,224,27535,1,0,0:0:0:0:
360,224,27989,1,0,0:0:0:0:
144,96,28444,6,0,L|64:96,2,80,0|0|2,0:0|0:0|0:0,0:0:0:0:
464,96,29353,2,0,L|376:96,1,80,0|0,0:0|0:0,0:0:0:0:
448,208,30035,6,0,L|344:208,1,80,0|0,0:0|0:0,0:0:0:0:
288,208,30489,1,0,0:0:0:0:
392,280,30717,1,2,0:0:0:0:
72,280,31171,2,0,L|184:280,1,80,0|0,0:0|0:0,0:0:0:0:
368,136,31853,6,0,L|448:136,2,80,0|0|0,0:0|0:0|0:0,0:0:0:0:
264,136,32535,2,0,L|168:136,2,80,2|0|0,0:0|0:0|0:0,0:0:0:0:
480,136,33243,1,0,0:0:0:0:
272,136,33735,2,0,L|376:136,1,80,0|0,0:0|0:0,0:0:0:0:
112,240,34528,5,2,0:0:0:0:
400,240,35099,1,0,0:0:0:0:
128,112,35718,1,4,0:2:0:0:
184,112,35878,1,0,0:0:0:0:
240,112,36038,1,0,0:0:0:0:
256,192,36395,12,0,38180,0:0:0:0:
