osu file format v14

[General]
AudioFilename: audio.mp3
AudioLeadIn: 0
PreviewTime: 0
Countdown: 0
SampleSet: Normal
StackLeniency: 0.7
Mode: 2
LetterboxInBreaks: 0
WidescreenStoryboard: 0

[Editor]
Bookmarks: 21285
DistanceSpacing: 1
BeatDivisor: 4
GridSize: 8
TimelineZoom: 1.7

[Metadata]
Title:Zen Zen Zense
TitleUnicode:前前前世
Artist:R3 Music Box
ArtistUnicode:R3 Music Box
Creator:-Hex-
Version:Cup
Source:君の名は。
Tags:kimi no na wa ha radwimps your name cover skycreeper
BeatmapID:1306868
BeatmapSetID:620051

[Difficulty]
HPDrainRate:3
CircleSize:2.5
OverallDifficulty:5.5
ApproachRate:5.5
SliderMultiplier:1.2
SliderTickRate:1

[Events]
//Background and Video events
0,0,"BG-desu.jpg",0,0
//Break Periods
//Storyboard Layer 0 (Background)
//Storyboard Layer 1 (Fail)
//Storyboard Layer 2 (Pass)
//Storyboard Layer 3 (Foreground)
//Storyboard Sound Samples

[TimingPoints]
717,454.545454545455,4,1,1,25,1,0
32989,508.474576271186,4,1,1,30,1,0
33497,476.190476190476,4,1,1,30,1,0
33973,555.555555555556,4,1,1,30,1,0
34528,571.428571428571,4,1,1,18,1,0
35100,618.556701030928,4,1,1,13,1,0
35718,641.711229946524,4,1,1,13,1,0
36038,1428.57142857143,4,1,1,18,1,0
36395,-100,4,1,1,5,0,0

[Colours]
Combo1 : 255,0,128
Combo2 : 0,0,255
Combo3 : 255,128,64

[HitObjects]
352,192,717,6,0,L|496:192,2,120,4|0|2,0:3|0:0|0:0,0:0:0:0:
176,192,2080,2,0,L|96:192,1,60,0|0,0:0|0:0,0:0:0:0:
24,192,2535,2,0,L|88:144,1,60,0|0,0:0|0:0,0:0:0:0:
200,144,3217,1,2,0:0:0:0:
360,192,3671,6,0,L|288:192,1,60,0|0,0:0|0:0,0:0:0:0:
112,184,4353,2,0,L|240:144,1,120,4|0,0:0|0:0,0:0:0:0:
392,200,5262,2,0,L|256:144,1,120,2|0,0:0|0:0,0:0:0:0:
400,88,6171,1,0,0:0:0:0:
136,184,6853,5,0,0:0:0:0:
64,184,7080,1,2,0:0:0:0:
144,184,7307,2,0,L|288:184,1,120,0|0,0:0|0:0,0:0:0:0:
112,184,8217,6,0,L|40:184,2,60
200,184,8898,1,2,0:0:0:0:
288,184,9126,2,0,L|152:184,1,120,0|0,0:0|0:0,0:0:0:0:
304,160,10035,6,0,L|320:240,1,60,0|0,0:0|0:0,0:0:0:0:
408,256,10489,1,0,0:0:0:0:
304,304,10717,2,0,L|288:368,1,60,2|0,0:0|0:0,0:0:0:0:
192,312,11171,1,0,0:0:0:0:
416,192,11626,5,4,0:0:0:0:
216,192,12080,2,0,L|304:192,1,60,0|2,0:0|0:0,0:0:0:0:
112,192,12762,1,0,0:0:0:0:
296,184,13217,2,0,P|360:104|296:40,1,180,0|0,0:0|0:0,0:0:0:0:
112,184,14580,6,0,L|32:184,2,60,0|0|0,0:0|0:0|0:0,0:0:0:0:
224,184,15262,2,0,L|352:184,2,120,4|0|2,0:3|0:0|0:0,0:0:0:0:
408,200,16626,6,0,L|408:128,1,60,0|0,0:0|0:0,0:0:0:0:
488,80,17080,2,0,L|408:80,1,60,0|0,0:0|0:0,0:0:0:0:
272,16,17762,1,2,0:0:0:0:
400,160,18217,6,0,L|480:160,2,60,0|0|0,0:0|0:0|0:0,0:0:0:0:
288,160,18898,1,4,0:0:0:0:
128,160,19353,6,0,L|208:160,1,60,0|2,0:0|0:0,0:0:0:0:
368,184,20035,2,0,L|248:184,1,120,0|0,0:0|0:0,0:0:0:0:
328,184,20717,1,0,0:0:0:0:
104,184,21399,5,0,0:0:0:0:
32,184,21626,1,2,0:0:0:0:
112,184,21853,2,0,L|256:184,1,120,0|0,0:0|0:0,0:0:0:0:
376,184,22762,6,0,L|448:184,2,60,0|0|0,0:0|0:0|0:0,0:0:0:0:
280,184,23444,1,2,0:0:0:0:
184,184,23671,2,0,L|320:184,1,120,0|0,0:0|0:0,0:0:0:0:
104,192,24580,6,0,L|24:192,2,60,0|0|0,0:0|0:0|0:0,0:0:0:0:
200,192,25262,2,0,L|328:192,1,120,2|0,0:0|0:0,0:0:0:0:
224,192,25944,1,0,0:0:0:0:
352,192,26398,2,0,L|352:120,1,60,0|0,0:0|0:0,0:0:0:0:
216,112,27080,5,2,0:0:0:0:
392,112,27535,1,0,0:0:0:0:
256,112,27989,1,0,0:0:0:0:
96,112,28444,6,0,L|36:112,2,60,0|0|2,0:0|0:0|0:0,0:0:0:0:
256,112,29353,2,0,L|176:112,1,60,0|0,0:0|0:0,0:0:0:0:
360,128,30035,6,0,P|416:184|344:256,1,180,0|2,0:0|0:0,0:0:0:0:
192,208,31171,2,0,L|280:208,1,60,0|0,0:0|0:0,0:0:0:0:
120,192,31853,6,0,L|48:192,2,60,0|0|0,0:0|0:0|0:0,0:0:0:0:
224,192,32535,2,0,L|360:192,1,120,2|0,0:0|0:0,0:0:0:0:
440,192,33243,1,0,0:0:0:0:
240,192,33735,2,0,L|240:120,1,60
432,192,34528,5,2,0:0:0:0:
240,192,35099,1,0,0:0:0:0:
456,80,35718,1,4,0:2:0:0:
408,80,35878,1,0,0:0:0:0:
360,80,36038,1,0,0:0:0:0:
256,192,36395,12,0,38180,0:0:0:0:
