osu file format v14

[General]
AudioFilename: audio.mp3
AudioLeadIn: 0
PreviewTime: 0
Countdown: 0
SampleSet: Normal
StackLeniency: 0.7
Mode: 2
LetterboxInBreaks: 0
WidescreenStoryboard: 0

[Editor]
DistanceSpacing: 1
BeatDivisor: 4
GridSize: 8
TimelineZoom: 1.7

[Metadata]
Title:Zen Zen Zense
TitleUnicode:前前前世
Artist:R3 Music Box
ArtistUnicode:R3 Music Box
Creator:-Hex-
Version:Skycreeper's Platter
Source:君の名は。
Tags:kimi no na wa ha radwimps your name cover skycreeper
BeatmapID:1307524
BeatmapSetID:620051

[Difficulty]
HPDrainRate:5
CircleSize:3.5
OverallDifficulty:7.5
ApproachRate:7.5
SliderMultiplier:1.4
SliderTickRate:2

[Events]
//Background and Video events
0,0,"BG-desu.jpg",0,0
//Break Periods
//Storyboard Layer 0 (Background)
//Storyboard Layer 1 (Fail)
//Storyboard Layer 2 (Pass)
//Storyboard Layer 3 (Foreground)
//Storyboard Sound Samples

[TimingPoints]
717,454.545454545455,4,1,1,25,1,0
32989,508.474576271186,4,1,1,30,1,0
33497,476.190476190476,4,1,1,30,1,0
33973,555.555555555556,4,1,1,30,1,0
34528,571.428571428571,4,1,1,30,1,0
35100,618.556701030928,4,1,1,30,1,0
35718,641.711229946524,4,1,1,30,1,0
36038,1428.57142857143,4,1,1,30,1,0
36395,-100,4,1,1,5,0,0

[Colours]
Combo1 : 255,0,128
Combo2 : 0,0,255
Combo3 : 255,128,64

[HitObjects]
424,336,35,6,0,L|488:288,2,70,0|0|0,0:0|0:0|0:0,0:0:0:0:
216,192,717,1,4,0:3:0:0:
424,192,1171,1,0,0:0:0:0:
152,192,1626,1,2,0:0:0:0:
336,192,2080,6,0,L|240:160,1,70,0|0,0:0|0:0,0:0:0:0:
440,104,2535,2,0,L|352:72,1,70,0|0,0:0|0:0,0:0:0:0:
200,192,3217,1,2,0:0:0:0:
408,304,3671,6,0,L|496:304,2,70,0|0|0,0:0|0:0|0:0,0:0:0:0:
112,192,4353,2,0,L|42:192,1,70,4|0,0:0|0:0,0:0:0:0:
216,96,4807,6,0,L|304:96,2,70,0|0|2,0:0|0:0|0:0,0:0:0:0:
400,200,5489,2,0,L|320:256,1,70,0|0,0:0|0:0,0:0:0:0:
112,48,5944,2,2,P|56:152|120:176,1,210,0|0,0:0|0:0,0:0:0:0:
272,224,6853,6,0,L|368:224,1,70,0|2,0:0|0:0,0:0:0:0:
432,328,7307,2,0,L|344:328,1,70,0|0,0:0|0:0,0:0:0:0:
64,192,7762,1,0,0:0:0:0:
256,192,8217,6,0,L|336:192,1,70,0|0,0:0|0:0,0:0:0:0:
456,192,8671,2,0,L|552:192,1,70,0|2,0:0|0:0,0:0:0:0:
392,88,9126,2,0,L|312:88,1,70,0|0,0:0|0:0,0:0:0:0:
16,192,9580,1,0,0:0:0:0:
130,88,10035,6,0,L|224:88,1,70,0|0,0:0|0:0,0:0:0:0:
272,192,10489,1,0,0:0:0:0:
136,296,10717,2,0,L|66:296,2,70,2|0|0,0:0|0:0|0:0,0:0:0:0:
440,192,11626,5,4,0:0:0:0:
216,256,12080,2,0,P|304:256|304:256,1,70,0|2,0:0|0:0,0:0:0:0:
32,256,12762,1,0,0:0:0:0:
224,48,13217,2,0,P|144:48|208:216,1,350,0|2,0:0|0:0,0:0:0:0:
304,200,14580,6,0,L|384:144,2,70,0|0|0,0:0|0:0|0:0,0:0:0:0:
104,200,15262,1,4,0:3:0:0:
336,192,15717,1,0,0:0:0:0:
96,192,16171,1,2,0:0:0:0:
304,296,16626,6,0,L|400:296,2,70,0|0|0,0:0|0:0|0:0,0:0:0:0:
96,192,17307,1,0,0:0:0:0:
328,192,17762,1,2,0:0:0:0:
176,304,18217,2,0,L|88:304,2,70,0|0|0,0:0|0:0|0:0,0:0:0:0:
464,192,18898,5,4,0:0:0:0:
264,192,19353,2,0,L|344:192,1,70,0|2,0:0|0:0,0:0:0:0:
96,144,20035,1,0,0:0:0:0:
328,56,20489,2,0,P|408:96|320:136,1,210,0|0,0:0|0:0,0:0:0:0:
192,144,21398,5,0,0:0:0:0:
104,240,21626,2,0,L|32:240,2,70,2|0|0,0:0|0:0|0:0,0:0:0:0:
392,192,22307,1,0,0:0:0:0:
240,280,22762,6,0,L|152:280,1,70,0|0,0:0|0:0,0:0:0:0:
88,104,23217,1,0,0:0:0:0:
200,104,23444,2,0,L|130:104,2,70,2|0|0,0:0|0:0|0:0,0:0:0:0:
496,192,24126,1,0,0:0:0:0:
280,248,24580,6,0,L|256:320,1,70,0|0,0:0|0:0,0:0:0:0:
368,192,25035,1,0,0:0:0:0:
480,312,25262,2,0,L|384:312,2,70,2|0|0,0:0|0:0|0:0,0:0:0:0:
184,192,25944,1,0,0:0:0:0:
368,224,26398,2,0,P|408:184|400:152,1,70,0|0,0:0|0:0,0:0:0:0:
192,192,27080,5,2,0:0:0:0:
408,192,27535,1,0,0:0:0:0:
176,192,27989,1,0,0:0:0:0:
360,328,28444,6,0,L|432:328,2,70,0|0|2,0:0|0:0|0:0,0:0:0:0:
112,192,29353,1,0,0:0:0:0:
408,192,29580,1,0,0:0:0:0:
216,320,30035,6,0,L|296:264,1,70,0|0,0:0|0:0,0:0:0:0:
352,280,30489,1,0,0:0:0:0:
432,280,30717,2,0,P|472:216|416:152,1,140,2|0,0:0|0:0,0:0:0:0:
144,192,31398,1,0,0:0:0:0:
288,104,31853,6,0,L|358:104,2,70,0|0|0,0:0|0:0|0:0,0:0:0:0:
152,104,32535,2,0,L|72:104,2,70,2|0|0,0:0|0:0|0:0,0:0:0:0:
480,192,33243,1,0,0:0:0:0:
328,192,33735,5,0,0:0:0:0:
200,192,33973,1,0,0:0:0:0:
464,192,34528,1,2,0:0:0:0:
264,192,35100,1,0,0:0:0:0:
496,192,35718,5,4,0:2:0:0:
408,192,35878,1,0,0:0:0:0:
256,192,36038,1,0,0:0:0:0:
256,192,36395,12,0,38180,0:0:0:0:
