osu file format v14

[General]
AudioFilename: audio.mp3
AudioLeadIn: 0
PreviewTime: 10247
Countdown: 0
SampleSet: Soft
StackLeniency: 0.7
Mode: 2
LetterboxInBreaks: 0
WidescreenStoryboard: 1

[Editor]
Bookmarks: 9450
DistanceSpacing: 1
BeatDivisor: 4
GridSize: 16
TimelineZoom: 1

[Metadata]
Title:Zankoku na Tenshi no These
TitleUnicode:残酷な天使のテーゼ
Artist:R3 Music Box
ArtistUnicode:R3 Music Box
Creator:-Joni-
Version:Vale's Salad
Source:新世紀エヴァンゲリオン
Tags:残酷な天使のテーゼ yoko takahashi bastian seija -vale neon genesis evangelion anime opening a cruel angel's thesis angel shin seiki
BeatmapID:1932408
BeatmapSetID:925052

[Difficulty]
HPDrainRate:4
CircleSize:3
OverallDifficulty:7
ApproachRate:7
SliderMultiplier:1.4
SliderTickRate:1

[Events]
//Background and Video events
0,0,"asuka.png",0,0
//Break Periods
//Storyboard Layer 0 (Background)
//Storyboard Layer 1 (Fail)
//Storyboard Layer 2 (Pass)
//Storyboard Layer 3 (Foreground)
//Storyboard Sound Samples

[TimingPoints]
35,638.297872340426,4,2,1,40,1,0

[Colours]
Combo1 : 4,166,73
Combo2 : 128,128,192
Combo3 : 248,107,107
Combo4 : 113,227,240

[HitObjects]
368,96,35,6,0,P|416:176|384:224,1,140,6|0,0:0|0:0,0:0:0:0:
175,138,1311,2,0,P|143:192|147:248,1,105,10|0,0:0|0:0,0:0:0:0:
256,288,2269,1,0,0:0:0:0:
10,194,2588,6,0,L|90:194,1,70,2|0,0:0|0:0,0:0:0:0:
336,192,3226,1,0,0:0:0:0:
190,147,3545,1,0,0:0:0:0:
352,144,3864,2,0,L|352:96,1,35,10|0,0:0|0:0,0:0:0:0:
120,143,4343,1,0,0:0:0:0:
360,204,5141,6,0,L|360:55,1,140,2|0,0:0|0:0,0:0:0:0:
160,113,6418,2,0,L|276:74,1,105,10|0,0:0|0:0,0:0:0:0:
69,235,7375,1,0,0:0:0:0:
320,239,7694,6,0,L|416:239,2,70,2|0|0,0:0|0:0|0:0,0:0:0:0:
170,159,8652,1,0,0:0:0:0:
330,159,8971,2,0,L|340:92,1,35,10|0,0:0|0:0,0:0:0:0:
170,294,9450,1,0,0:0:0:0:
35,264,9769,1,0,0:0:0:0:
83,195,9928,1,0,0:0:0:0:
129,120,10088,1,0,0:0:0:0:
299,51,10247,6,0,L|455:90,1,140,6|0,0:0|0:0,0:0:0:0:
130,200,11524,2,0,L|258:180,1,105,10|0,0:0|0:0,0:0:0:0:
374,133,12482,1,0,0:0:0:0:
115,129,12801,6,0,L|115:33,1,70,2|0,0:0|0:0,0:0:0:0:
272,272,13439,1,0,0:0:0:0:
148,187,13758,1,0,0:0:0:0:
305,188,14077,2,0,L|305:140,1,35,10|0,0:0|0:0,0:0:0:0:
500,114,14556,1,0,0:0:0:0:
128,96,15354,6,0,P|80:176|112:224,1,140,2|0,0:0|0:0,0:0:0:0:
352,208,16631,2,0,P|400:288|389:322,1,105,10|0,0:0|0:0,0:0:0:0:
270,217,17588,1,0,0:0:0:0:
25,205,17907,5,2,0:0:0:0:
257,214,18226,1,0,0:0:0:0:
142,209,18546,1,2,0:0:0:0:
271,204,18864,1,0,0:0:0:0:
381,97,19184,5,2,0:0:0:0:
125,84,19663,1,2,0:0:0:0:
297,112,19982,1,0,0:0:0:0:
251,157,20141,1,0,0:0:0:0:
206,196,20301,1,0,0:0:0:0:
360,316,20460,6,0,L|423:178,1,140,6|0,0:0|0:0,0:0:0:0:
203,102,21737,2,0,L|335:102,1,105,10|0,0:0|0:0,0:0:0:0:
205,94,22695,1,0,0:0:0:0:
468,234,23014,5,2,0:0:0:0:
344,226,23333,2,0,L|344:146,1,70
223,115,23971,1,0,0:0:0:0:
478,173,24290,2,0,L|443:173,1,35,10|0,0:0|0:0,0:0:0:0:
245,164,24769,1,0,0:0:0:0:
344,96,25567,6,0,P|400:160|368:208,1,140,2|0,0:0|0:0,0:0:0:0:
142,80,26844,2,0,P|86:160|97:179,1,105,10|0,0:0|0:0,0:0:0:0:
220,195,27801,1,0,0:0:0:0:
480,192,28120,6,0,L|410:192,1,70,2|0,0:0|0:0,0:0:0:0:
290,190,28759,2,0,L|194:190,2,70,2|0|10,0:0|0:0|0:0,0:0:0:0:
57,192,29876,1,2,0:0:0:0:
256,192,30195,12,0,31950,0:0:0:0:
