osu file format v14

[General]
AudioFilename: audio.mp3
AudioLeadIn: 0
PreviewTime: 10247
Countdown: 0
SampleSet: Soft
StackLeniency: 0.7
Mode: 2
LetterboxInBreaks: 0
WidescreenStoryboard: 0

[Editor]
DistanceSpacing: 1
BeatDivisor: 4
GridSize: 32
TimelineZoom: 1

[Metadata]
Title:Zankoku na Tenshi no These
TitleUnicode:残酷な天使のテーゼ
Artist:R3 Music Box
ArtistUnicode:R3 Music Box
Creator:-Joni-
Version:Seija's Thesis
Source:新世紀エヴァンゲリオン
Tags:残酷な天使のテーゼ yoko takahashi bastian seija -vale neon genesis evangelion anime opening a cruel angel's thesis angel shin seiki
BeatmapID:2004147
BeatmapSetID:925052

[Difficulty]
HPDrainRate:5
CircleSize:4
OverallDifficulty:7.5
ApproachRate:7.5
SliderMultiplier:1.6
SliderTickRate:2

[Events]
//Background and Video events
0,0,"asuka.png",0,0
//Break Periods
//Storyboard Layer 0 (Background)
//Storyboard Layer 1 (Fail)
//Storyboard Layer 2 (Pass)
//Storyboard Layer 3 (Foreground)
//Storyboard Sound Samples

[TimingPoints]
35,638.297872340426,4,2,1,40,1,0
1311,-66.6666666666667,4,2,1,40,0,0
2588,-100,4,2,1,40,0,0
6418,-66.6666666666667,4,2,1,40,0,0
7694,-100,4,2,1,40,0,0
11524,-66.6666666666667,4,2,1,40,0,0
13120,-100,4,2,1,40,0,0
15354,-66.6666666666667,4,2,1,40,0,0
17109,-100,4,2,1,40,0,0
21737,-66.6666666666667,4,2,1,40,0,0
23014,-100,4,2,1,40,0,0
26844,-66.6666666666667,4,2,1,40,0,0
28120,-100,4,2,1,40,0,0

[Colours]
Combo1 : 4,166,73
Combo2 : 128,128,192
Combo3 : 248,107,107
Combo4 : 113,227,240

[HitObjects]
142,313,35,6,0,P|90:269|154:189,1,160,6|0,0:0|0:0,0:0:0:0:
358,180,1311,2,0,L|166:187,2,180.000006866455,10|0|0,0:0|0:0|0:0,0:0:0:0:
117,282,2588,5,2,0:0:0:0:
117,282,2907,1,0,0:0:0:0:
261,283,3226,1,0,0:0:0:0:
402,285,3545,1,0,0:0:0:0:
146,253,3864,1,10,0:0:0:0:
77,254,4024,1,0,0:0:0:0:
146,253,4184,1,0,0:0:0:0:
281,244,4343,2,0,P|314:183|263:150,1,120
34,247,5141,6,0,L|35:65,1,160,2|0,0:0|0:0,0:0:0:0:
207,75,6098,1,0,0:0:0:0:
476,85,6418,2,0,L|266:85,2,180.000006866455,10|0|0,0:0|0:0|0:0,0:0:0:0:
273,308,7694,5,2,0:0:0:0:
432,258,8013,1,0,0:0:0:0:
292,172,8333,1,0,0:0:0:0:
144,118,8652,1,0,0:0:0:0:
373,122,8971,2,0,L|430:153,2,40,10|0|0,0:0|0:0|0:0,0:0:0:0:
261,167,9449,2,0,L|211:195,2,40
362,262,9928,2,0,L|312:286,1,40
143,307,10247,6,0,P|59:259|70:184,1,160,6|0,0:0|0:0,0:0:0:0:
208,207,11205,1,0,0:0:0:0:
463,140,11524,2,0,L|265:142,2,180.000006866455,10|0|0,0:0|0:0|0:0,0:0:0:0:
196,281,12801,6,0,L|370:279,1,120.000004577637,2|0,0:0|0:0,0:0:0:0:
196,281,13439,1,0,0:0:0:0:
396,149,13758,1,0,0:0:0:0:
82,194,14077,1,10,0:0:0:0:
139,194,14237,1,0,0:0:0:0:
196,196,14397,1,0,0:0:0:0:
300,197,14556,2,0,P|339:238|290:300,1,120
47,333,15354,6,0,L|316:333,1,240.000009155274,2|0,0:0|0:0,0:0:0:0:
165,277,16311,1,0,0:0:0:0:
418,268,16630,1,10,0:0:0:0:
168,204,17109,1,0,0:0:0:0:
418,268,17588,1,0,0:0:0:0:
170,236,17907,5,2,0:0:0:0:
49,234,18225,1,0,0:0:0:0:
170,236,18546,1,2,0:0:0:0:
49,234,18864,1,0,0:0:0:0:
326,234,19184,2,0,L|461:237,2,120,2|2|0,0:0|0:0|0:0,0:0:0:0:
231,236,20300,1,0,0:0:0:0:
79,311,20460,6,0,L|263:310,1,160,6|0,0:0|0:0,0:0:0:0:
400,316,21418,1,0,0:0:0:0:
115,216,21737,2,0,L|331:212,2,180.000006866455,10|0|0,0:0|0:0|0:0,0:0:0:0:
348,342,23014,6,0,L|363:273,1,40,2|0,0:0|0:0,0:0:0:0:
256,276,23333,1,0,0:0:0:0:
38,249,23652,1,0,0:0:0:0:
180,199,23971,1,0,0:0:0:0:
484,193,24290,1,10,0:0:0:0:
425,190,24450,1,0,0:0:0:0:
367,188,24609,1,0,0:0:0:0:
222,196,24769,2,0,P|190:123|221:90,1,120
476,49,25567,6,0,L|291:48,1,160,2|0,0:0|0:0,0:0:0:0:
173,53,26524,1,0,0:0:0:0:
462,234,26844,2,0,L|262:231,2,180.000006866455,10|0|0,0:0|0:0|0:0,0:0:0:0:
170,303,28120,6,0,L|160:249,1,40,2|0,0:0|0:0,0:0:0:0:
273,240,28439,1,0,0:0:0:0:
157,184,28759,1,2,0:0:0:0:
365,183,29078,1,0,0:0:0:0:
87,119,29397,1,10,0:0:0:0:
449,118,29876,1,2,0:0:0:0:
256,192,30035,12,0,31950,0:0:0:0:
