osu file format v14

[General]
AudioFilename: audio.mp3
AudioLeadIn: 0
PreviewTime: 10247
Countdown: 0
SampleSet: Normal
StackLeniency: 0.7
Mode: 1
LetterboxInBreaks: 0
WidescreenStoryboard: 1

[Editor]
DistanceSpacing: 1
BeatDivisor: 4
GridSize: 32
TimelineZoom: 1

[Metadata]
Title:Zankoku na Tenshi no These
TitleUnicode:残酷な天使のテーゼ
Artist:R3 Music Box
ArtistUnicode:R3 Music Box
Creator:-Joni-
Version:Jorkni's Futsuu
Source:新世紀エヴァンゲリオン
Tags: 残酷な天使のテーゼ yoko takahashi bastian seija -vale neon genesis evangelion anime opening a cruel angel's thesis angel shin seiki
BeatmapID:1932405
BeatmapSetID:925052

[Difficulty]
HPDrainRate:8
CircleSize:4
OverallDifficulty:3
ApproachRate:7.5
SliderMultiplier:1.6
SliderTickRate:1

[Events]
//Background and Video events
0,0,"asuka.png",0,0
//Break Periods
//Storyboard Layer 0 (Background)
//Storyboard Layer 1 (Fail)
//Storyboard Layer 2 (Pass)
//Storyboard Layer 3 (Foreground)
//Storyboard Sound Samples

[TimingPoints]
35,638.297872340426,4,1,0,40,1,0

[HitObjects]
184,201,35,5,0,0:0:0:0:
113,80,673,1,0,0:0:0:0:
183,200,1311,1,8,0:0:0:0:
130,109,1790,1,0,0:0:0:0:
234,117,2269,1,0,0:0:0:0:
164,112,2588,1,8,0:0:0:0:
303,111,3226,1,8,0:0:0:0:
234,126,3545,1,0,0:0:0:0:
166,142,3864,1,8,0:0:0:0:
166,142,4343,1,8,0:0:0:0:
184,201,5141,5,8,0:0:0:0:
113,80,5779,1,8,0:0:0:0:
183,200,6417,1,0,0:0:0:0:
130,109,6896,1,8,0:0:0:0:
164,112,7375,1,8,0:0:0:0:
234,117,7694,1,0,0:0:0:0:
303,111,8332,1,0,0:0:0:0:
234,126,8652,1,8,0:0:0:0:
166,142,8971,1,0,0:0:0:0:
166,142,9449,5,0,0:0:0:0:
184,201,10247,1,0,0:0:0:0:
113,80,10886,1,0,0:0:0:0:
183,200,11524,1,8,0:0:0:0:
130,109,12003,1,0,0:0:0:0:
234,117,12481,1,0,0:0:0:0:
164,112,12800,1,8,0:0:0:0:
303,111,13439,1,8,0:0:0:0:
234,126,13758,1,0,0:0:0:0:
166,142,14077,1,8,0:0:0:0:
166,142,14556,1,8,0:0:0:0:
25,36,15354,1,8,0:0:0:0:
136,120,15992,1,8,0:0:0:0:
275,136,16630,1,0,0:0:0:0:
170,124,17109,1,8,0:0:0:0:
274,110,17588,1,0,0:0:0:0:
274,110,17907,1,8,0:0:0:0:
209,138,18545,1,0,0:0:0:0:
175,76,18864,1,8,0:0:0:0:
88,67,19183,1,8,0:0:0:0:
148,102,19662,1,8,0:0:0:0:
184,201,20460,1,0,0:0:0:0:
113,80,21098,1,0,0:0:0:0:
183,200,21737,1,8,0:0:0:0:
130,109,22215,1,0,0:0:0:0:
234,117,22694,1,0,0:0:0:0:
164,112,23013,1,8,0:0:0:0:
303,111,23652,1,8,0:0:0:0:
234,126,23971,1,0,0:0:0:0:
166,142,24290,1,8,0:0:0:0:
166,142,24769,1,8,0:0:0:0:
25,36,25566,1,8,0:0:0:0:
136,120,26205,1,8,0:0:0:0:
275,136,26843,1,0,0:0:0:0:
170,124,27322,1,8,0:0:0:0:
274,110,27800,1,0,0:0:0:0:
274,110,28120,1,8,0:0:0:0:
209,138,28758,1,0,0:0:0:0:
261,184,29077,1,8,0:0:0:0:
88,67,29396,1,8,0:0:0:0:
148,102,29875,1,8,0:0:0:0:
256,192,30354,12,0,31950,0:0:0:0:
