osu file format v14

[General]
AudioFilename: audio.mp3
AudioLeadIn: 0
PreviewTime: 10247
Countdown: 0
SampleSet: Normal
StackLeniency: 0.7
Mode: 1
LetterboxInBreaks: 0
WidescreenStoryboard: 1

[Editor]
DistanceSpacing: 1
BeatDivisor: 4
GridSize: 32
TimelineZoom: 1

[Metadata]
Title:Zankoku na Tenshi no These
TitleUnicode:残酷な天使のテーゼ
Artist:R3 Music Box
ArtistUnicode:R3 Music Box
Creator:-Joni-
Version:Jork's Muzukashii
Source:新世紀エヴァンゲリオン
Tags:残酷な天使のテーゼ yoko takahashi bastian seija -vale neon genesis evangelion anime opening a cruel angel's thesis angel shin seiki
BeatmapID:1937932
BeatmapSetID:925052

[Difficulty]
HPDrainRate:7
CircleSize:4
OverallDifficulty:4
ApproachRate:7.5
SliderMultiplier:1.6
SliderTickRate:1

[Events]
//Background and Video events
0,0,"asuka.png",0,0
//Break Periods
//Storyboard Layer 0 (Background)
//Storyboard Layer 1 (Fail)
//Storyboard Layer 2 (Pass)
//Storyboard Layer 3 (Foreground)
//Storyboard Sound Samples

[TimingPoints]
35,638.297872340426,4,1,0,40,1,0

[HitObjects]
120,132,35,5,0,0:0:0:0:
266,164,673,1,0,0:0:0:0:
158,60,1311,1,8,0:0:0:0:
211,111,1790,1,0,0:0:0:0:
321,132,2269,1,0,0:0:0:0:
321,132,2588,1,8,0:0:0:0:
247,148,2907,1,8,0:0:0:0:
176,122,3226,1,8,0:0:0:0:
105,97,3545,1,0,0:0:0:0:
179,93,3864,1,8,0:0:0:0:
216,91,4024,1,0,0:0:0:0:
283,122,4343,1,8,0:0:0:0:
213,210,4822,1,0,0:0:0:0:
101,170,5141,1,8,0:0:0:0:
243,123,5779,1,8,0:0:0:0:
102,175,6417,1,0,0:0:0:0:
207,137,6896,1,8,0:0:0:0:
280,51,7375,1,8,0:0:0:0:
247,118,7694,1,0,0:0:0:0:
172,118,8013,1,0,0:0:0:0:
100,140,8332,1,0,0:0:0:0:
172,119,8652,1,8,0:0:0:0:
283,127,8971,1,0,0:0:0:0:
246,124,9130,1,8,0:0:0:0:
395,137,9449,1,0,0:0:0:0:
282,136,9928,1,8,0:0:0:0:
244,133,10088,1,8,0:0:0:0:
120,132,10247,1,0,0:0:0:0:
266,164,10886,1,0,0:0:0:0:
158,60,11524,1,8,0:0:0:0:
211,111,12003,1,0,0:0:0:0:
321,132,12481,1,0,0:0:0:0:
321,132,12800,1,8,0:0:0:0:
247,148,13120,1,8,0:0:0:0:
176,122,13439,1,8,0:0:0:0:
105,97,13758,1,0,0:0:0:0:
179,93,14077,1,8,0:0:0:0:
216,91,14237,1,0,0:0:0:0:
283,122,14556,1,8,0:0:0:0:
174,89,15035,1,0,0:0:0:0:
101,170,15354,1,8,0:0:0:0:
243,123,15992,1,8,0:0:0:0:
102,175,16630,1,0,0:0:0:0:
207,137,17109,1,8,0:0:0:0:
280,51,17588,1,0,0:0:0:0:
247,118,17907,1,8,0:0:0:0:
172,118,18226,1,8,0:0:0:0:
100,140,18545,1,0,0:0:0:0:
172,119,18864,1,8,0:0:0:0:
246,124,19183,1,8,0:0:0:0:
395,137,19662,1,8,0:0:0:0:
282,136,20141,1,8,0:0:0:0:
244,133,20300,1,8,0:0:0:0:
120,132,20460,1,0,0:0:0:0:
266,164,21098,1,0,0:0:0:0:
158,60,21737,1,8,0:0:0:0:
211,111,22215,1,0,0:0:0:0:
321,132,22694,1,0,0:0:0:0:
321,132,23013,1,8,0:0:0:0:
247,148,23332,1,8,0:0:0:0:
176,122,23652,1,8,0:0:0:0:
105,97,23971,1,0,0:0:0:0:
179,93,24290,1,8,0:0:0:0:
216,91,24449,1,0,0:0:0:0:
283,122,24769,1,8,0:0:0:0:
174,89,25247,1,0,0:0:0:0:
101,170,25566,1,8,0:0:0:0:
243,123,26205,1,8,0:0:0:0:
102,175,26843,1,0,0:0:0:0:
207,137,27322,1,8,0:0:0:0:
280,51,27800,1,0,0:0:0:0:
247,118,28120,1,8,0:0:0:0:
172,118,28439,1,8,0:0:0:0:
100,140,28758,1,0,0:0:0:0:
172,119,29077,1,8,0:0:0:0:
246,124,29396,1,8,0:0:0:0:
244,133,29875,1,8,0:0:0:0:
256,192,30354,12,0,31950,0:0:0:0:
