osu file format v14

[General]
AudioFilename: audio.mp3
AudioLeadIn: 0
PreviewTime: 19454
Countdown: 0
SampleSet: Soft
StackLeniency: 0.7
Mode: 0
LetterboxInBreaks: 0
WidescreenStoryboard: 0

[Editor]
Bookmarks: 10360,26106,29744,35201,37020,40658
DistanceSpacing: 1.4
BeatDivisor: 4
GridSize: 4
TimelineZoom: 1

[Metadata]
Title:Your Reality
TitleUnicode:Your Reality
Artist:R3 Music Box
ArtistUnicode:R3 Music Box
Creator:Terton
Version:Gordon's Advanced
Source:Doki Doki Literature Club!
Tags:Dan Salvato ddlc visual novel gordon123 nyantiaz
BeatmapID:1575024
BeatmapSetID:747457

[Difficulty]
HPDrainRate:4
CircleSize:3.5
OverallDifficulty:3
ApproachRate:5
SliderMultiplier:1.25
SliderTickRate:1

[Events]
//Background and Video events
0,0,"6Svuptc7M7I.jpg",0,0
//Break Periods
//Storyboard Layer 0 (Background)
//Storyboard Layer 1 (Fail)
//Storyboard Layer 2 (Pass)
//Storyboard Layer 3 (Foreground)
//Storyboard Sound Samples

[TimingPoints]
61,606.060606060606,4,2,1,30,1,0
667,-100,4,2,1,30,0,0
9757,-100,4,2,1,30,0,0
12788,-100,4,2,1,30,0,0
29151,-100,4,2,1,30,0,0

[Colours]
Combo1 : 255,148,40
Combo2 : 101,22,180
Combo3 : 214,85,7
Combo4 : 255,117,255

[HitObjects]
416,272,61,6,0,L|328:268,1,62.5,4|0,0:0|0:0,0:0:0:0:
312,192,667,1,2,0:0:0:0:
356,116,970,1,2,0:0:0:0:
440,136,1273,1,2,0:0:0:0:
196,36,2182,1,2,0:0:0:0:
156,56,2333,1,2,0:0:0:0:
116,76,2485,5,2,0:0:0:0:
152,156,2788,2,0,L|156:208,2,31.25,2|2|2,0:0|0:0|0:0,0:0:0:0:
240,140,3394,1,2,0:0:0:0:
324,160,3697,2,0,L|404:164,1,62.5,8|0,0:0|0:0,0:0:0:0:
412,248,4303,2,0,L|349:244,1,62.5,2|2,0:0|0:0,0:0:0:0:
268,272,4909,5,2,0:0:0:0:
244,356,5212,1,2,0:0:0:0:
180,296,5515,1,8,0:0:0:0:
92,304,5818,1,2,0:0:0:0:
68,268,5970,1,2,0:0:0:0:
44,232,6121,1,2,0:0:0:0:
122,192,6424,2,0,L|162:176,2,31.25,2|2|2,0:0|0:0|0:0,0:0:0:0:
54,140,7030,1,8,0:0:0:0:
285,16,7939,6,0,L|289:124,2,93.75,8|8|8,0:0|0:0|0:0,0:0:0:0:
205,52,9151,1,2,0:0:0:0:
117,40,9454,1,2,0:0:0:0:
124,128,9757,6,0,L|132:212,1,62.5,4|0,0:0|0:0,0:0:0:0:
204,240,10364,2,0,L|212:324,2,62.5,2|2|2,0:0|0:0|0:0,0:0:0:0:
424,96,11879,1,2,0:0:0:0:
444,136,12030,1,2,0:0:0:0:
464,176,12182,5,2,0:0:0:0:
380,192,12485,2,0,L|328:212,2,31.25,2|2|2,0:0|0:0|0:0,0:0:0:0:
436,260,13091,1,8,0:0:0:0:
376,324,13394,2,0,P|332:336|292:332,1,62.5,8|2,0:0|0:0,0:0:0:0:
244,284,14000,2,0,L|152:276,1,62.5,2|8,0:0|0:0,0:0:0:0:
152,196,14606,6,0,L|214:201,1,62.5,8|2,0:0|0:0,0:0:0:0:
276,140,15212,1,2,0:0:0:0:
244,60,15515,1,2,0:0:0:0:
207,35,15667,1,2,0:0:0:0:
172,8,15818,1,2,0:0:0:0:
136,88,16121,2,0,L|104:132,2,31.25,2|2|2,0:0|0:0|0:0,0:0:0:0:
84,16,16727,1,8,0:0:0:0:
116,276,17636,6,0,P|111:316|56:372,2,93.75,8|8|8,0:0|0:0|0:0,0:0:0:0:
183,220,18848,1,2,0:0:0:0:
350,264,19454,6,0,L|412:267,2,62.5,0|2|0,0:0|0:0|0:0,0:0:0:0:
383,183,20364,2,0,L|446:187,1,62.5,2|0,0:0|0:0,0:0:0:0:
501,119,20970,1,2,0:0:0:0:
337,55,21576,1,2,0:0:0:0:
256,84,21879,5,4,0:0:0:0:
189,27,22182,2,0,L|125:32,1,62.5,2|0,0:0|0:0,0:0:0:0:
70,99,22788,1,2,0:0:0:0:
126,264,23394,1,2,0:0:0:0:
380,192,24303,5,0,0:0:0:0:
348,272,24606,2,0,P|312:292|272:296,1,62.5,8|2,0:0|0:0,0:0:0:0:
208,264,25212,2,0,L|120:260,1,62.5
32,128,26121,2,0,L|94:130,1,62.5,2|2,0:0|0:0,0:0:0:0:
180,136,26727,5,2,0:0:0:0:
252,88,27030,2,0,P|288:80|328:88,2,62.5,2|2|2,0:0|0:0|0:0,0:0:0:0:
275,349,28545,1,0,0:0:0:0:
416,246,29151,6,0,L|488:254,1,62.5,4|0,0:0|0:0,0:0:0:0:
500,215,29606,1,2,0:0:0:0:
489,172,29757,2,0,L|426:165,1,62.5,2|2,0:0|0:0,0:0:0:0:
273,80,30667,1,8,0:0:0:0:
117,160,31273,1,2,0:0:0:0:
161,236,31576,6,0,P|165:276|149:320,2,62.5,4|2|0,0:0|0:0|0:0,0:0:0:0:
117,160,32485,1,8,0:0:0:0:
273,80,33091,1,8,0:0:0:0:
264,342,34000,5,4,0:0:0:0:
185,302,34303,2,0,L|101:302,1,62.5,2|2,0:0|0:0,0:0:0:0:
52,249,34909,1,0,0:0:0:0:
116,190,35212,2,0,L|178:190,1,62.5
221,113,35818,2,0,P|205:81|205:45,2,62.5,8|8|2,0:0|0:0|0:0,0:0:0:0:
298,154,36727,5,2,0:0:0:0:
360,215,37030,2,0,L|364:283,1,62.5,2|2,0:0|0:0,0:0:0:0:
331,358,37636,1,0,0:0:0:0:
249,326,37939,2,0,L|245:258,1,62.5
85,192,38848,5,4,0:0:0:0:
152,136,39151,1,8,0:0:0:0:
112,57,39454,2,0,L|36:53,2,62.5,2|0|0,0:0|0:0|0:0,0:0:0:0:
286,69,40667,2,0,L|348:72,1,62.5,4|2,0:0|0:0,0:0:0:0:
422,118,41273,5,2,0:0:0:0:
422,118,42788,1,4,0:0:0:0:
391,201,43091,2,0,L|403:280,1,62.5,2|2,0:0|0:0,0:0:0:0:
256,192,43697,12,0,46424,0:0:0:0:
