osu file format v14

[General]
AudioFilename: audio.mp3
AudioLeadIn: 0
PreviewTime: -1
Countdown: 0
SampleSet: Normal
StackLeniency: 0.7
Mode: 0
LetterboxInBreaks: 0
WidescreenStoryboard: 0

[Editor]
DistanceSpacing: 0.8
BeatDivisor: 4
GridSize: 16
TimelineZoom: 1

[Metadata]
Title:Words/Aimer
TitleUnicode:Words/Aimer
Artist:R3 Music Box
ArtistUnicode:R3 Music Box
Creator:OsuDeCarlos
Version:Insane De Carlos
Source:
Tags:
BeatmapID:1243630
BeatmapSetID:587297

[Difficulty]
HPDrainRate:5
CircleSize:3
OverallDifficulty:5
ApproachRate:5
SliderMultiplier:1.4
SliderTickRate:1

[Events]
//Background and Video events
0,0,"asd.jpg",0,0
//Break Periods
//Storyboard Layer 0 (Background)
//Storyboard Layer 1 (Fail)
//Storyboard Layer 2 (Pass)
//Storyboard Layer 3 (Foreground)
//Storyboard Sound Samples

[TimingPoints]
1838.78773530071,441.176470588235,4,1,0,100,1,0

[Colours]
Combo1 : 133,194,197
Combo2 : 64,0,128
Combo3 : 125,155,125

[HitObjects]
160,192,74,6,0,P|256:112|272:112,1,140
320,304,956,1,0,0:0:0:0:
80,112,1397,5,8,0:0:0:0:
448,240,1618,1,8,0:0:0:0:
160,272,1838,5,0,0:0:0:0:
192,112,2279,1,0,0:0:0:0:
368,224,2721,1,0,0:0:0:0:
128,288,3162,5,8,0:0:0:0:
400,80,3382,1,8,0:0:0:0:
336,256,3603,5,0,0:0:0:0:
128,192,4044,1,0,0:0:0:0:
400,224,4485,1,0,0:0:0:0:
176,272,4927,5,8,0:0:0:0:
400,192,5147,2,8,P|256:112|224:128,1,210
256,288,6691,6,0,L|320:256,1,70
368,144,7132,1,0,0:0:0:0:
224,208,7574,1,0,0:0:0:0:
320,80,8015,1,0,0:0:0:0:
400,208,8456,1,0,0:0:0:0:
304,160,9338,5,8,0:0:0:0:
192,240,9559,1,8,0:0:0:0:
304,96,10000,1,0,0:0:0:0:
176,96,10441,5,4,0:0:0:0:
320,240,10662,1,0,0:0:0:0:
176,256,11544,1,0,0:0:0:0:
176,128,11985,1,0,0:0:0:0:
448,224,12206,1,0,0:0:0:0:
176,272,14191,6,0,P|256:224|288:192,1,140
160,160,15074,1,0,0:0:0:0:
128,96,15515,5,0,0:0:0:0:
160,304,15735,1,0,0:0:0:0:
320,256,15956,5,0,0:0:0:0:
400,128,16397,1,0,0:0:0:0:
208,112,16838,1,0,0:0:0:0:
352,272,17279,5,0,0:0:0:0:
288,80,17500,1,0,0:0:0:0:
416,176,17721,5,0,0:0:0:0:
320,288,18162,1,0,0:0:0:0:
128,176,18603,1,0,0:0:0:0:
256,32,19044,5,0,0:0:0:0:
256,336,19265,1,0,0:0:0:0:
176,192,19485,5,0,0:0:0:0:
256,64,19927,1,0,0:0:0:0:
368,192,20368,1,0,0:0:0:0:
256,64,20809,6,0,L|256:176,1,105
256,224,21250,1,0,0:0:0:0:
352,192,21691,1,0,0:0:0:0:
224,112,22132,1,0,0:0:0:0:
144,64,22574,1,0,0:0:0:0:
160,80,23456,1,0,0:0:0:0:
400,160,23677,1,0,0:0:0:0:
368,176,24338,1,0,0:0:0:0:
144,208,24559,1,0,0:0:0:0:
144,224,26103,1,0,0:0:0:0:
368,272,26324,1,0,0:0:0:0:
256,256,28309,6,0,P|336:144|336:128,1,140
176,128,29191,1,0,0:0:0:0:
176,256,29632,1,0,0:0:0:0:
320,272,30074,5,0,0:0:0:0:
320,160,30515,1,0,0:0:0:0:
160,144,30956,1,0,0:0:0:0:
176,288,31397,1,0,0:0:0:0:
368,224,31838,5,0,0:0:0:0:
256,144,32279,1,0,0:0:0:0:
160,240,32721,1,0,0:0:0:0:
304,256,33162,1,0,0:0:0:0:
256,96,34927,5,0,0:0:0:0:
336,176,35368,1,0,0:0:0:0:
128,320,35809,1,0,0:0:0:0:
400,224,36250,1,0,0:0:0:0:
400,64,36691,1,0,0:0:0:0:
96,112,37574,5,0,0:0:0:0:
176,288,37794,1,0,0:0:0:0:
336,288,38235,1,0,0:0:0:0:
368,272,38677,5,0,0:0:0:0:
128,192,38897,1,0,0:0:0:0:
304,160,39779,1,0,0:0:0:0:
112,192,40221,1,0,0:0:0:0:
352,272,40441,1,0,0:0:0:0:
144,304,40662,5,0,0:0:0:0:
128,144,41103,1,0,0:0:0:0:
256,304,41544,1,0,0:0:0:0:
448,304,41985,1,0,0:0:0:0:
352,192,42427,6,0,P|256:96|240:96,1,140
208,224,43309,1,0,0:0:0:0:
400,112,43750,5,0,0:0:0:0:
96,320,43971,1,0,0:0:0:0:
320,240,44191,5,0,0:0:0:0:
144,256,44632,1,0,0:0:0:0:
320,64,45074,1,0,0:0:0:0:
368,288,45515,5,0,0:0:0:0:
112,64,45735,1,0,0:0:0:0:
96,256,45956,5,0,0:0:0:0:
304,320,46397,1,0,0:0:0:0:
416,224,46838,1,0,0:0:0:0:
144,192,47279,5,0,0:0:0:0:
416,144,47500,1,0,0:0:0:0:
320,96,47721,5,0,0:0:0:0:
112,160,48162,1,0,0:0:0:0:
144,256,48603,1,0,0:0:0:0:
192,64,49044,5,0,0:0:0:0:
304,96,49485,1,0,0:0:0:0:
176,144,49927,1,0,0:0:0:0:
384,176,50368,1,0,0:0:0:0:
400,80,50809,1,0,0:0:0:0:
112,64,51691,5,8,0:0:0:0:
272,208,51912,1,8,0:0:0:0:
432,64,52574,1,8,0:0:0:0:
272,192,52794,1,8,0:0:0:0:
112,176,54559,5,8,0:0:0:0:
384,272,54779,1,8,0:0:0:0:
