osu file format v14

[General]
AudioFilename: audio.mp3
AudioLeadIn: 0
PreviewTime: 0
Countdown: 0
SampleSet: Soft
StackLeniency: 0.7
Mode: 0
LetterboxInBreaks: 0
WidescreenStoryboard: 1

[Editor]
DistanceSpacing: 1.4
BeatDivisor: 6
GridSize: 32
TimelineZoom: 1

[Metadata]
Title:Wonderful Christmastime
TitleUnicode:Wonderful Christmastime
Artist:R3 Music Box
ArtistUnicode:R3 Music Box
Creator:GalenTori
Version:Normal
Source:
Tags:Paul McCartney cover christmas time
BeatmapID:1838623
BeatmapSetID:879170

[Difficulty]
HPDrainRate:4
CircleSize:4
OverallDifficulty:5
ApproachRate:5
SliderMultiplier:1.3
SliderTickRate:1

[Events]
//Background and Video events
0,0,"7752911.jpg",0,0
//Break Periods
//Storyboard Layer 0 (Background)
//Storyboard Layer 1 (Fail)
//Storyboard Layer 2 (Pass)
//Storyboard Layer 3 (Foreground)
//Storyboard Sound Samples

[TimingPoints]
45,769.230769230769,4,2,1,45,1,0
44660,789.473684210526,4,2,1,45,1,0
45449,833.333333333333,4,2,1,45,1,0
46699,923.076923076923,4,2,1,45,1,0
47160,916.030534351145,4,2,1,45,1,0
47618,1000,4,2,1,45,1,0
48118,1076.2331838565,4,2,1,45,1,0
48656,1188.11881188119,4,2,1,45,1,0
49250,1052.63157894737,4,2,1,45,1,0

[Colours]
Combo1 : 0,202,202
Combo2 : 255,128,128
Combo3 : 255,128,0
Combo4 : 107,215,0

[HitObjects]
93,33,45,6,0,P|123:64|118:129,1,108.333333333333,4|0,0:0|0:0,0:0:0:0:
117,156,814,2,0,L|224:147,1,108.333333333333,2|2,0:0|0:0,0:0:0:0:
344,124,1968,1,0,0:0:0:0:
421,172,2352,2,0,L|410:263,1,65,2|0,0:0|0:0,0:0:0:0:
485,292,3121,6,0,P|435:319|435:381,1,108.333333333333,4|0,0:0|0:0,0:0:0:0:
397,367,3891,2,0,B|342:354|342:354|283:368,1,108.333333333333,2|2,0:0|0:0,0:0:0:0:
176,328,5044,1,0,0:0:0:0:
82,350,5429,2,0,L|7:343,1,65,2|0,0:0|0:0,0:0:0:0:
11,253,6198,6,0,P|48:203|100:204,1,108.333333333333,4|0,0:0|0:0,0:0:0:0:
120,200,6968,2,0,L|112:88,1,108.333333333333,2|2,0:0|0:0,0:0:0:0:
212,23,8121,1,0,0:0:0:0:
285,76,8506,2,0,P|348:71|364:52,1,65,2|0,0:0|0:0,0:0:0:0:
422,21,9275,6,0,P|486:46|498:93,1,108.333333333333,4|0,0:0|0:0,0:0:0:0:
510,107,10044,2,0,L|498:218,1,108.333333333333,2|2,0:0|0:0,0:0:0:0:
494,336,11198,1,0,0:0:0:0:
407,365,11583,2,0,P|365:357|321:353,1,65,2|0,0:0|0:0,0:0:0:0:
316,267,12352,6,0,L|336:174,2,65,4|0|2,0:0|0:0|0:0,0:0:0:0:
244,323,13506,1,0,0:0:0:0:
157,295,13891,2,0,P|103:281|52:295,1,108.333333333333,2|0,0:0|0:0,0:0:0:0:
24,304,14660,2,0,L|-2:197,1,108.333333333333,2|0,0:0|0:0,0:0:0:0:
22,180,15429,6,0,L|38:112,1,65,2|0,0:0|0:0,0:0:0:0:
50,27,16198,1,2,0:0:0:0:
141,24,16583,1,0,0:0:0:0:
225,57,16968,2,0,P|263:46|284:28,2,65,2|0|2,0:0|0:0|0:0,0:0:0:0:
197,143,18121,1,0,0:0:0:0:
273,191,18506,6,0,L|263:280,2,65,4|0|2,0:0|0:0|0:0,0:0:0:0:
343,135,19660,1,0,0:0:0:0:
432,152,20044,2,0,P|488:162|508:210,1,108.333333333333,2|0,0:0|0:0,0:0:0:0:
505,235,20814,2,0,L|389:259,1,108.333333333333,2|0,0:0|0:0,0:0:0:0:
377,278,21583,6,0,L|305:264,1,65,2|0,0:0|0:0,0:0:0:0:
222,255,22352,1,2,0:0:0:0:
244,343,22737,1,0,0:0:0:0:
157,369,23121,2,0,L|68:358,2,65,2|0|2,0:0|0:0|0:0,0:0:0:0:
120,285,24275,1,0,0:0:0:0:
148,196,24660,6,0,L|131:71,1,108.333333333333,4|0,0:0|0:0,0:0:0:0:
130,58,25429,2,0,B|170:39|170:39|243:46,1,108.333333333333,2|2,0:0|0:0,0:0:0:0:
353,26,26583,1,0,0:0:0:0:
439,55,26968,2,0,L|431:130,1,65,2|0,0:0|0:0,0:0:0:0:
355,168,27737,6,0,P|405:171|437:223,1,108.333333333333,4|0,0:0|0:0,0:0:0:0:
449,243,28506,2,0,B|473:278|473:278|457:352,1,108.333333333333,2|2,0:0|0:0,0:0:0:0:
339,322,29660,1,0,0:0:0:0:
255,357,30044,2,0,L|245:286,1,65,2|0,0:0|0:0,0:0:0:0:
210,208,30814,6,0,P|271:205|296:168,1,108.333333333333,4|0,0:0|0:0,0:0:0:0:
305,141,31583,2,0,B|292:94|292:94|311:32,1,108.333333333333,2|2,0:0|0:0,0:0:0:0:
189,16,32737,1,0,0:0:0:0:
100,37,33121,2,0,P|62:29|36:24,1,65,2|0,0:0|0:0,0:0:0:0:
15,112,33891,6,0,P|57:144|57:206,1,108.333333333333,4|0,0:0|0:0,0:0:0:0:
47,223,34660,2,0,B|27:261|27:261|41:334,1,108.333333333333,2|2,0:0|0:0,0:0:0:0:
159,309,35814,1,0,0:0:0:0:
238,353,36198,2,0,L|305:339,1,65,2|0,0:0|0:0,0:0:0:0:
392,339,36968,6,0,L|467:352,2,65,4|0|2,0:0|0:0|0:0,0:0:0:0:
313,292,38121,1,0,0:0:0:0:
344,206,38506,2,0,B|402:205|402:205|447:239,1,108.333333333333,2|0,0:0|0:0,0:0:0:0:
468,249,39275,2,0,P|502:225|502:158,1,108.333333333333,2|0,0:0|0:0,0:0:0:0:
488,136,40044,6,0,P|485:95|501:73,1,65,2|0,0:0|0:0,0:0:0:0:
421,25,40814,1,2,0:0:0:0:
338,62,41198,1,0,0:0:0:0:
250,38,41583,2,0,L|184:29,2,65,2|0|2,0:0|0:0|0:0,0:0:0:0:
294,117,42737,1,0,0:0:0:0:
239,189,43121,6,0,P|213:231|218:273,2,65,4|0|2,0:0|0:0|0:0,0:0:0:0:
303,252,44275,1,0,0:0:0:0:
275,336,44660,2,0,B|226:352|226:352|160:331,1,108.333333333333,2|0,0:0|0:0,0:0:0:0:
146,322,45449,2,0,B|108:314|108:314|38:330,1,108.333333333333,2|0,0:0|0:0,0:0:0:0:
16,310,46282,6,0,L|2:229,1,65,2|0,0:0|0:0,0:0:0:0:
71,164,47160,2,0,L|80:97,1,65,2|0,0:0|0:0,0:0:0:0:
156,40,48118,2,0,P|196:31|232:30,1,65,2|4,0:0|0:0,0:0:0:0:
337,25,49250,2,0,L|332:73,1,43.3333333333333,0|4,0:0|0:0,0:0:0:0:
