osu file format v14

[General]
AudioFilename: audio.mp3
AudioLeadIn: 0
PreviewTime: 0
Countdown: 1
SampleSet: Normal
StackLeniency: 0.7
Mode: 0
LetterboxInBreaks: 0
WidescreenStoryboard: 0

[Editor]
DistanceSpacing: 1.9
BeatDivisor: 4
GridSize: 16
TimelineZoom: 1

[Metadata]
Title:U.N. Owen Was Her?
TitleUnicode:U.N. Owen Was Her?
Artist:R3 Music Box
ArtistUnicode:R3 Music Box
Creator:FlandreScarlet0
Version:Flandre Scarlet
Source:東方紅魔郷 ~ the Embodiment of Scarlet Devil.
Tags:Touhou Eosd Flandre Scarlet R3 Music Box u.n. owen was her
BeatmapID:2036178
BeatmapSetID:972518

[Difficulty]
HPDrainRate:6
CircleSize:5
OverallDifficulty:6
ApproachRate:6
SliderMultiplier:1
SliderTickRate:1

[Events]
//Background and Video events
0,0,"smile-cute-anime-girl-touhou-flandre-scarlet (1).jpg",0,0
//Break Periods
//Storyboard Layer 0 (Background)
//Storyboard Layer 1 (Fail)
//Storyboard Layer 2 (Pass)
//Storyboard Layer 3 (Foreground)
//Storyboard Sound Samples

[TimingPoints]
0,722.89156626506,4,1,0,100,1,0

[HitObjects]
46,38,0,5,0,3:3:0:0:
134,38,722,1,0,3:3:0:0:
134,126,1445,1,0,3:3:0:0:
46,126,2168,1,0,3:3:0:0:
46,214,2891,1,0,3:3:0:0:
137,211,3614,5,0,3:3:0:0:
203,211,3975,1,0,3:3:0:0:
270,211,4337,1,0,3:3:0:0:
403,211,5060,2,0,L|403:102,1,100
337,114,6144,5,0,3:3:0:0:
270,114,6506,1,0,3:3:0:0:
204,114,6867,1,0,3:3:0:0:
138,114,7228,1,0,0:0:0:0:
144,186,7590,5,0,0:0:0:0:
144,186,7771,1,0,0:0:0:0:
144,186,7951,1,0,0:0:0:0:
144,252,8313,1,0,0:0:0:0:
210,252,8674,6,0,L|210:308,1,50
253,252,9397,2,0,L|253:302,1,50
296,252,10120,2,0,L|296:302,2,50
466,38,11566,5,0,3:3:0:0:
378,38,12288,1,0,3:3:0:0:
378,126,13011,1,0,3:3:0:0:
466,126,13734,1,0,3:3:0:0:
466,214,14457,1,0,3:3:0:0:
375,211,15180,5,0,3:3:0:0:
309,211,15541,1,0,3:3:0:0:
242,211,15903,1,0,3:3:0:0:
109,211,16626,2,0,L|109:102,1,100
175,114,17710,5,0,3:3:0:0:
175,180,18072,1,0,0:0:0:0:
175,246,18433,1,0,0:0:0:0:
175,312,18795,1,0,0:0:0:0:
247,318,19156,5,0,0:0:0:0:
247,318,19337,1,0,0:0:0:0:
247,318,19518,1,0,0:0:0:0:
247,252,19879,1,0,0:0:0:0:
247,186,20240,6,0,L|247:82,1,100
379,86,21686,2,0,L|379:186,1,100
37,351,23132,5,0,3:3:0:0:
144,351,23854,1,0,3:3:0:0:
144,243,24577,1,0,3:3:0:0:
37,243,25300,1,0,3:3:0:0:
37,136,26023,1,0,3:3:0:0:
147,140,26746,5,0,3:3:0:0:
228,140,27107,1,0,3:3:0:0:
310,140,27469,1,0,3:3:0:0:
472,140,28192,2,0,L|472:261,1,100
391,258,29276,5,0,3:3:0:0:
310,258,29638,1,0,3:3:0:0:
229,258,29999,1,0,3:3:0:0:
149,258,30360,1,0,0:0:0:0:
156,170,30722,5,0,0:0:0:0:
156,170,30903,1,0,0:0:0:0:
156,170,31083,1,0,0:0:0:0:
156,90,31445,1,0,0:0:0:0:
236,90,31806,6,0,L|236:29,1,50
289,90,32529,2,0,L|289:29,1,50
341,90,33252,2,0,L|341:29,2,50
475,351,34698,5,0,3:3:0:0:
368,351,35420,1,0,3:3:0:0:
368,243,36143,1,0,3:3:0:0:
475,243,36866,1,0,3:3:0:0:
475,136,37589,1,0,3:3:0:0:
365,140,38312,5,0,3:3:0:0:
284,140,38673,1,0,3:3:0:0:
202,140,39035,1,0,3:3:0:0:
202,302,39759,2,0,L|319:302,1,100
302,220,40843,5,0,0:0:0:0:
302,140,41204,1,0,0:0:0:0:
302,59,41566,1,0,0:0:0:0:
222,59,41927,1,0,0:0:0:0:
228,146,42289,5,0,0:0:0:0:
228,146,42469,1,0,0:0:0:0:
228,146,42650,1,0,0:0:0:0:
228,227,43012,1,0,0:0:0:0:
256,192,43373,12,0,49817,0:0:0:0:
