osu file format v14

[General]
AudioFilename: audio.mp3
AudioLeadIn: 0
PreviewTime: 0
Countdown: 0
SampleSet: Soft
StackLeniency: 0.6
Mode: 0
LetterboxInBreaks: 0
WidescreenStoryboard: 0

[Editor]
DistanceSpacing: 1
BeatDivisor: 4
GridSize: 16
TimelineZoom: 0.6999999

[Metadata]
Title:Tengaku
TitleUnicode:Tengaku
Artist:R3 Music Box
ArtistUnicode:R3 Music Box
Creator:AlexTroIIPsy
Version:Heaven
Source:
Tags:
BeatmapID:1572230
BeatmapSetID:745865

[Difficulty]
HPDrainRate:4
CircleSize:4.5
OverallDifficulty:6
ApproachRate:6
SliderMultiplier:1.75
SliderTickRate:2

[Events]
//Background and Video events
0,0,"Bg tenr3.jpg",0,0
//Break Periods
//Storyboard Layer 0 (Background)
//Storyboard Layer 1 (Fail)
//Storyboard Layer 2 (Pass)
//Storyboard Layer 3 (Foreground)
//Storyboard Sound Samples

[TimingPoints]
83,638.297872340426,3,2,0,30,1,0
16519,-100,3,2,0,10,0,0
16678,-100,3,2,0,45,0,0
17157,-100,3,2,0,10,0,0
17317,-100,3,2,0,40,0,0
17795,-100,3,2,0,10,0,0
17955,-100,3,2,0,35,0,0
18434,-100,3,2,0,10,0,0
18593,-100,3,2,0,40,0,0
19072,-100,3,2,0,10,0,0
19231,-100,3,2,0,45,0,0
19710,-100,3,2,0,10,0,0
19870,-100,3,2,0,40,0,0
20348,-100,3,2,0,10,0,0
20508,-100,3,2,0,35,0,0
20987,-100,3,2,0,10,0,0
21146,-100,3,2,0,40,0,0
24657,-100,3,2,0,30,0,0
47157,-100,3,2,0,10,0,0
47316,-100,3,2,0,45,0,0
47795,-100,3,2,0,10,0,0
47955,-100,3,2,0,40,0,0
48433,-100,3,2,0,10,0,0
48593,-100,3,2,0,35,0,0
49072,-100,3,2,0,10,0,0
49231,-100,3,2,0,40,0,0
49710,-100,3,2,0,10,0,0
49869,-100,3,2,0,45,0,0
50348,-100,3,2,0,10,0,0
50508,-100,3,2,0,40,0,0
50986,-100,3,2,0,10,0,0
51146,-100,3,2,0,35,0,0
51625,-100,3,2,0,10,0,0
51784,-100,3,2,0,40,0,0
55614,666.666666666667,3,2,0,30,1,0
56947,697.67441860465,3,2,0,30,1,0
57295,705.882352941176,3,2,0,30,1,0
57647,731.70731707317,3,2,0,30,1,0
58012,821.917808219177,3,2,0,30,1,0
58422,799.999999999999,3,2,0,30,1,0
58822,999.999999999998,3,2,0,30,1,0
59822,857.142857142856,3,2,0,30,1,0

[Colours]
Combo1 : 242,182,0
Combo2 : 255,128,64
Combo3 : 0,210,210
Combo4 : 108,108,255

[HitObjects]
145,124,83,6,0,P|99:168|7:139,1,131.25,2|0,0:0|0:0,0:0:0:0:
2,103,721,1,6,0:0:0:0:
50,8,1040,2,0,L|76:113,1,87.5,0|0,0:0|0:0,0:0:0:0:
137,24,1678,1,2,0:0:0:0:
229,74,1997,2,0,P|291:93|348:76,1,87.5,2|2,0:0|0:0,0:0:0:0:
379,45,2476,1,2,0:0:0:0:
379,45,2636,1,2,0:0:0:0:
448,124,2955,1,2,0:0:0:0:
393,213,3274,6,0,P|410:269|455:303,1,87.5,2|0,0:0|0:0,0:0:0:0:
389,344,3753,2,0,P|332:330|280:352,1,87.5,2|0,0:0|0:0,0:0:0:0:
226,366,4231,1,2,0:0:0:0:
150,228,4551,1,2,0:0:0:0:
154,316,4870,1,2,0:0:0:0:
204,157,5189,1,2,0:0:0:0:
237,252,5508,1,2,0:0:0:0:
154,316,5827,6,0,L|51:317,1,87.5,2|0,0:0|0:0,0:0:0:0:
62,228,6465,2,0,L|165:227,1,87.5,2|0,0:0|0:0,0:0:0:0:
291,156,7104,2,0,L|188:157,1,87.5,2|0,0:0|0:0,0:0:0:0:
199,68,7742,2,0,L|302:67,1,87.5,2|0,0:0|0:0,0:0:0:0:
452,62,8380,5,2,0:0:0:0:
443,206,8700,1,2,0:0:0:0:
345,124,9019,5,2,0:0:0:0:
378,242,9338,1,2,0:0:0:0:
472,318,9657,5,2,0:0:0:0:
364,333,9976,1,2,0:0:0:0:
241,235,10295,6,0,P|154:192|113:211,1,131.25,2|0,0:0|0:0,0:0:0:0:
80,264,10934,1,6,0:0:0:0:
79,263,11253,2,0,L|166:275,1,87.5
263,332,11891,1,2,0:0:0:0:
320,276,12210,2,0,L|407:273,1,87.5,2|2,0:0|0:0,0:0:0:0:
488,314,12689,1,2,0:0:0:0:
488,314,12848,1,2,0:0:0:0:
509,211,13168,1,2,0:0:0:0:
407,187,13487,6,0,P|353:144|345:98,1,87.5,2|2,0:0|0:0,0:0:0:0:
343,45,13965,1,2,0:0:0:0:
343,45,14125,1,2,0:0:0:0:
419,116,14444,1,2,0:0:0:0:
279,101,14763,2,0,L|160:98,1,87.5,2|2,0:0|0:0,0:0:0:0:
85,170,15402,2,0,L|204:173,1,87.5,2|2,0:0|0:0,0:0:0:0:
240,257,16040,6,0,P|164:273|90:247,1,131.25,2|0,0:0|0:0,0:0:0:0:
52,277,16678,2,0,P|115:289|178:273,1,131.25,2|0,0:0|0:0,0:0:0:0:
241,287,17317,2,0,P|165:303|91:277,1,131.25,2|0,0:0|0:0,0:0:0:0:
53,307,17955,2,0,P|116:319|179:303,1,131.25,2|0,0:0|0:0,0:0:0:0:
149,206,18593,6,0,P|105:254|88:317,1,131.25,2|0,0:0|0:0,0:0:0:0:
179,302,19231,2,0,P|242:314|305:298,1,131.25,2|0,0:0|0:0,0:0:0:0:
250,230,19870,2,0,P|230:167|184:121,1,131.25,2|0,0:0|0:0,0:0:0:0:
83,97,20508,2,0,P|102:159|148:205,1,131.25,2|0,0:0|0:0,0:0:0:0:
250,230,21146,5,2,0:0:0:0:
317,251,21465,1,0,0:0:0:0:
229,168,21785,5,2,0:0:0:0:
298,180,22104,1,0,0:0:0:0:
183,121,22423,5,2,0:0:0:0:
252,105,22742,1,0,0:0:0:0:
139,57,23061,6,0,P|114:86|120:170,1,87.5,2|2,0:0|0:0,0:0:0:0:
126,208,23540,1,2,0:0:0:0:
126,208,23700,2,0,L|131:307,1,87.5,2|2,0:0|0:0,0:0:0:0:
197,356,24338,1,2,0:0:0:0:
260,297,24657,6,0,L|355:320,1,87.5,2|2,0:0|0:0,0:0:0:0:
432,253,25295,2,0,L|337:230,1,87.5,2|2,0:0|0:0,0:0:0:0:
285,150,25934,1,2,0:0:0:0:
361,79,26253,6,0,L|368:180,1,87.5,2|0,0:0|0:0,0:0:0:0:
278,62,26891,2,0,L|285:163,1,87.5,2|0,0:0|0:0,0:0:0:0:
195,45,27529,2,0,L|202:146,1,87.5,2|0,0:0|0:0,0:0:0:0:
118,115,28168,2,0,L|112:28,1,87.5,2|0,0:0|0:0,0:0:0:0:
39,129,28806,5,2,0:0:0:0:
100,190,29125,1,2,0:0:0:0:
38,251,29444,1,2,0:0:0:0:
99,312,29763,1,2,0:0:0:0:
161,249,30083,1,2,0:0:0:0:
251,252,30402,1,2,0:0:0:0:
309,310,30721,6,0,P|334:249|285:178,1,131.25,2|0,0:0|0:0,0:0:0:0:
241,181,31359,1,6,0:0:0:0:
161,252,31678,2,0,L|248:252,1,87.5
171,177,32317,1,2,0:0:0:0:
65,176,32636,2,0,L|61:263,1,87.5,2|2,0:0|0:0,0:0:0:0:
46,340,33114,1,2,0:0:0:0:
46,340,33274,1,2,0:0:0:0:
132,328,33593,1,0,0:0:0:0:
235,355,33912,6,0,P|281:339|336:353,1,87.5,2|0,0:0|0:0,0:0:0:0:
392,318,34391,2,0,P|360:281|305:265,1,87.5,2|0,0:0|0:0,0:0:0:0:
237,268,34870,1,2,0:0:0:0:
352,180,35189,1,2,0:0:0:0:
270,197,35508,1,2,0:0:0:0:
294,119,35827,1,2,0:0:0:0:
380,104,36146,1,2,0:0:0:0:
206,181,36465,6,0,L|127:256,1,87.5,2|0,0:0|0:0,0:0:0:0:
53,225,37104,2,0,L|132:150,1,87.5,2|0,0:0|0:0,0:0:0:0:
180,310,37742,2,0,L|101:385,1,87.5,2|0,0:0|0:0,0:0:0:0:
26,350,38380,2,0,L|105:275,1,87.5,2|0,0:0|0:0,0:0:0:0:
263,347,39019,5,2,0:0:0:0:
400,308,39338,1,2,0:0:0:0:
304,183,39657,5,2,0:0:0:0:
244,259,39976,1,2,0:0:0:0:
336,357,40295,5,2,0:0:0:0:
323,288,40614,1,2,0:0:0:0:
377,170,40934,6,0,P|440:155|509:222,1,131.25,2|0,0:0|0:0,0:0:0:0:
512,257,41572,1,6,0:0:0:0:
443,318,41891,2,0,L|428:232,1,87.5
341,247,42529,1,2,0:0:0:0:
336,357,42848,2,0,L|236:356,1,87.5,2|2,0:0|0:0,0:0:0:0:
162,357,43327,1,2,0:0:0:0:
162,357,43487,1,2,0:0:0:0:
74,300,43806,1,2,0:0:0:0:
120,205,44125,6,0,P|105:138|68:104,1,87.5,2|2,0:0|0:0,0:0:0:0:
22,88,44604,1,2,0:0:0:0:
22,88,44763,1,2,0:0:0:0:
111,34,45083,2,0,L|213:29,1,87.5,2|2,0:0|0:0,0:0:0:0:
184,116,45721,2,0,L|286:121,1,87.5,2|2,0:0|0:0,0:0:0:0:
351,74,46359,1,2,0:0:0:0:
404,156,46678,6,0,P|376:223|318:232,1,131.25,2|0,0:0|0:0,0:0:0:0:
337,168,47317,2,0,L|445:243,1,131.25,2|0,0:0|0:0,0:0:0:0:
467,330,47955,2,0,P|394:314|358:383,1,131.25,2|0,0:0|0:0,0:0:0:0:
421,374,48593,2,0,L|299:284,1,131.25,2|0,0:0|0:0,0:0:0:0:
198,351,49231,6,0,P|223:273|181:232,1,131.25,2|0,0:0|0:0,0:0:0:0:
225,180,49870,2,0,P|144:197|130:254,1,131.25,2|0,0:0|0:0,0:0:0:0:
62,242,50508,2,0,P|117:302|173:286,1,131.25,2|0,0:0|0:0,0:0:0:0:
293,294,51146,2,0,P|237:233|181:249,1,131.25,2|0,0:0|0:0,0:0:0:0:
227,299,51785,5,2,0:0:0:0:
197,359,52104,1,0,0:0:0:0:
195,239,52423,5,2,0:0:0:0:
159,295,52742,1,0,0:0:0:0:
141,193,53061,5,2,0:0:0:0:
104,248,53380,1,0,0:0:0:0:
13,219,53700,6,0,P|18:276|32:311,1,87.5,2|2,0:0|0:0,0:0:0:0:
90,367,54178,1,2,0:0:0:0:
90,367,54338,2,0,L|185:356,1,87.5,2|2,0:0|0:0,0:0:0:0:
246,320,54976,1,2,0:0:0:0:
345,353,55295,6,0,L|441:372,1,87.5,2|2,0:0|0:0,0:0:0:0:
488,277,55947,2,0,L|392:296,1,87.5,2|2,0:0|0:0,0:0:0:0:
345,182,56614,1,2,0:0:0:0:
430,209,56947,1,6,0:0:0:0:
256,192,57121,8,0,60143,0:0:0:0:
