osu file format v14

[General]
AudioFilename: audio.mp3
AudioLeadIn: 0
PreviewTime: 19770
Countdown: 1
SampleSet: Soft
StackLeniency: 0.7
Mode: 0
LetterboxInBreaks: 0
WidescreenStoryboard: 1

[Editor]
DistanceSpacing: 1
BeatDivisor: 4
GridSize: 16
TimelineZoom: 1

[Metadata]
Title:Take Me Home, Country Roads
TitleUnicode:Take Me Home, Country Roads
Artist:R3 Music Box
ArtistUnicode:R3 Music Box
Creator:UltraBagel
Version:Normal
Source:Fallout 76
Tags:Fallout 76 R3 Music Box Take Me Home, Country Road
BeatmapID:1687375
BeatmapSetID:803857

[Difficulty]
HPDrainRate:3
CircleSize:5.4
OverallDifficulty:2.4
ApproachRate:4.8
SliderMultiplier:1.2
SliderTickRate:1

[Events]
//Background and Video events
0,0,"128442.jpg",0,0
//Break Periods
//Storyboard Layer 0 (Background)
//Storyboard Layer 1 (Fail)
//Storyboard Layer 2 (Pass)
//Storyboard Layer 3 (Foreground)
//Storyboard Sound Samples

[TimingPoints]
44.6669981447004,821.917808219178,4,2,1,15,1,0
62510,-100,4,2,1,10,0,0
63332,882.352941176471,4,2,1,5,1,0
64214,909.090909090909,4,2,1,5,1,0
65123,923.076923076923,4,2,1,5,1,0
65584,1034.48275862069,4,2,1,5,1,0
66101,1090.90909090909,4,2,1,5,1,0

[HitObjects]
117,56,44,5,2,0:0:0:0:
75,127,455,5,2,0:0:0:0:
75,127,661,6,0,P|73:171|103:214,1,90,2|0,0:0|0:0,0:0:0:0:
153,190,1688,1,0,0:0:0:0:
190,237,2099,1,0,0:0:0:0:
136,264,2510,2,0,L|144:332,1,60
209,347,3332,6,2,L|250:342,3,30
325,276,4565,5,0,0:0:0:0:
352,222,4976,2,0,P|350:171|342:155,1,60
310,115,5798,2,0,P|268:85|251:81,1,60
237,140,6620,5,2,0:0:0:0:
161,44,7030,5,2,0:0:0:0:
161,44,7236,1,2,0:0:0:0:
161,44,7441,6,0,L|231:37,1,60
260,82,8263,1,0,0:0:0:0:
310,48,8674,1,0,0:0:0:0:
320,107,9085,2,0,P|311:143|319:172,1,60
355,210,9907,5,2,0:0:0:0:
389,294,10318,5,2,0:0:0:0:
389,294,10524,1,2,0:0:0:0:
389,294,10729,6,0,L|323:304,1,60
328,242,11551,2,0,L|262:252,1,60
313,178,12373,2,0,L|379:188,1,60
401,239,13195,6,2,L|393:288,3,30
357,314,14222,1,2,0:0:0:0:
296,247,14839,6,0,P|255:242|230:249,1,60
252,304,15661,2,0,P|222:308|193:303,1,60
162,251,16483,5,2,0:0:0:0:
198,203,16893,1,2,0:0:0:0:
152,147,17304,6,0,L|217:143,1,60,2|0,0:0|0:0,0:0:0:0:
244,92,18126,1,0,0:0:0:0:
285,135,18537,1,0,0:0:0:0:
317,84,18948,2,0,L|382:80,1,60
383,140,19770,6,2,P|374:177|377:191,3,30
309,231,21003,5,0,0:0:0:0:
252,194,21414,2,0,L|248:263,1,60
188,224,22236,2,0,L|192:155,1,60
139,133,23058,5,2,0:0:0:0:
113,78,23469,1,2,0:0:0:0:
113,78,23674,1,2,0:0:0:0:
113,78,23880,6,0,P|85:110|78:133,1,60
134,149,24702,1,0,0:0:0:0:
86,185,25113,1,0,0:0:0:0:
139,211,25524,2,0,L|203:216,1,60
235,168,26346,5,2,0:0:0:0:
269,230,26756,1,2,0:0:0:0:
269,230,26962,1,2,0:0:0:0:
269,230,27167,6,0,L|264:294,1,60
324,283,27989,2,0,L|329:347,1,60
384,251,28811,2,0,L|389:315,1,60
338,343,29633,6,2,L|294:339,3,30
246,275,30866,5,0,0:0:0:0:
193,303,31277,2,0,P|175:275|175:241,1,60
129,207,32099,2,0,P|111:235|111:269,1,60
119,320,32921,5,2,0:0:0:0:
67,351,33332,1,2,0:0:0:0:
67,351,33537,1,2,0:0:0:0:
67,351,33743,6,0,P|54:303|61:286,1,60
108,264,34565,2,0,P|121:312|114:329,1,60
56,295,35387,2,0,P|43:247|50:230,1,60
90,198,36209,5,2,0:0:0:0:
62,144,36620,1,2,0:0:0:0:
62,144,36825,1,2,0:0:0:0:
62,144,37030,6,0,L|137:138,1,60
104,81,37852,2,0,L|179:75,1,60
187,131,38674,2,0,L|246:126,1,60
269,70,39496,5,2,0:0:0:0:
316,33,39907,1,2,0:0:0:0:
316,33,40113,1,2,0:0:0:0:
329,91,40524,1,2,0:0:0:0:
400,35,41140,6,0,P|413:79|409:105,1,60
383,145,41962,2,0,P|370:189|374:215,1,60
427,222,42784,6,2,L|432:262,3,30
408,307,43811,1,2,0:0:0:0:
340,366,44428,6,0,L|276:358,1,60
283,298,45250,2,0,L|219:306,1,60
209,363,46072,6,2,L|161:357,3,30
124,288,47304,5,0,0:0:0:0:
150,234,47715,2,0,P|157:196|150:168,1,60
99,147,48537,2,0,P|91:184|98:212,1,60
153,175,49359,5,2,0:0:0:0:
159,241,49770,1,2,0:0:0:0:
159,241,49976,1,2,0:0:0:0:
159,241,50181,6,0,L|155:307,1,60
215,268,51003,2,0,L|211:334,1,60
273,299,51825,2,0,L|276:239,1,60
237,193,52647,6,2,L|190:190,3,30
151,120,53880,5,0,0:0:0:0:
151,120,54291,2,0,P|138:172|143:191,1,60
160,233,55113,2,0,P|197:271|215:277,1,60
255,247,55935,6,2,L|300:251,3,30
336,176,57167,5,0,0:0:0:0:
336,176,57578,2,0,P|284:172|267:184,1,60
304,228,58400,2,0,P|356:232|373:220,1,60
336,176,59222,6,2,L|339:141,3,30
289,70,60455,5,0,0:0:0:0:
229,79,60866,2,0,L|160:88,1,60
198,142,61688,2,0,L|267:151,1,60
255,209,62510,6,2,P|274:236|275:239,3,30
256,192,63332,12,0,66101,0:0:0:0:
