osu file format v14

[General]
AudioFilename: audio.mp3
AudioLeadIn: 0
PreviewTime: 76
Countdown: 0
SampleSet: Normal
StackLeniency: 1
Mode: 1
LetterboxInBreaks: 0
WidescreenStoryboard: 0

[Editor]
DistanceSpacing: 1
BeatDivisor: 4
GridSize: 32
TimelineZoom: 1

[Metadata]
Title:Sugar Song to Bitter Step
TitleUnicode:シュガーソングとビターステップ
Artist:R3 Music Box
ArtistUnicode:R3 Music Box
Creator:Poii
Version:FDJv's Muzukashii
Source:血界戦線
Tags:kekkai sensen ed blood blockade battlefront unison square garden yuzu__rinrin dapuluous franklin_dejavu
BeatmapID:1390969
BeatmapSetID:655062

[Difficulty]
HPDrainRate:6
CircleSize:2
OverallDifficulty:4
ApproachRate:10
SliderMultiplier:1.4
SliderTickRate:1

[Events]
//Background and Video events
0,0,"This+is+JPEG+File.jpg",0,70
//Break Periods
//Storyboard Layer 0 (Background)
//Storyboard Layer 1 (Fail)
//Storyboard Layer 2 (Pass)
//Storyboard Layer 3 (Foreground)
//Storyboard Sound Samples

[TimingPoints]
76,645.161290322581,4,1,0,40,1,0
31043,-100,4,1,0,40,0,1
51688,-100,4,1,0,40,0,0
58613,659.340659340659,4,1,0,40,1,8
58613,-97.8473581213307,4,1,0,40,0,0
59437,659.340659340659,4,1,0,40,1,0
59437,-98.0392156862745,4,1,0,40,0,0
60455,705.882352941176,4,1,0,40,1,8
60455,-91.4076782449726,4,1,0,40,0,0
62219,705.882352941176,4,1,0,40,1,0
62219,-91.743119266055,4,1,0,40,0,0

[HitObjects]
128,96,76,5,0,0:0:0:0:
384,96,721,1,8,0:0:0:0:
128,96,1043,1,0,0:0:0:0:
384,96,1366,1,8,0:0:0:0:
384,96,1850,1,8,0:0:0:0:
384,96,2334,1,8,0:0:0:0:
128,96,2979,1,0,0:0:0:0:
384,96,3301,1,8,0:0:0:0:
384,96,3946,1,8,0:0:0:0:
384,96,4269,1,8,0:0:0:0:
384,96,4430,1,8,0:0:0:0:
128,96,4914,1,0,0:0:0:0:
384,96,5237,1,8,0:0:0:0:
384,96,5882,1,8,0:0:0:0:
128,96,6205,1,0,0:0:0:0:
128,96,6527,1,0,0:0:0:0:
384,96,7172,1,8,0:0:0:0:
128,96,7495,1,8,0:0:0:0:
128,96,7817,1,0,0:0:0:0:
384,96,8463,1,8,0:0:0:0:
384,96,9108,1,8,0:0:0:0:
384,96,9430,1,0,0:0:0:0:
384,96,9592,1,0,0:0:0:0:
128,96,10398,1,0,0:0:0:0:
384,96,11043,1,8,0:0:0:0:
128,96,11366,1,0,0:0:0:0:
128,96,11688,1,0,0:0:0:0:
384,96,12172,1,8,0:0:0:0:
384,96,12656,1,8,0:0:0:0:
128,96,13301,1,0,0:0:0:0:
384,96,13624,1,8,0:0:0:0:
384,96,14269,1,8,0:0:0:0:
384,96,14592,1,8,0:0:0:0:
384,96,14753,1,8,0:0:0:0:
128,96,15237,1,0,0:0:0:0:
384,96,15559,1,8,0:0:0:0:
384,96,16205,1,8,0:0:0:0:
128,96,16527,1,0,0:0:0:0:
128,96,16688,1,0,0:0:0:0:
128,96,17172,1,0,0:0:0:0:
384,96,17495,1,8,0:0:0:0:
384,96,17979,1,8,0:0:0:0:
384,96,18463,1,8,0:0:0:0:
128,96,18785,1,0,0:0:0:0:
128,96,18946,1,0,0:0:0:0:
128,96,19269,1,0,0:0:0:0:
384,96,19753,1,8,0:0:0:0:
384,96,20076,1,8,0:0:0:0:
128,96,20398,1,0,0:0:0:0:
128,96,20721,1,0,0:0:0:0:
128,96,21366,1,0,0:0:0:0:
384,96,22011,1,8,0:0:0:0:
128,96,22495,1,0,0:0:0:0:
128,96,22817,1,0,0:0:0:0:
384,96,23140,1,8,0:0:0:0:
128,96,23624,1,0,0:0:0:0:
384,96,23946,1,8,0:0:0:0:
384,96,24430,1,8,0:0:0:0:
384,96,24914,1,8,0:0:0:0:
128,96,25237,1,0,0:0:0:0:
128,96,25882,1,0,0:0:0:0:
128,96,27172,1,0,0:0:0:0:
128,96,27817,1,0,0:0:0:0:
384,96,28463,1,8,0:0:0:0:
128,96,29108,1,0,0:0:0:0:
384,96,29753,1,8,0:0:0:0:
384,96,30398,1,8,0:0:0:0:
128,96,31043,1,0,0:0:0:0:
384,96,31688,1,8,0:0:0:0:
128,96,32011,1,0,0:0:0:0:
384,96,32334,1,8,0:0:0:0:
384,96,32495,1,8,0:0:0:0:
384,96,32817,1,8,0:0:0:0:
384,96,33301,1,8,0:0:0:0:
128,96,33946,1,0,0:0:0:0:
384,96,34269,1,8,0:0:0:0:
128,96,34914,1,0,0:0:0:0:
384,96,35237,1,8,0:0:0:0:
384,96,35398,1,8,0:0:0:0:
384,96,36205,1,8,0:0:0:0:
384,96,36526,1,8,0:0:0:0:
128,96,36850,1,0,0:0:0:0:
128,96,37495,1,0,0:0:0:0:
384,96,38140,1,8,0:0:0:0:
384,96,38785,1,8,0:0:0:0:
128,96,39108,1,0,0:0:0:0:
384,96,39431,1,8,0:0:0:0:
384,96,40076,1,8,0:0:0:0:
384,96,40398,1,0,0:0:0:0:
384,96,40559,1,0,0:0:0:0:
128,96,41366,1,0,0:0:0:0:
384,96,42011,1,8,0:0:0:0:
128,96,42334,1,0,0:0:0:0:
384,96,42656,1,8,0:0:0:0:
384,96,42817,1,8,0:0:0:0:
384,96,43140,1,8,0:0:0:0:
384,96,43624,1,8,0:0:0:0:
128,96,44269,1,0,0:0:0:0:
384,96,44592,1,8,0:0:0:0:
128,96,45237,1,0,0:0:0:0:
384,96,45560,1,8,0:0:0:0:
384,96,45721,1,8,0:0:0:0:
128,96,46205,1,0,0:0:0:0:
384,96,46527,1,8,0:0:0:0:
384,96,47172,1,8,0:0:0:0:
128,96,47495,1,0,0:0:0:0:
128,96,47656,1,0,0:0:0:0:
128,96,48140,1,0,0:0:0:0:
384,96,48463,1,8,0:0:0:0:
384,96,48946,1,8,0:0:0:0:
384,96,49430,1,8,0:0:0:0:
384,96,49753,1,8,0:0:0:0:
384,96,49914,1,8,0:0:0:0:
128,96,50237,1,0,0:0:0:0:
384,96,50721,1,8,0:0:0:0:
384,96,51043,1,8,0:0:0:0:
128,96,51366,1,0,0:0:0:0:
128,96,51688,1,0,0:0:0:0:
128,96,52334,1,0,0:0:0:0:
384,96,52979,1,8,0:0:0:0:
128,96,53463,1,0,0:0:0:0:
128,96,53786,1,0,0:0:0:0:
384,96,54108,1,8,0:0:0:0:
128,96,54592,1,0,0:0:0:0:
384,96,54914,1,8,0:0:0:0:
384,96,55398,1,8,0:0:0:0:
384,96,55882,1,8,0:0:0:0:
128,96,56205,1,0,0:0:0:0:
384,96,56850,1,8,0:0:0:0:
128,96,57495,1,0,0:0:0:0:
384,96,58140,1,8,0:0:0:0:
128,96,58613,1,0,0:0:0:0:
128,96,58943,1,0,0:0:0:0:
384,96,59272,1,8,0:0:0:0:
128,96,59766,1,0,0:0:0:0:
384,96,60096,1,8,0:0:0:0:
384,96,60631,1,8,0:0:0:0:
384,96,61160,1,8,0:0:0:0:
128,96,61513,1,0,0:0:0:0:
