osu file format v14

[General]
AudioFilename: audio.mp3
AudioLeadIn: 0
PreviewTime: 76
Countdown: 0
SampleSet: Normal
StackLeniency: 1
Mode: 1
LetterboxInBreaks: 0
WidescreenStoryboard: 0

[Editor]
DistanceSpacing: 0.5
BeatDivisor: 4
GridSize: 32
TimelineZoom: 1

[Metadata]
Title:Sugar Song to Bitter Step
TitleUnicode:シュガーソングとビターステップ
Artist:R3 Music Box
ArtistUnicode:R3 Music Box
Creator:Poii
Version:Dapu's Kantan
Source:血界戦線
Tags:kekkai sensen ed blood blockade battlefront unison square garden yuzu__rinrin dapuluous franklin_dejavu
BeatmapID:1476864
BeatmapSetID:655062

[Difficulty]
HPDrainRate:9
CircleSize:2
OverallDifficulty:3
ApproachRate:10
SliderMultiplier:1.4
SliderTickRate:1

[Events]
//Background and Video events
0,0,"This+is+JPEG+File.jpg",0,70
//Break Periods
//Storyboard Layer 0 (Background)
//Storyboard Layer 1 (Fail)
//Storyboard Layer 2 (Pass)
//Storyboard Layer 3 (Foreground)
//Storyboard Sound Samples

[TimingPoints]
76,645.161290322581,4,1,0,40,1,0
31043,-100,4,1,0,40,0,1
51688,-100,4,1,0,40,0,0
58613,659.340659340659,4,1,0,40,1,8
58613,-97.8473581213307,4,1,0,40,0,0
59437,659.340659340659,4,1,0,40,1,0
59437,-98.0392156862745,4,1,0,40,0,0
60455,705.882352941176,4,1,0,40,1,8
60455,-91.4076782449726,4,1,0,40,0,0
62219,705.882352941176,4,1,0,40,1,0
62219,-91.743119266055,4,1,0,40,0,0

[HitObjects]
256,192,76,5,0,0:0:0:0:
256,192,1366,1,2,0:0:0:0:
256,192,2334,1,0,0:0:0:0:
256,192,3301,1,0,0:0:0:0:
256,192,3946,1,2,0:0:0:0:
256,192,5237,1,2,0:0:0:0:
256,192,6527,1,0,0:0:0:0:
256,192,7817,1,2,0:0:0:0:
256,192,8463,1,2,0:0:0:0:
256,192,9108,1,2,0:0:0:0:
256,192,10398,1,0,0:0:0:0:
256,192,11688,1,2,0:0:0:0:
256,192,12656,1,0,0:0:0:0:
256,192,13624,1,0,0:0:0:0:
256,192,14269,1,2,0:0:0:0:
256,192,15559,1,2,0:0:0:0:
256,192,17495,1,8,0:0:0:0:
256,192,18140,1,8,0:0:0:0:
256,192,20076,1,0,0:0:0:0:
256,192,20721,1,2,0:0:0:0:
256,192,22011,1,2,0:0:0:0:
256,192,23946,1,2,0:0:0:0:
256,192,24592,1,0,0:0:0:0:
256,192,25237,1,0,0:0:0:0:
256,192,27172,1,0,0:0:0:0:
256,192,28463,1,0,0:0:0:0:
256,192,29108,1,2,0:0:0:0:
256,192,29753,1,2,0:0:0:0:
256,192,31043,5,0,0:0:0:0:
256,192,31688,1,8,0:0:0:0:
256,192,32333,1,2,0:0:0:0:
256,192,33301,1,0,0:0:0:0:
256,192,34269,1,0,0:0:0:0:
256,192,34913,1,2,0:0:0:0:
256,192,36204,1,2,0:0:0:0:
256,192,37494,1,0,0:0:0:0:
256,192,38784,1,2,0:0:0:0:
256,192,39430,1,2,0:0:0:0:
256,192,40075,1,2,0:0:0:0:
256,192,41365,1,0,0:0:0:0:
256,192,42011,1,8,0:0:0:0:
256,192,42655,1,2,0:0:0:0:
256,192,43623,1,0,0:0:0:0:
256,192,44592,1,0,0:0:0:0:
256,192,45236,1,2,0:0:0:0:
256,192,46526,1,2,0:0:0:0:
256,192,48463,1,0,0:0:0:0:
256,192,49107,1,8,0:0:0:0:
256,192,51043,1,0,0:0:0:0:
256,192,51688,1,2,0:0:0:0:
256,192,52978,1,2,0:0:0:0:
256,192,54913,1,2,0:0:0:0:
256,192,55559,1,0,0:0:0:0:
256,192,56204,1,0,0:0:0:0:
256,192,57495,1,2,0:0:0:0:
256,192,58140,1,2,0:0:0:0:
256,192,59272,1,0,0:0:0:0:
256,192,60096,1,2,0:0:0:0:
256,192,61513,1,0,0:0:0:0:
