osu file format v14

[General]
AudioFilename: audio.mp3
AudioLeadIn: 0
PreviewTime: 76
Countdown: 0
SampleSet: Normal
StackLeniency: 1
Mode: 1
LetterboxInBreaks: 0
WidescreenStoryboard: 0

[Editor]
DistanceSpacing: 1
BeatDivisor: 4
GridSize: 8
TimelineZoom: 1

[Metadata]
Title:Sugar Song to Bitter Step
TitleUnicode:シュガーソングとビターステップ
Artist:R3 Music Box
ArtistUnicode:R3 Music Box
Creator:Poii
Version:Oni
Source:血界戦線
Tags:kekkai sensen ed blood blockade battlefront unison square garden yuzu__rinrin dapuluous franklin_dejavu
BeatmapID:1388309
BeatmapSetID:655062

[Difficulty]
HPDrainRate:5
CircleSize:2
OverallDifficulty:6
ApproachRate:10
SliderMultiplier:1.4
SliderTickRate:1

[Events]
//Background and Video events
0,0,"This+is+JPEG+File.jpg",0,70
//Break Periods
//Storyboard Layer 0 (Background)
//Storyboard Layer 1 (Fail)
//Storyboard Layer 2 (Pass)
//Storyboard Layer 3 (Foreground)
//Storyboard Sound Samples

[TimingPoints]
76,645.161290322581,4,1,0,40,1,0
31043,-100,4,1,0,40,0,1
51688,-100,4,1,0,40,0,0
58613,659.340659340659,4,1,0,40,1,8
58613,-97.8473581213307,4,1,0,40,0,0
59437,659.340659340659,4,1,0,40,1,0
59437,-98.0392156862745,4,1,0,40,0,0
60455,705.882352941176,4,1,0,40,1,8
60455,-91.4076782449726,4,1,0,40,0,0
62219,705.882352941176,4,1,0,40,1,0
62219,-91.743119266055,4,1,0,40,0,0

[HitObjects]
256,0,76,5,0,0:0:0:0:
256,0,397,1,0,0:0:0:0:
256,0,720,1,8,0:0:0:0:
256,0,1042,1,0,0:0:0:0:
256,0,1366,1,0,0:0:0:0:
256,0,1526,1,8,0:0:0:0:
256,0,1850,1,8,0:0:0:0:
256,0,2334,1,0,0:0:0:0:
256,0,2978,1,8,0:0:0:0:
256,0,3300,1,0,0:0:0:0:
256,0,3623,1,8,0:0:0:0:
256,0,3784,1,0,0:0:0:0:
256,0,3945,1,0,0:0:0:0:
256,0,4268,1,8,0:0:0:0:
256,0,4429,1,8,0:0:0:0:
256,0,4913,1,0,0:0:0:0:
256,0,5236,1,8,0:0:0:0:
256,0,5558,1,8,0:0:0:0:
256,0,5881,1,0,0:0:0:0:
256,0,6526,1,0,0:0:0:0:
256,0,6850,1,0,0:0:0:0:
256,0,7172,1,8,0:0:0:0:
256,0,7816,1,8,0:0:0:0:
256,0,8139,1,0,0:0:0:0:
256,0,8462,1,8,0:0:0:0:
256,0,8785,1,0,0:0:0:0:
256,0,9107,1,8,0:0:0:0:
256,0,9429,1,8,0:0:0:0:
256,0,9591,1,0,0:0:0:0:
256,0,10397,5,0,0:0:0:0:
256,0,10720,1,0,0:0:0:0:
256,0,11042,1,8,0:0:0:0:
256,0,11365,1,0,0:0:0:0:
256,0,11687,1,0,0:0:0:0:
256,0,11849,1,8,0:0:0:0:
256,0,12171,1,8,0:0:0:0:
256,0,12655,1,8,0:0:0:0:
256,0,13300,1,8,0:0:0:0:
256,0,13623,1,0,0:0:0:0:
256,0,13945,1,8,0:0:0:0:
256,0,14268,1,0,0:0:0:0:
256,0,14591,1,8,0:0:0:0:
256,0,14752,1,8,0:0:0:0:
256,0,15236,1,8,0:0:0:0:
256,0,15558,1,0,0:0:0:0:
256,0,15881,1,8,0:0:0:0:
248,8,16205,1,8,0:0:0:0:
256,0,16526,1,8,0:0:0:0:
256,0,16688,1,0,0:0:0:0:
256,0,17171,1,0,0:0:0:0:
256,0,17494,1,0,0:0:0:0:
256,0,17655,1,8,0:0:0:0:
256,0,17978,1,8,0:0:0:0:
256,0,18463,1,8,0:0:0:0:
256,0,18784,1,0,0:0:0:0:
256,0,18945,1,8,0:0:0:0:
256,0,19268,1,8,0:0:0:0:
256,0,19752,1,8,0:0:0:0:
256,0,20075,1,8,0:0:0:0:
256,0,20397,1,0,0:0:0:0:
256,0,20720,1,0,0:0:0:0:
256,0,21365,1,8,0:0:0:0:
256,0,22010,1,8,0:0:0:0:
256,0,22494,1,0,0:0:0:0:
256,0,22816,1,0,0:0:0:0:
256,0,23139,1,8,0:0:0:0:
256,0,23623,1,0,0:0:0:0:
256,0,23784,1,0,0:0:0:0:
256,0,23945,1,8,0:0:0:0:
256,0,24268,1,0,0:0:0:0:
256,0,24429,1,8,0:0:0:0:
256,0,24752,1,8,0:0:0:0:
256,0,24913,1,0,0:0:0:0:
256,0,25236,1,8,0:0:0:0:
512,192,25882,1,8,0:0:0:0:
512,192,26205,1,0,0:0:0:0:
512,192,26526,1,0,0:0:0:0:
512,192,26688,1,8,0:0:0:0:
512,192,27010,1,8,0:0:0:0:
512,192,27171,1,0,0:0:0:0:
512,192,27494,1,0,0:0:0:0:
512,192,27816,1,8,0:0:0:0:
512,192,28139,1,8,0:0:0:0:
512,192,28462,1,0,0:0:0:0:
512,192,29107,1,0,0:0:0:0:
512,192,29752,1,8,0:0:0:0:
512,192,30398,1,8,0:0:0:0:
256,0,31042,5,0,0:0:0:0:
256,0,31366,1,0,0:0:0:0:
256,0,31687,1,8,0:0:0:0:
256,0,32010,1,0,0:0:0:0:
256,0,32333,1,0,0:0:0:0:
256,0,32494,1,8,0:0:0:0:
256,0,32816,1,8,0:0:0:0:
256,0,33300,1,8,0:0:0:0:
256,0,33945,1,8,0:0:0:0:
256,0,34268,1,0,0:0:0:0:
256,0,34591,1,8,0:0:0:0:
256,0,34752,1,0,0:0:0:0:
256,0,34913,1,0,0:0:0:0:
256,0,35236,1,8,0:0:0:0:
256,0,35397,1,8,0:0:0:0:
256,0,35881,1,8,0:0:0:0:
256,0,36204,1,0,0:0:0:0:
256,0,36526,1,8,0:0:0:0:
256,0,36850,1,8,0:0:0:0:
256,0,37494,1,0,0:0:0:0:
256,0,37816,1,0,0:0:0:0:
256,0,38139,1,8,0:0:0:0:
256,0,38784,1,8,0:0:0:0:
256,0,39107,1,0,0:0:0:0:
256,0,39429,1,8,0:0:0:0:
256,0,39752,1,0,0:0:0:0:
256,0,40075,1,8,0:0:0:0:
256,0,40397,1,8,0:0:0:0:
256,0,40558,1,0,0:0:0:0:
256,0,41365,5,0,0:0:0:0:
256,0,41687,1,0,0:0:0:0:
256,0,42010,1,8,0:0:0:0:
256,0,42333,1,0,0:0:0:0:
256,0,42655,1,0,0:0:0:0:
256,0,42816,1,8,0:0:0:0:
256,0,43139,1,8,0:0:0:0:
256,0,43624,1,0,0:0:0:0:
256,0,44268,1,8,0:0:0:0:
256,0,44591,1,0,0:0:0:0:
256,0,44913,1,8,0:0:0:0:
256,0,45236,1,0,0:0:0:0:
256,0,45558,1,8,0:0:0:0:
256,0,45721,1,8,0:0:0:0:
256,0,46204,1,8,0:0:0:0:
256,0,46526,1,0,0:0:0:0:
256,0,46849,1,8,0:0:0:0:
256,0,47171,1,8,0:0:0:0:
256,0,47495,1,0,0:0:0:0:
256,0,47656,1,0,0:0:0:0:
256,0,48139,1,0,0:0:0:0:
256,0,48462,1,0,0:0:0:0:
256,0,48623,1,8,0:0:0:0:
256,0,48945,1,8,0:0:0:0:
256,0,49430,1,8,0:0:0:0:
256,0,49752,1,0,0:0:0:0:
256,0,49913,1,8,0:0:0:0:
256,0,50237,1,8,0:0:0:0:
256,0,50720,1,8,0:0:0:0:
256,0,51042,1,8,0:0:0:0:
256,0,51365,1,0,0:0:0:0:
256,0,51687,1,0,0:0:0:0:
256,0,52333,1,0,0:0:0:0:
256,0,52978,1,8,0:0:0:0:
256,0,53462,1,0,0:0:0:0:
256,0,53784,1,0,0:0:0:0:
256,0,54107,1,8,0:0:0:0:
256,0,54591,1,0,0:0:0:0:
256,0,54752,1,0,0:0:0:0:
256,0,54913,1,8,0:0:0:0:
256,0,55236,1,0,0:0:0:0:
256,0,55397,1,8,0:0:0:0:
256,0,55720,1,8,0:0:0:0:
256,0,55881,1,0,0:0:0:0:
256,0,56204,1,8,0:0:0:0:
256,192,56527,1,0,0:0:0:0:
256,0,56849,1,8,0:0:0:0:
256,0,57494,1,0,0:0:0:0:
256,0,58139,1,8,0:0:0:0:
256,0,58613,1,0,0:0:0:0:
256,0,58942,1,0,0:0:0:0:
256,0,59272,1,8,0:0:0:0:
256,0,59766,1,0,0:0:0:0:
256,0,59931,1,0,0:0:0:0:
256,0,60096,1,8,0:0:0:0:
256,0,60455,1,0,0:0:0:0:
256,0,60631,1,8,0:0:0:0:
256,0,60984,1,8,0:0:0:0:
256,0,61160,1,0,0:0:0:0:
256,0,61513,1,8,0:0:0:0:
