osu file format v14

[General]
AudioFilename: audio.mp3
AudioLeadIn: 0
PreviewTime: 23218
Countdown: 1
SampleSet: Soft
StackLeniency: 0.7
Mode: 2
LetterboxInBreaks: 0
WidescreenStoryboard: 0

[Editor]
DistanceSpacing: 1.2
BeatDivisor: 4
GridSize: 32
TimelineZoom: 1

[Metadata]
Title:Star!!
TitleUnicode:Star!!
Artist:R3 Music Box
ArtistUnicode:R3 Music Box
Creator:salchow
Version:Cup!!
Source:
Tags:
BeatmapID:1362552
BeatmapSetID:642707

[Difficulty]
HPDrainRate:4
CircleSize:3
OverallDifficulty:5
ApproachRate:5
SliderMultiplier:1.4
SliderTickRate:1

[Events]
//Background and Video events
0,0,"22531113_p0.jpg",0,0
//Break Periods
//Storyboard Layer 0 (Background)
//Storyboard Layer 1 (Fail)
//Storyboard Layer 2 (Pass)
//Storyboard Layer 3 (Foreground)
//Storyboard Sound Samples

[TimingPoints]
100.189974157186,681.782356289129,4,2,0,50,1,0
1463,677.966101694915,4,2,0,50,1,0
12310,681.782356289129,4,2,0,50,1,0

[Colours]
Combo1 : 123,182,210
Combo2 : 255,187,255
Combo3 : 185,255,255
Combo4 : 233,163,194
Combo5 : 255,255,168
Combo6 : 198,130,192

[HitObjects]
160,224,100,5,0,0:0:0:0:
320,224,781,1,0,0:0:0:0:
160,224,1463,6,0,P|224:224|320:224,1,140
416,256,2818,5,0,0:0:0:0:
447,194,3157,1,0,0:0:0:0:
437,126,3496,1,0,0:0:0:0:
390,76,3835,1,0,0:0:0:0:
96,128,5191,6,0,P|192:160|288:128,1,140
320,96,6208,1,0,0:0:0:0:
288,32,6886,1,0,0:0:0:0:
128,256,8241,5,0,0:0:0:0:
116,188,8581,1,0,0:0:0:0:
154,131,8922,1,0,0:0:0:0:
416,128,9598,6,0,P|320:96|256:128,1,140
320,160,10615,1,0,0:0:0:0:
384,256,12310,1,0,0:0:0:0:
438,216,12650,1,0,0:0:0:0:
444,148,12991,1,0,0:0:0:0:
397,99,13332,1,0,0:0:0:0:
160,256,14014,5,0,0:0:0:0:
192,192,14355,1,0,0:0:0:0:
288,160,14696,1,0,0:0:0:0:
448,160,15378,5,0,0:0:0:0:
416,96,15718,1,0,0:0:0:0:
320,64,16059,1,0,0:0:0:0:
96,160,17423,6,0,L|192:160,1,70
256,160,18105,1,0,0:0:0:0:
160,256,18446,2,0,L|96:192,1,70
256,192,19127,2,0,L|320:128,1,70
128,128,20150,6,0,P|192:96|160:256,1,350
384,224,22536,1,0,0:0:0:0:
224,160,23218,6,0,P|288:128|352:192,1,140
64,128,24582,5,0,0:0:0:0:
32,188,24922,1,0,0:0:0:0:
51,253,25263,1,0,0:0:0:0:
111,287,25604,1,0,0:0:0:0:
384,224,26968,6,0,P|320:192|224:224,1,140
288,224,27990,1,0,0:0:0:0:
96,224,28672,6,0,P|160:192|256:224,1,140
384,224,30036,5,0,0:0:0:0:
352,160,30377,1,0,0:0:0:0:
288,128,30718,1,0,0:0:0:0:
192,128,31059,1,0,0:0:0:0:
128,224,31740,5,0,0:0:0:0:
160,160,32081,1,0,0:0:0:0:
256,128,32422,1,0,0:0:0:0:
384,288,34127,5,0,0:0:0:0:
288,320,34467,1,0,0:0:0:0:
352,192,34808,1,0,0:0:0:0:
256,224,35149,1,0,0:0:0:0:
64,288,35831,5,0,0:0:0:0:
160,256,36171,1,0,0:0:0:0:
288,256,36512,1,0,0:0:0:0:
448,192,37195,5,0,0:0:0:0:
352,160,37535,1,0,0:0:0:0:
224,160,37876,1,0,0:0:0:0:
224,256,38899,6,0,L|256:160,1,70
320,128,39581,1,0,0:0:0:0:
128,288,40944,5,0,0:0:0:0:
224,320,41284,1,0,0:0:0:0:
160,192,41625,1,0,0:0:0:0:
256,224,41966,1,0,0:0:0:0:
416,192,42649,5,0,0:0:0:0:
352,128,42990,1,0,0:0:0:0:
128,256,43671,6,0,L|160:160,1,70
256,128,44353,1,0,0:0:0:0:
224,96,44694,1,0,0:0:0:0:
256,192,45035,12,0,47762,0:0:0:0:
