osu file format v14

[General]
AudioFilename: audio2.mp3
AudioLeadIn: 0
PreviewTime: 18958
Countdown: 0
SampleSet: Soft
StackLeniency: 0.7
Mode: 2
LetterboxInBreaks: 0
WidescreenStoryboard: 1

[Editor]
DistanceSpacing: 2.8
BeatDivisor: 4
GridSize: 4
TimelineZoom: 1

[Metadata]
Title:Seeing a Sixteen-Day-Old Moon
TitleUnicode:十六夜シーイング
Artist:R3 Music Box
ArtistUnicode:R3 Music Box
Creator:Shirokane Rinko
Version:Salad
Source:
Tags:Gumi Last note Moyashi Meriken Irojiro Teppei Sensei
BeatmapID:1807528
BeatmapSetID:864214

[Difficulty]
HPDrainRate:5
CircleSize:3.5
OverallDifficulty:6
ApproachRate:6
SliderMultiplier:1.8
SliderTickRate:1

[Events]
//Background and Video events
0,0,"bg.png",0,0
//Break Periods
//Storyboard Layer 0 (Background)
//Storyboard Layer 1 (Fail)
//Storyboard Layer 2 (Pass)
//Storyboard Layer 3 (Foreground)
//Storyboard Sound Samples

[TimingPoints]
45,652.173913043478,4,2,0,30,1,0
5262,-100,4,2,0,20,0,0
5914,-100,4,2,0,30,0,0
10479,-100,4,2,0,20,0,0
11131,-100,4,2,0,30,0,0
15697,-100,4,2,0,20,0,0
16349,-100,4,2,0,30,0,0
20914,-100,4,2,0,20,0,0
21566,-100,4,2,0,30,0,0
26131,-100,4,2,0,20,0,0
26784,-100,4,2,0,30,0,0
31349,-100,4,2,0,20,0,0
32001,-100,4,2,0,30,0,0
39175,705.882352941176,4,2,0,25,1,0
39175,-100,4,2,0,25,0,0
40233,-100,4,2,0,25,0,0
40645,705.882352941176,4,2,0,25,1,0
41057,705.882352941176,4,2,0,20,1,0
41459,705.882352941176,4,2,0,15,1,0
41932,705.882352941176,4,2,0,10,1,0

[Colours]
Combo1 : 128,128,128
Combo2 : 0,128,255

[HitObjects]
166,233,45,5,2,0:0:0:0:
320,234,697,1,2,0:0:0:0:
166,233,1349,2,0,L|256:232,1,90
384,232,2001,2,0,L|384:138,1,90
255,232,2653,6,0,L|154:232,2,90,2|2|0,0:0|0:0|0:0,0:0:0:0:
381,238,3631,2,0,L|380:342,1,90
253,326,4284,2,0,L|233:226,1,90
382,230,4936,1,0,0:0:0:0:
130,230,5262,5,0,0:0:0:0:
318,231,5914,1,0,0:0:0:0:
139,230,6566,2,0,L|139:326,1,90
264,315,7218,1,0,0:0:0:0:
391,318,7544,6,0,L|391:222,1,90,2|0,0:0|0:0,0:0:0:0:
264,315,8197,1,0,0:0:0:0:
139,320,8523,2,0,L|42:320,2,90,2|0|0,0:0|0:0|0:0,0:0:0:0:
264,315,9501,1,2,0:0:0:0:
391,228,9827,2,0,L|389:128,1,90
137,148,10479,5,0,0:0:0:0:
316,149,11131,1,0,0:0:0:0:
137,148,11784,2,0,L|138:261,1,90
270,239,12436,6,0,L|392:239,1,90
275,162,13088,1,0,0:0:0:0:
149,163,13414,1,0,0:0:0:0:
275,162,13740,6,0,L|372:163,1,90
239,163,14392,1,0,0:0:0:0:
400,161,14718,2,0,L|497:161,2,90,2|0|0,0:0|0:0|0:0,0:0:0:0:
147,173,15697,5,0,0:0:0:0:
348,169,16349,2,0,L|241:170,1,90
401,168,17001,1,0,0:0:0:0:
221,176,17653,1,0,0:0:0:0:
131,178,17979,6,0,L|246:178,1,90
361,81,18631,2,0,L|457:81,2,90,2|2|0,0:0|0:0|0:0,0:0:0:0:
238,81,19610,1,0,0:0:0:0:
361,81,19936,2,0,L|455:82,2,90,2|2|0,0:0|0:0|0:0,0:0:0:0:
109,78,20914,5,0,0:0:0:0:
307,77,21566,2,0,L|193:77,1,90
360,79,22218,1,0,0:0:0:0:
179,77,22871,6,0,L|180:176,1,90
54,175,23523,1,0,0:0:0:0:
179,175,23849,2,0,L|271:175,2,90
53,180,24827,1,0,0:0:0:0:
178,184,25153,2,0,L|272:184,1,90
393,180,25805,1,0,0:0:0:0:
141,173,26131,5,0,0:0:0:0:
346,174,26784,1,0,0:0:0:0:
166,171,27436,1,2,0:0:0:0:
345,171,28088,1,0,0:0:0:0:
219,171,28414,1,0,0:0:0:0:
470,168,28740,6,0,L|470:68,1,90
344,77,29392,1,0,0:0:0:0:
210,77,29718,2,0,L|156:78,2,45
344,77,30371,1,0,0:0:0:0:
469,77,30697,2,0,L|470:181,1,90
189,156,31349,5,0,0:0:0:0:
340,152,32001,1,0,0:0:0:0:
189,156,32653,1,2,0:0:0:0:
311,154,32979,2,0,L|403:154,2,90,2|2|0,0:0|0:0|0:0,0:0:0:0:
189,156,33958,6,0,L|188:249,1,90,0|2,0:0|0:0,0:0:0:0:
311,154,34610,2,0,L|402:153,2,90,2|2|0,0:0|0:0|0:0,0:0:0:0:
185,163,35588,1,0,0:0:0:0:
59,170,35914,6,0,L|59:71,1,90
310,91,36566,2,0,L|416:91,2,90
57,88,37544,2,0,L|56:177,2,90
308,88,38523,2,0,L|406:89,1,90
256,85,39175,5,0,0:0:0:0:
163,83,39527,1,0,0:0:0:0:
28,75,39880,1,0,0:0:0:0:
163,75,40233,1,0,0:0:0:0:
299,77,40645,1,0,0:0:0:0:
172,76,41057,1,0,0:0:0:0:
59,79,41459,1,0,0:0:0:0:
240,80,41932,1,0,0:0:0:0:
